  0
SECTION
  2
HEADER
  9
$ACADVER
  1
AC1015
  9
$ACADMAINTVER
 70
     6
  9
$DWGCODEPAGE
  3
ANSI_1252
  9
$INSBASE
 10
0.0
 20
0.0
 30
0.0
  9
$EXTMIN
 10
0.0
 20
0.0
 30
0.0
  9
$EXTMAX
 10
431.8
 20
279.4
 30
0.0
  9
$LIMMIN
 10
0.0
 20
0.0
  9
$LIMMAX
 10
431.8
 20
279.4
  9
$ORTHOMODE
 70
     0
  9
$REGENMODE
 70
     1
  9
$FILLMODE
 70
     1
  9
$QTEXTMODE
 70
     0
  9
$MIRRTEXT
 70
     1
  9
$LTSCALE
 40
1.0
  9
$ATTMODE
 70
     1
  9
$TEXTSIZE
 40
3.5
  9
$TRACEWID
 40
1.0
  9
$TEXTSTYLE
  7
Standard
  9
$CLAYER
  8
0
  9
$CELTYPE
  6
ByLayer
  9
$CECOLOR
 62
   256
  9
$CELTSCALE
 40
1.0
  9
$DISPSILH
 70
     0
  9
$DIMSCALE
 40
1.0
  9
$DIMASZ
 40
3.302
  9
$DIMEXO
 40
1.0
  9
$DIMDLI
 40
3.75
  9
$DIMRND
 40
0.0
  9
$DIMDLE
 40
0.0
  9
$DIMEXE
 40
1.0
  9
$DIMTP
 40
0.0
  9
$DIMTM
 40
0.0
  9
$DIMTXT
 40
3.5
  9
$DIMCEN
 40
2.5
  9
$DIMTSZ
 40
0.0
  9
$DIMTOL
 70
     0
  9
$DIMLIM
 70
     0
  9
$DIMTIH
 70
     1
  9
$DIMTOH
 70
     1
  9
$DIMSE1
 70
     0
  9
$DIMSE2
 70
     0
  9
$DIMTAD
 70
     1
  9
$DIMZIN
 70
     1
  9
$DIMBLK
  1

  9
$DIMASO
 70
     1
  9
$DIMSHO
 70
     1
  9
$DIMPOST
  1

  9
$DIMAPOST
  1

  9
$DIMALT
 70
     0
  9
$DIMALTD
 70
     3
  9
$DIMALTF
 40
0.0393700787
  9
$DIMLFAC
 40
1.0
  9
$DIMTOFL
 70
     1
  9
$DIMTVP
 40
0.0
  9
$DIMTIX
 70
     0
  9
$DIMSOXD
 70
     0
  9
$DIMSAH
 70
     0
  9
$DIMBLK1
  1

  9
$DIMBLK2
  1

  9
$DIMSTYLE
  2
ISO-25
  9
$DIMCLRD
 70
     0
  9
$DIMCLRE
 70
     0
  9
$DIMCLRT
 70
     0
  9
$DIMTFAC
 40
1.0
  9
$DIMGAP
 40
1.524
  9
$DIMJUST
 70
     0
  9
$DIMSD1
 70
     0
  9
$DIMSD2
 70
     0
  9
$DIMTOLJ
 70
     0
  9
$DIMTZIN
 70
     1
  9
$DIMALTZ
 70
     0
  9
$DIMALTTZ
 70
     0
  9
$DIMUPT
 70
     0
  9
$DIMDEC
 70
     2
  9
$DIMTDEC
 70
     2
  9
$DIMALTU
 70
     2
  9
$DIMALTTD
 70
     3
  9
$DIMTXSTY
  7
Standard
  9
$DIMAUNIT
 70
     0
  9
$DIMADEC
 70
     0
  9
$DIMALTRND
 40
0.0
  9
$DIMAZIN
 70
     0
  9
$DIMDSEP
 70
    44
  9
$DIMATFIT
 70
     3
  9
$DIMFRAC
 70
     0
  9
$DIMLDRBLK
  1

  9
$DIMLUNIT
 70
     2
  9
$DIMLWD
 70
    -2
  9
$DIMLWE
 70
    -2
  9
$DIMTMOVE
 70
     0
  9
$LUNITS
 70
     2
  9
$LUPREC
 70
     2
  9
$SKETCHINC
 40
1.0
  9
$FILLETRAD
 40
10.0
  9
$AUNITS
 70
     0
  9
$AUPREC
 70
     0
  9
$MENU
  1
.
  9
$ELEVATION
 40
0.0
  9
$PELEVATION
 40
0.0
  9
$THICKNESS
 40
0.0
  9
$LIMCHECK
 70
     0
  9
$CHAMFERA
 40
0.0
  9
$CHAMFERB
 40
0.0
  9
$CHAMFERC
 40
0.0
  9
$CHAMFERD
 40
0.0
  9
$SKPOLY
 70
     0
  9
$TDCREATE
 40
2459793.655862928
  9
$TDUCREATE
 40
2459793.572529595
  9
$TDUPDATE
 40
2459793.655864283
  9
$TDUUPDATE
 40
2459793.572530949
  9
$TDINDWG
 40
0.0000000116
  9
$TDUSRTIMER
 40
0.0000000116
  9
$USRTIMER
 70
     1
  9
$ANGBASE
 50
0.0
  9
$ANGDIR
 70
     0
  9
$PDMODE
 70
     0
  9
$PDSIZE
 40
-1.0
  9
$PLINEWID
 40
0.0
  9
$SPLFRAME
 70
     0
  9
$SPLINETYPE
 70
     6
  9
$SPLINESEGS
 70
     8
  9
$HANDSEED
  5
22B
  9
$SURFTAB1
 70
     6
  9
$SURFTAB2
 70
     6
  9
$SURFTYPE
 70
     6
  9
$SURFU
 70
     6
  9
$SURFV
 70
     6
  9
$UCSBASE
  2

  9
$UCSNAME
  2

  9
$UCSORG
 10
0.0
 20
0.0
 30
0.0
  9
$UCSXDIR
 10
1.0
 20
0.0
 30
0.0
  9
$UCSYDIR
 10
0.0
 20
1.0
 30
0.0
  9
$UCSORTHOREF
  2

  9
$UCSORTHOVIEW
 70
     0
  9
$UCSORGTOP
 10
0.0
 20
0.0
 30
0.0
  9
$UCSORGBOTTOM
 10
0.0
 20
0.0
 30
0.0
  9
$UCSORGLEFT
 10
0.0
 20
0.0
 30
0.0
  9
$UCSORGRIGHT
 10
0.0
 20
0.0
 30
0.0
  9
$UCSORGFRONT
 10
0.0
 20
0.0
 30
0.0
  9
$UCSORGBACK
 10
0.0
 20
0.0
 30
0.0
  9
$PUCSBASE
  2

  9
$PUCSNAME
  2

  9
$PUCSORG
 10
0.0
 20
0.0
 30
0.0
  9
$PUCSXDIR
 10
1.0
 20
0.0
 30
0.0
  9
$PUCSYDIR
 10
0.0
 20
1.0
 30
0.0
  9
$PUCSORTHOREF
  2

  9
$PUCSORTHOVIEW
 70
     0
  9
$PUCSORGTOP
 10
0.0
 20
0.0
 30
0.0
  9
$PUCSORGBOTTOM
 10
0.0
 20
0.0
 30
0.0
  9
$PUCSORGLEFT
 10
0.0
 20
0.0
 30
0.0
  9
$PUCSORGRIGHT
 10
0.0
 20
0.0
 30
0.0
  9
$PUCSORGFRONT
 10
0.0
 20
0.0
 30
0.0
  9
$PUCSORGBACK
 10
0.0
 20
0.0
 30
0.0
  9
$USERI1
 70
     0
  9
$USERI2
 70
     0
  9
$USERI3
 70
     0
  9
$USERI4
 70
     0
  9
$USERI5
 70
     0
  9
$USERR1
 40
0.0
  9
$USERR2
 40
0.0
  9
$USERR3
 40
0.0
  9
$USERR4
 40
0.0
  9
$USERR5
 40
0.0
  9
$WORLDVIEW
 70
     1
  9
$SHADEDGE
 70
     3
  9
$SHADEDIF
 70
    70
  9
$TILEMODE
 70
     1
  9
$MAXACTVP
 70
    64
  9
$PINSBASE
 10
0.0
 20
0.0
 30
0.0
  9
$PLIMCHECK
 70
     0
  9
$PEXTMIN
 10
1.0000000000E+20
 20
1.0000000000E+20
 30
1.0000000000E+20
  9
$PEXTMAX
 10
-1.0000000000E+20
 20
-1.0000000000E+20
 30
-1.0000000000E+20
  9
$PLIMMIN
 10
0.0
 20
0.0
  9
$PLIMMAX
 10
420.0
 20
297.0
  9
$UNITMODE
 70
     0
  9
$VISRETAIN
 70
     1
  9
$PLINEGEN
 70
     0
  9
$PSLTSCALE
 70
     1
  9
$TREEDEPTH
 70
  3020
  9
$CMLSTYLE
  2
Standard
  9
$CMLJUST
 70
     0
  9
$CMLSCALE
 40
20.0
  9
$PROXYGRAPHICS
 70
     1
  9
$MEASUREMENT
 70
     1
  9
$CELWEIGHT
370
    -1
  9
$ENDCAPS
280
     0
  9
$JOINSTYLE
280
     0
  9
$LWDISPLAY
290
     1
  9
$INSUNITS
 70
     4
  9
$HYPERLINKBASE
  1

  9
$STYLESHEET
  1

  9
$XEDIT
290
     1
  9
$CEPSNTYPE
380
     0
  9
$PSTYLEMODE
290
     1
  9
$FINGERPRINTGUID
  2
{66384cd1-b028-47cb-ad7b-a44f54ebd404}
  9
$VERSIONGUID
  2
{FAEB1C32-E019-11D5-929B-00C0DF256EC4}
  9
$EXTNAMES
290
     1
  9
$PSVPSCALE
 40
0.0
  9
$OLESTARTUP
290
     0
  0
ENDSEC
  0
SECTION
  2
CLASSES
  0
CLASS
  1
ACDBDICTIONARYWDFLT
  2
AcDbDictionaryWithDefault
  3
ObjectDBX Classes
 90
        0
280
     0
281
     0
  0
CLASS
  1
VISUALSTYLE
  2
AcDbVisualStyle
  3
ObjectDBX Classes
 90
     4095
280
     0
281
     0
  0
CLASS
  1
MATERIAL
  2
AcDbMaterial
  3
ObjectDBX Classes
 90
     1153
280
     0
281
     0
  0
CLASS
  1
SCALE
  2
AcDbScale
  3
ObjectDBX Classes
 90
     1153
280
     0
281
     0
  0
CLASS
  1
TABLESTYLE
  2
AcDbTableStyle
  3
ObjectDBX Classes
 90
     4095
280
     0
281
     0
  0
CLASS
  1
MLEADERSTYLE
  2
AcDbMLeaderStyle
  3
ACDB_MLEADERSTYLE_CLASS
 90
     4095
280
     0
281
     0
  0
CLASS
  1
SUN
  2
AcDbSun
  3
SCENEOE
 90
     1153
280
     0
281
     0
  0
CLASS
  1
ACDBPLACEHOLDER
  2
AcDbPlaceHolder
  3
ObjectDBX Classes
 90
        0
280
     0
281
     0
  0
CLASS
  1
LAYOUT
  2
AcDbLayout
  3
ObjectDBX Classes
 90
        0
280
     0
281
     0
  0
ENDSEC
  0
SECTION
  2
TABLES
  0
TABLE
  2
VPORT
  5
8
330
0
100
AcDbSymbolTable
 70
     1
  0
VPORT
  5
29
330
8
100
AcDbSymbolTableRecord
100
AcDbViewportTableRecord
  2
*Active
 70
     0
 10
0.0
 20
0.0
 11
1.0
 21
1.0
 12
215.9
 22
139.7
 13
0.0
 23
0.0
 14
10.0
 24
10.0
 15
10.0
 25
10.0
 16
0.0
 26
0.0
 36
1.0
 17
0.0
 27
0.0
 37
0.0
 40
279.4
 41
1.5454545455
 42
50.0
 43
0.0
 44
0.0
 50
0.0
 51
0.0
 71
     0
 72
  2000
 73
     1
 74
     3
 75
     0
 76
     0
 77
     0
 78
     0
281
     0
 65
     1
110
0.0
120
0.0
130
0.0
111
1.0
121
0.0
131
0.0
112
0.0
122
1.0
132
0.0
 79
     0
146
0.0
  0
ENDTAB
  0
TABLE
  2
LTYPE
  5
5
330
0
100
AcDbSymbolTable
 70
     6
  0
LTYPE
  5
14
330
5
100
AcDbSymbolTableRecord
100
AcDbLinetypeTableRecord
  2
ByBlock
 70
     0
  3

 72
    65
 73
     0
 40
0.0
  0
LTYPE
  5
15
330
5
100
AcDbSymbolTableRecord
100
AcDbLinetypeTableRecord
  2
ByLayer
 70
     0
  3

 72
    65
 73
     0
 40
0.0
  0
LTYPE
  5
16
330
5
100
AcDbSymbolTableRecord
100
AcDbLinetypeTableRecord
  2
Continuous
 70
     0
  3
Solid line
 72
    65
 73
     0
 40
0.0
  0
LTYPE
  5
6E
330
5
100
AcDbSymbolTableRecord
100
AcDbLinetypeTableRecord
  2
HIDDEN
 70
     0
  3
Hidden __ __ __ __ __ __ __ __ __ __ __ __ __ __
 72
    65
 73
     2
 40
1.905
 49
1.27
 74
     0
 49
-0.635
 74
     0
  0
LTYPE
  5
6F
330
5
100
AcDbSymbolTableRecord
100
AcDbLinetypeTableRecord
  2
PHANTOM
 70
     0
  3
Phantom ______  __  __  ______  __  __  ______
 72
    65
 73
     6
 40
12.7
 49
6.35
 74
     0
 49
-1.27
 74
     0
 49
1.27
 74
     0
 49
-1.27
 74
     0
 49
1.27
 74
     0
 49
-1.27
 74
     0
  0
LTYPE
  5
70
330
5
100
AcDbSymbolTableRecord
100
AcDbLinetypeTableRecord
  2
CENTER
 70
     0
  3
Center ____ _ ____ _ ____ _ ____ _ ____ _ ____
 72
    65
 73
     4
 40
10.16
 49
6.35
 74
     0
 49
-1.27
 74
     0
 49
1.27
 74
     0
 49
-1.27
 74
     0
  0
LTYPE
  5
71
330
5
100
AcDbSymbolTableRecord
100
AcDbLinetypeTableRecord
  2
CENTERX2
 70
     0
  3
Center (2x) ________  __  ________  __  _____
 72
    65
 73
     4
 40
20.32
 49
12.7
 74
     0
 49
-2.54
 74
     0
 49
2.54
 74
     0
 49
-2.54
 74
     0
  0
LTYPE
  5
72
330
5
100
AcDbSymbolTableRecord
100
AcDbLinetypeTableRecord
  2
DOT2
 70
     0
  3
Dot (.5x) ........................................
 72
    65
 73
     2
 40
0.635
 49
0.0
 74
     0
 49
-0.635
 74
     0
  0
ENDTAB
  0
TABLE
  2
LAYER
  5
2
330
0
100
AcDbSymbolTable
 70
     1
  0
LAYER
  5
10
330
2
100
AcDbSymbolTableRecord
100
AcDbLayerTableRecord
  2
0
 70
     0
 62
     7
  6
Continuous
370
    -3
390
F
  0
ENDTAB
  0
TABLE
  2
STYLE
  5
3
330
0
100
AcDbSymbolTable
 70
     3
  0
STYLE
  5
11
330
3
100
AcDbSymbolTableRecord
100
AcDbTextStyleTableRecord
  2
Standard
 70
     0
 40
0.0
 41
1.0
 50
0.0
 71
     0
 42
3.5
  3
txt
  4

  0
STYLE
  5
94
330
3
100
AcDbSymbolTableRecord
100
AcDbTextStyleTableRecord
  2
SLDTEXTSTYLE0
 70
     0
 40
0.0
 41
0.605
 50
0.0
 71
     0
 42
3.5
  3
TXT
  4

  0
STYLE
  5
176
330
3
100
AcDbSymbolTableRecord
100
AcDbTextStyleTableRecord
  2
SLDTEXTSTYLE1
 70
     0
 40
0.0
 41
0.75
 50
0.0
 71
     0
 42
3.5
  3
TXT
  4

  0
ENDTAB
  0
TABLE
  2
VIEW
  5
6
330
0
100
AcDbSymbolTable
 70
     0
  0
ENDTAB
  0
TABLE
  2
UCS
  5
7
330
0
100
AcDbSymbolTable
 70
     0
  0
ENDTAB
  0
TABLE
  2
APPID
  5
9
330
0
100
AcDbSymbolTable
 70
     1
  0
APPID
  5
12
330
9
100
AcDbSymbolTableRecord
100
AcDbRegAppTableRecord
  2
ACAD
 70
     0
  0
ENDTAB
  0
TABLE
  2
DIMSTYLE
  5
A
330
0
100
AcDbSymbolTable
 70
     2
100
AcDbDimStyleTable
  0
DIMSTYLE
105
27
330
A
100
AcDbSymbolTableRecord
100
AcDbDimStyleTableRecord
  2
ISO-25
 70
     0
 41
2.5
 42
0.625
 43
3.75
 44
1.25
 73
     0
 74
     0
 77
     1
 78
     8
140
2.5
141
2.5
143
0.0393700787
147
0.625
171
     3
172
     1
178
     0
271
     2
272
     2
274
     3
278
    44
283
     0
284
     8
340
11
  0
DIMSTYLE
105
1E4
102
{ACAD_REACTORS
330
1E3
102
}
330
A
100
AcDbSymbolTableRecord
100
AcDbDimStyleTableRecord
  2
SLDDIMSTYLE0
 70
     0
 41
3.302
 44
0.0
 45
0.000000001
 73
     0
 74
     0
 77
     1
 78
    12
 79
     3
140
3.5
141
0.0
147
0.875
172
     1
173
     1
178
     0
271
     1
272
     1
276
     2
284
    12
340
176
341
1E5
343
1E5
  0
ENDTAB
  0
TABLE
  2
BLOCK_RECORD
  5
1
330
0
100
AcDbSymbolTable
 70
    28
  0
BLOCK_RECORD
  5
1F
330
1
100
AcDbSymbolTableRecord
100
AcDbBlockTableRecord
  2
*Model_Space
340
22
  0
BLOCK_RECORD
  5
1B
330
1
100
AcDbSymbolTableRecord
100
AcDbBlockTableRecord
  2
*Paper_Space
340
1E
  0
BLOCK_RECORD
  5
23
330
1
100
AcDbSymbolTableRecord
100
AcDbBlockTableRecord
  2
*Paper_Space0
340
26
  0
BLOCK_RECORD
  5
73
330
1
100
AcDbSymbolTableRecord
100
AcDbBlockTableRecord
  2
Block5
340
0
102
{BLKREFS
331
175
102
}
  0
BLOCK_RECORD
  5
8A
330
1
100
AcDbSymbolTableRecord
100
AcDbBlockTableRecord
  2
SW_BLOCK_DIMENSION_0
340
0
102
{BLKREFS
331
96
102
}
  0
BLOCK_RECORD
  5
8D
330
1
100
AcDbSymbolTableRecord
100
AcDbBlockTableRecord
  2
_Origin
340
0
102
{BLKREFS
331
92
331
102
102
}
  0
BLOCK_RECORD
  5
97
330
1
100
AcDbSymbolTableRecord
100
AcDbBlockTableRecord
  2
SW_BLOCK_DIMENSION_1
340
0
102
{BLKREFS
331
9E
102
}
  0
BLOCK_RECORD
  5
9F
330
1
100
AcDbSymbolTableRecord
100
AcDbBlockTableRecord
  2
SW_BLOCK_DIMENSION_2
340
0
102
{BLKREFS
331
A6
102
}
  0
BLOCK_RECORD
  5
A7
330
1
100
AcDbSymbolTableRecord
100
AcDbBlockTableRecord
  2
SW_BLOCK_DIMENSION_3
340
0
102
{BLKREFS
331
AE
102
}
  0
BLOCK_RECORD
  5
AF
330
1
100
AcDbSymbolTableRecord
100
AcDbBlockTableRecord
  2
SW_BLOCK_DIMENSION_4
340
0
102
{BLKREFS
331
B6
102
}
  0
BLOCK_RECORD
  5
B7
330
1
100
AcDbSymbolTableRecord
100
AcDbBlockTableRecord
  2
SW_BLOCK_DIMENSION_5
340
0
102
{BLKREFS
331
BE
102
}
  0
BLOCK_RECORD
  5
BF
330
1
100
AcDbSymbolTableRecord
100
AcDbBlockTableRecord
  2
SW_BLOCK_DIMENSION_6
340
0
102
{BLKREFS
331
C6
102
}
  0
BLOCK_RECORD
  5
C7
330
1
100
AcDbSymbolTableRecord
100
AcDbBlockTableRecord
  2
SW_BLOCK_DIMENSION_7
340
0
102
{BLKREFS
331
CE
102
}
  0
BLOCK_RECORD
  5
CF
330
1
100
AcDbSymbolTableRecord
100
AcDbBlockTableRecord
  2
SW_BLOCK_DIMENSION_8
340
0
102
{BLKREFS
331
D6
102
}
  0
BLOCK_RECORD
  5
D7
330
1
100
AcDbSymbolTableRecord
100
AcDbBlockTableRecord
  2
SW_BLOCK_DIMENSION_9
340
0
102
{BLKREFS
331
DE
102
}
  0
BLOCK_RECORD
  5
DF
330
1
100
AcDbSymbolTableRecord
100
AcDbBlockTableRecord
  2
SW_BLOCK_DIMENSION_10
340
0
102
{BLKREFS
331
E6
102
}
  0
BLOCK_RECORD
  5
E7
330
1
100
AcDbSymbolTableRecord
100
AcDbBlockTableRecord
  2
SW_BLOCK_DIMENSION_11
340
0
102
{BLKREFS
331
EE
102
}
  0
BLOCK_RECORD
  5
EF
330
1
100
AcDbSymbolTableRecord
100
AcDbBlockTableRecord
  2
SW_BLOCK_DIMENSION_12
340
0
102
{BLKREFS
331
F6
102
}
  0
BLOCK_RECORD
  5
F7
330
1
100
AcDbSymbolTableRecord
100
AcDbBlockTableRecord
  2
SW_BLOCK_DIMENSION_13
340
0
102
{BLKREFS
331
FE
102
}
  0
BLOCK_RECORD
  5
FF
330
1
100
AcDbSymbolTableRecord
100
AcDbBlockTableRecord
  2
SW_BLOCK_DIMENSION_14
340
0
102
{BLKREFS
331
10E
102
}
  0
BLOCK_RECORD
  5
10F
330
1
100
AcDbSymbolTableRecord
100
AcDbBlockTableRecord
  2
SW_BLOCK_DIMENSION_15
340
0
102
{BLKREFS
331
11F
102
}
  0
BLOCK_RECORD
  5
120
330
1
100
AcDbSymbolTableRecord
100
AcDbBlockTableRecord
  2
SW_BLOCK_DIMENSION_16
340
0
102
{BLKREFS
331
130
102
}
  0
BLOCK_RECORD
  5
131
330
1
100
AcDbSymbolTableRecord
100
AcDbBlockTableRecord
  2
SW_BLOCK_DIMENSION_17
340
0
102
{BLKREFS
331
141
102
}
  0
BLOCK_RECORD
  5
142
330
1
100
AcDbSymbolTableRecord
100
AcDbBlockTableRecord
  2
SW_BLOCK_DIMENSION_18
340
0
102
{BLKREFS
331
152
102
}
  0
BLOCK_RECORD
  5
153
330
1
100
AcDbSymbolTableRecord
100
AcDbBlockTableRecord
  2
SW_BLOCK_DIMENSION_19
340
0
102
{BLKREFS
331
163
102
}
  0
BLOCK_RECORD
  5
164
330
1
100
AcDbSymbolTableRecord
100
AcDbBlockTableRecord
  2
SW_NOTE_0
340
0
102
{BLKREFS
331
169
102
}
  0
BLOCK_RECORD
  5
16A
330
1
100
AcDbSymbolTableRecord
100
AcDbBlockTableRecord
  2
SW_NOTE_0_1
340
0
102
{BLKREFS
331
16E
102
}
  0
BLOCK_RECORD
  5
179
330
1
100
AcDbSymbolTableRecord
100
AcDbBlockTableRecord
  2
SW_NOTE_0_2
340
0
102
{BLKREFS
331
180
102
}
  0
BLOCK_RECORD
  5
1E5
330
1
100
AcDbSymbolTableRecord
100
AcDbBlockTableRecord
  2
_None
340
0
  0
BLOCK_RECORD
  5
1E8
330
1
100
AcDbSymbolTableRecord
100
AcDbBlockTableRecord
  2
_D
340
0
  0
ENDTAB
  0
ENDSEC
  0
SECTION
  2
BLOCKS
  0
BLOCK
  5
20
330
1F
100
AcDbEntity
  8
0
100
AcDbBlockBegin
  2
*Model_Space
 70
     0
 10
0.0
 20
0.0
 30
0.0
  3
*Model_Space
  1

  0
ENDBLK
  5
21
330
1F
100
AcDbEntity
  8
0
100
AcDbBlockEnd
  0
BLOCK
  5
1C
330
1B
100
AcDbEntity
 67
     1
  8
0
100
AcDbBlockBegin
  2
*Paper_Space
 70
     0
 10
0.0
 20
0.0
 30
0.0
  3
*Paper_Space
  1

  0
ENDBLK
  5
1D
330
1B
100
AcDbEntity
 67
     1
  8
0
100
AcDbBlockEnd
  0
BLOCK
  5
24
330
23
100
AcDbEntity
  8
0
100
AcDbBlockBegin
  2
*Paper_Space0
 70
     0
 10
0.0
 20
0.0
 30
0.0
  3
*Paper_Space0
  1

  0
ENDBLK
  5
25
330
23
100
AcDbEntity
  8
0
100
AcDbBlockEnd
  0
BLOCK
  5
74
330
73
100
AcDbEntity
  8
0
100
AcDbBlockBegin
  2
Block5
 70
     0
 10
0.0
 20
0.0
 30
0.0
  3
Block5
  1

  0
LINE
  5
76
330
73
100
AcDbEntity
  8
0
100
AcDbLine
 10
363.6834285714
 20
41.3579706949
 30
0.0
 11
388.6834285714
 21
41.3579706949
 31
0.0
  0
LINE
  5
77
330
73
100
AcDbEntity
  8
0
100
AcDbLine
 10
374.9034285714
 20
41.3579706949
 30
0.0
 11
374.9034285714
 21
171.3579706949
 31
0.0
  0
LINE
  5
78
330
73
100
AcDbEntity
  8
0
100
AcDbLine
 10
374.9034285714
 20
51.3579706949
 30
0.0
 11
384.9034285714
 21
51.3579706949
 31
0.0
  0
LINE
  5
79
330
73
100
AcDbEntity
  8
0
100
AcDbLine
 10
374.9034285714
 20
61.3579706949
 30
0.0
 11
384.9034285714
 21
61.3579706949
 31
0.0
  0
LINE
  5
7A
330
73
100
AcDbEntity
  8
0
100
AcDbLine
 10
374.9034285714
 20
71.3579706949
 30
0.0
 11
384.9034285714
 21
71.3579706949
 31
0.0
  0
LINE
  5
7B
330
73
100
AcDbEntity
  8
0
100
AcDbLine
 10
374.9034285714
 20
81.3579706949
 30
0.0
 11
384.9034285714
 21
81.3579706949
 31
0.0
  0
LINE
  5
7C
330
73
100
AcDbEntity
  8
0
100
AcDbLine
 10
374.9034285714
 20
91.3579706949
 30
0.0
 11
384.9034285714
 21
91.3579706949
 31
0.0
  0
LINE
  5
7D
330
73
100
AcDbEntity
  8
0
100
AcDbLine
 10
374.9034285714
 20
101.3579706949
 30
0.0
 11
384.9034285714
 21
101.3579706949
 31
0.0
  0
LINE
  5
7E
330
73
100
AcDbEntity
  8
0
100
AcDbLine
 10
374.9034285714
 20
111.3579706949
 30
0.0
 11
384.9034285714
 21
111.3579706949
 31
0.0
  0
LINE
  5
7F
330
73
100
AcDbEntity
  8
0
100
AcDbLine
 10
374.9034285714
 20
121.3579706949
 30
0.0
 11
384.9034285714
 21
121.3579706949
 31
0.0
  0
LINE
  5
80
330
73
100
AcDbEntity
  8
0
100
AcDbLine
 10
374.9034285714
 20
131.3579706949
 30
0.0
 11
384.9034285714
 21
131.3579706949
 31
0.0
  0
LINE
  5
81
330
73
100
AcDbEntity
  8
0
100
AcDbLine
 10
374.9034285714
 20
141.3579706949
 30
0.0
 11
384.9034285714
 21
141.3579706949
 31
0.0
  0
LINE
  5
82
330
73
100
AcDbEntity
  8
0
100
AcDbLine
 10
374.9034285714
 20
151.3579706949
 30
0.0
 11
384.9034285714
 21
151.3579706949
 31
0.0
  0
LINE
  5
83
330
73
100
AcDbEntity
  8
0
100
AcDbLine
 10
374.9034285714
 20
161.3579706949
 30
0.0
 11
384.9034285714
 21
161.3579706949
 31
0.0
  0
LINE
  5
84
330
73
100
AcDbEntity
  8
0
100
AcDbLine
 10
374.9034285714
 20
171.3579706949
 30
0.0
 11
384.9034285714
 21
171.3579706949
 31
0.0
  0
LINE
  5
85
330
73
100
AcDbEntity
  8
0
100
AcDbLine
 10
374.9034285714
 20
66.7579706949
 30
0.0
 11
362.9034285714
 21
66.7579706949
 31
0.0
  0
LINE
  5
86
330
73
100
AcDbEntity
  8
0
100
AcDbLine
 10
374.9034285714
 20
92.1579706949
 30
0.0
 11
362.9034285714
 21
92.1579706949
 31
0.0
  0
LINE
  5
87
330
73
100
AcDbEntity
  8
0
100
AcDbLine
 10
374.9034285714
 20
117.5579706949
 30
0.0
 11
362.9034285714
 21
117.5579706949
 31
0.0
  0
LINE
  5
88
330
73
100
AcDbEntity
  8
0
100
AcDbLine
 10
374.9034285714
 20
142.9579706949
 30
0.0
 11
362.9034285714
 21
142.9579706949
 31
0.0
  0
LINE
  5
89
330
73
100
AcDbEntity
  8
0
100
AcDbLine
 10
374.9034285714
 20
168.3579706949
 30
0.0
 11
362.9034285714
 21
168.3579706949
 31
0.0
  0
INSERT
  5
96
330
73
100
AcDbEntity
  8
0
  6
Continuous
370
    18
100
AcDbBlockReference
  2
SW_BLOCK_DIMENSION_0
 10
397.2096946378
 20
38.9914197296
 30
0.0
  0
INSERT
  5
9E
330
73
100
AcDbEntity
  8
0
  6
Continuous
370
    18
100
AcDbBlockReference
  2
SW_BLOCK_DIMENSION_1
 10
397.2096946378
 20
48.9914197296
 30
0.0
  0
INSERT
  5
A6
330
73
100
AcDbEntity
  8
0
  6
Continuous
370
    18
100
AcDbBlockReference
  2
SW_BLOCK_DIMENSION_2
 10
397.2096946378
 20
58.9914197296
 30
0.0
  0
INSERT
  5
AE
330
73
100
AcDbEntity
  8
0
  6
Continuous
370
    18
100
AcDbBlockReference
  2
SW_BLOCK_DIMENSION_3
 10
397.2096946378
 20
68.9914197296
 30
0.0
  0
INSERT
  5
B6
330
73
100
AcDbEntity
  8
0
  6
Continuous
370
    18
100
AcDbBlockReference
  2
SW_BLOCK_DIMENSION_4
 10
397.2096946378
 20
78.9914197296
 30
0.0
  0
INSERT
  5
BE
330
73
100
AcDbEntity
  8
0
  6
Continuous
370
    18
100
AcDbBlockReference
  2
SW_BLOCK_DIMENSION_5
 10
397.2096946378
 20
88.9914197296
 30
0.0
  0
INSERT
  5
C6
330
73
100
AcDbEntity
  8
0
  6
Continuous
370
    18
100
AcDbBlockReference
  2
SW_BLOCK_DIMENSION_6
 10
397.2096946378
 20
98.9914197296
 30
0.0
  0
INSERT
  5
CE
330
73
100
AcDbEntity
  8
0
  6
Continuous
370
    18
100
AcDbBlockReference
  2
SW_BLOCK_DIMENSION_7
 10
397.2096946378
 20
108.9914197296
 30
0.0
  0
INSERT
  5
D6
330
73
100
AcDbEntity
  8
0
  6
Continuous
370
    18
100
AcDbBlockReference
  2
SW_BLOCK_DIMENSION_8
 10
397.2096946378
 20
118.9914197296
 30
0.0
  0
INSERT
  5
DE
330
73
100
AcDbEntity
  8
0
  6
Continuous
370
    18
100
AcDbBlockReference
  2
SW_BLOCK_DIMENSION_9
 10
397.2096946378
 20
128.9914197296
 30
0.0
  0
INSERT
  5
E6
330
73
100
AcDbEntity
  8
0
  6
Continuous
370
    18
100
AcDbBlockReference
  2
SW_BLOCK_DIMENSION_10
 10
397.2096946378
 20
138.9914197296
 30
0.0
  0
INSERT
  5
EE
330
73
100
AcDbEntity
  8
0
  6
Continuous
370
    18
100
AcDbBlockReference
  2
SW_BLOCK_DIMENSION_11
 10
397.2096946378
 20
148.9914197296
 30
0.0
  0
INSERT
  5
F6
330
73
100
AcDbEntity
  8
0
  6
Continuous
370
    18
100
AcDbBlockReference
  2
SW_BLOCK_DIMENSION_12
 10
397.2096946378
 20
158.9914197296
 30
0.0
  0
INSERT
  5
FE
330
73
100
AcDbEntity
  8
0
  6
Continuous
370
    18
100
AcDbBlockReference
  2
SW_BLOCK_DIMENSION_13
 10
397.2096946378
 20
168.9914197296
 30
0.0
  0
INSERT
  5
10E
330
73
100
AcDbEntity
  8
0
  6
Continuous
370
    18
100
AcDbBlockReference
  2
SW_BLOCK_DIMENSION_14
 10
341.1734707322
 20
36.1691980072
 30
0.0
  0
INSERT
  5
11F
330
73
100
AcDbEntity
  8
0
  6
Continuous
370
    18
100
AcDbBlockReference
  2
SW_BLOCK_DIMENSION_15
 10
339.1802765097
 20
61.5691980072
 30
0.0
  0
INSERT
  5
130
330
73
100
AcDbEntity
  8
0
  6
Continuous
370
    18
100
AcDbBlockReference
  2
SW_BLOCK_DIMENSION_16
 10
339.1802765097
 20
86.9691980072
 30
0.0
  0
INSERT
  5
141
330
73
100
AcDbEntity
  8
0
  6
Continuous
370
    18
100
AcDbBlockReference
  2
SW_BLOCK_DIMENSION_17
 10
339.1802765097
 20
112.3691980072
 30
0.0
  0
INSERT
  5
152
330
73
100
AcDbEntity
  8
0
  6
Continuous
370
    18
100
AcDbBlockReference
  2
SW_BLOCK_DIMENSION_18
 10
336.8284243759
 20
137.7691980072
 30
0.0
  0
INSERT
  5
163
330
73
100
AcDbEntity
  8
0
  6
Continuous
370
    18
100
AcDbBlockReference
  2
SW_BLOCK_DIMENSION_19
 10
336.8284243759
 20
163.1691980072
 30
0.0
  0
INSERT
  5
169
330
73
100
AcDbEntity
  8
0
 62
     7
100
AcDbBlockReference
  2
SW_NOTE_0
 10
337.5586028241
 20
28.8175207347
 30
0.0
  0
INSERT
  5
16E
330
73
100
AcDbEntity
  8
0
 62
     7
100
AcDbBlockReference
  2
SW_NOTE_0_1
 10
393.160738319
 20
28.8175207347
 30
0.0
  0
ENDBLK
  5
75
330
73
100
AcDbEntity
  8
0
100
AcDbBlockEnd
  0
BLOCK
  5
8B
330
8A
100
AcDbEntity
  8
0
100
AcDbBlockBegin
  2
SW_BLOCK_DIMENSION_0
 70
     0
 10
0.0
 20
0.0
 30
0.0
  3
SW_BLOCK_DIMENSION_0
  1

  0
INSERT
  5
92
330
8A
100
AcDbEntity
  8
0
  6
Continuous
 62
     0
370
    18
100
AcDbBlockReference
  2
_Origin
 10
-1.016
 20
2.3665509652
 30
0.0
 41
1.016
 42
1.016
 50
0.0
  0
LINE
  5
93
330
8A
100
AcDbEntity
  8
0
  6
Continuous
 62
     0
370
    18
100
AcDbLine
 10
-7.5262660664
 20
2.3665509652
 30
0.0
 11
0.0
 21
2.3665509652
 31
0.0
  0
MTEXT
  5
95
330
8A
100
AcDbEntity
  8
0
  6
Continuous
 62
     0
370
    18
100
AcDbMText
 10
0.0
 20
4.0927900738
 30
0.0
 40
3.175
 41
0.0
 71
     1
 72
     1
  1
0
  7
SLDTEXTSTYLE0
 73
     1
 44
1.0
  0
ENDBLK
  5
8C
330
8A
100
AcDbEntity
  8
0
100
AcDbBlockEnd
  0
BLOCK
  5
8E
330
8D
100
AcDbEntity
  8
0
100
AcDbBlockBegin
  2
_Origin
 70
     0
 10
0.0
 20
0.0
 30
0.0
  3
_Origin
  1

  0
CIRCLE
  5
90
330
8D
100
AcDbEntity
  8
0
  6
ByBlock
 62
     0
370
    -2
100
AcDbCircle
 10
0.0
 20
0.0
 30
0.0
 40
0.5
  0
LINE
  5
91
330
8D
100
AcDbEntity
  8
0
  6
ByBlock
 62
     0
370
    -2
100
AcDbLine
 10
0.0
 20
0.0
 30
0.0
 11
-1.0
 21
0.0
 31
0.0
  0
ENDBLK
  5
8F
330
8D
100
AcDbEntity
  8
0
100
AcDbBlockEnd
  0
BLOCK
  5
98
330
97
100
AcDbEntity
  8
0
100
AcDbBlockBegin
  2
SW_BLOCK_DIMENSION_1
 70
     0
 10
0.0
 20
0.0
 30
0.0
  3
SW_BLOCK_DIMENSION_1
  1

  0
SOLID
  5
9A
330
97
100
AcDbEntity
  8
0
  6
Continuous
 62
     0
370
    18
100
AcDbTrace
 10
-1.016
 20
2.3665509652
 30
0.0
 11
-1.524
 21
-0.9354490348
 31
0.0
 12
-0.508
 22
-0.9354490348
 32
0.0
 13
-0.508
 23
-0.9354490348
 33
0.0
  0
LINE
  5
9B
330
97
100
AcDbEntity
  8
0
  6
Continuous
 62
     0
370
    18
100
AcDbLine
 10
-11.3062660664
 20
2.3665509652
 30
0.0
 11
0.0
 21
2.3665509652
 31
0.0
  0
LINE
  5
9C
330
97
100
AcDbEntity
  8
0
  6
Continuous
 62
     0
370
    18
100
AcDbLine
 10
-1.016
 20
-7.6334490348
 30
0.0
 11
-1.016
 21
2.3665509652
 31
0.0
  0
MTEXT
  5
9D
330
97
100
AcDbEntity
  8
0
  6
Continuous
 62
     0
370
    18
100
AcDbMText
 10
0.0
 20
4.0927900738
 30
0.0
 40
3.175
 41
0.0
 71
     1
 72
     1
  1
10,00
  7
SLDTEXTSTYLE0
 73
     1
 44
1.0
  0
ENDBLK
  5
99
330
97
100
AcDbEntity
  8
0
100
AcDbBlockEnd
  0
BLOCK
  5
A0
330
9F
100
AcDbEntity
  8
0
100
AcDbBlockBegin
  2
SW_BLOCK_DIMENSION_2
 70
     0
 10
0.0
 20
0.0
 30
0.0
  3
SW_BLOCK_DIMENSION_2
  1

  0
SOLID
  5
A2
330
9F
100
AcDbEntity
  8
0
  6
Continuous
 62
     0
370
    18
100
AcDbTrace
 10
-1.016
 20
2.3665509652
 30
0.0
 11
-1.524
 21
-0.9354490348
 31
0.0
 12
-0.508
 22
-0.9354490348
 32
0.0
 13
-0.508
 23
-0.9354490348
 33
0.0
  0
LINE
  5
A3
330
9F
100
AcDbEntity
  8
0
  6
Continuous
 62
     0
370
    18
100
AcDbLine
 10
-11.3062660664
 20
2.3665509652
 30
0.0
 11
0.0
 21
2.3665509652
 31
0.0
  0
LINE
  5
A4
330
9F
100
AcDbEntity
  8
0
  6
Continuous
 62
     0
370
    18
100
AcDbLine
 10
-1.016
 20
-7.6334490348
 30
0.0
 11
-1.016
 21
2.3665509652
 31
0.0
  0
MTEXT
  5
A5
330
9F
100
AcDbEntity
  8
0
  6
Continuous
 62
     0
370
    18
100
AcDbMText
 10
0.0
 20
4.0927900738
 30
0.0
 40
3.175
 41
0.0
 71
     1
 72
     1
  1
20,00
  7
SLDTEXTSTYLE0
 73
     1
 44
1.0
  0
ENDBLK
  5
A1
330
9F
100
AcDbEntity
  8
0
100
AcDbBlockEnd
  0
BLOCK
  5
A8
330
A7
100
AcDbEntity
  8
0
100
AcDbBlockBegin
  2
SW_BLOCK_DIMENSION_3
 70
     0
 10
0.0
 20
0.0
 30
0.0
  3
SW_BLOCK_DIMENSION_3
  1

  0
SOLID
  5
AA
330
A7
100
AcDbEntity
  8
0
  6
Continuous
 62
     0
370
    18
100
AcDbTrace
 10
-1.016
 20
2.3665509652
 30
0.0
 11
-1.524
 21
-0.9354490348
 31
0.0
 12
-0.508
 22
-0.9354490348
 32
0.0
 13
-0.508
 23
-0.9354490348
 33
0.0
  0
LINE
  5
AB
330
A7
100
AcDbEntity
  8
0
  6
Continuous
 62
     0
370
    18
100
AcDbLine
 10
-11.3062660664
 20
2.3665509652
 30
0.0
 11
0.0
 21
2.3665509652
 31
0.0
  0
LINE
  5
AC
330
A7
100
AcDbEntity
  8
0
  6
Continuous
 62
     0
370
    18
100
AcDbLine
 10
-1.016
 20
-7.6334490348
 30
0.0
 11
-1.016
 21
2.3665509652
 31
0.0
  0
MTEXT
  5
AD
330
A7
100
AcDbEntity
  8
0
  6
Continuous
 62
     0
370
    18
100
AcDbMText
 10
0.0
 20
4.0927900738
 30
0.0
 40
3.175
 41
0.0
 71
     1
 72
     1
  1
30,00
  7
SLDTEXTSTYLE0
 73
     1
 44
1.0
  0
ENDBLK
  5
A9
330
A7
100
AcDbEntity
  8
0
100
AcDbBlockEnd
  0
BLOCK
  5
B0
330
AF
100
AcDbEntity
  8
0
100
AcDbBlockBegin
  2
SW_BLOCK_DIMENSION_4
 70
     0
 10
0.0
 20
0.0
 30
0.0
  3
SW_BLOCK_DIMENSION_4
  1

  0
SOLID
  5
B2
330
AF
100
AcDbEntity
  8
0
  6
Continuous
 62
     0
370
    18
100
AcDbTrace
 10
-1.016
 20
2.3665509652
 30
0.0
 11
-1.524
 21
-0.9354490348
 31
0.0
 12
-0.508
 22
-0.9354490348
 32
0.0
 13
-0.508
 23
-0.9354490348
 33
0.0
  0
LINE
  5
B3
330
AF
100
AcDbEntity
  8
0
  6
Continuous
 62
     0
370
    18
100
AcDbLine
 10
-11.3062660664
 20
2.3665509652
 30
0.0
 11
0.0
 21
2.3665509652
 31
0.0
  0
LINE
  5
B4
330
AF
100
AcDbEntity
  8
0
  6
Continuous
 62
     0
370
    18
100
AcDbLine
 10
-1.016
 20
-7.6334490348
 30
0.0
 11
-1.016
 21
2.3665509652
 31
0.0
  0
MTEXT
  5
B5
330
AF
100
AcDbEntity
  8
0
  6
Continuous
 62
     0
370
    18
100
AcDbMText
 10
0.0
 20
4.0927900738
 30
0.0
 40
3.175
 41
0.0
 71
     1
 72
     1
  1
40,00
  7
SLDTEXTSTYLE0
 73
     1
 44
1.0
  0
ENDBLK
  5
B1
330
AF
100
AcDbEntity
  8
0
100
AcDbBlockEnd
  0
BLOCK
  5
B8
330
B7
100
AcDbEntity
  8
0
100
AcDbBlockBegin
  2
SW_BLOCK_DIMENSION_5
 70
     0
 10
0.0
 20
0.0
 30
0.0
  3
SW_BLOCK_DIMENSION_5
  1

  0
SOLID
  5
BA
330
B7
100
AcDbEntity
  8
0
  6
Continuous
 62
     0
370
    18
100
AcDbTrace
 10
-1.016
 20
2.3665509652
 30
0.0
 11
-1.524
 21
-0.9354490348
 31
0.0
 12
-0.508
 22
-0.9354490348
 32
0.0
 13
-0.508
 23
-0.9354490348
 33
0.0
  0
LINE
  5
BB
330
B7
100
AcDbEntity
  8
0
  6
Continuous
 62
     0
370
    18
100
AcDbLine
 10
-11.3062660664
 20
2.3665509652
 30
0.0
 11
0.0
 21
2.3665509652
 31
0.0
  0
LINE
  5
BC
330
B7
100
AcDbEntity
  8
0
  6
Continuous
 62
     0
370
    18
100
AcDbLine
 10
-1.016
 20
-7.6334490348
 30
0.0
 11
-1.016
 21
2.3665509652
 31
0.0
  0
MTEXT
  5
BD
330
B7
100
AcDbEntity
  8
0
  6
Continuous
 62
     0
370
    18
100
AcDbMText
 10
0.0
 20
4.0927900738
 30
0.0
 40
3.175
 41
0.0
 71
     1
 72
     1
  1
50,00
  7
SLDTEXTSTYLE0
 73
     1
 44
1.0
  0
ENDBLK
  5
B9
330
B7
100
AcDbEntity
  8
0
100
AcDbBlockEnd
  0
BLOCK
  5
C0
330
BF
100
AcDbEntity
  8
0
100
AcDbBlockBegin
  2
SW_BLOCK_DIMENSION_6
 70
     0
 10
0.0
 20
0.0
 30
0.0
  3
SW_BLOCK_DIMENSION_6
  1

  0
SOLID
  5
C2
330
BF
100
AcDbEntity
  8
0
  6
Continuous
 62
     0
370
    18
100
AcDbTrace
 10
-1.016
 20
2.3665509652
 30
0.0
 11
-1.524
 21
-0.9354490348
 31
0.0
 12
-0.508
 22
-0.9354490348
 32
0.0
 13
-0.508
 23
-0.9354490348
 33
0.0
  0
LINE
  5
C3
330
BF
100
AcDbEntity
  8
0
  6
Continuous
 62
     0
370
    18
100
AcDbLine
 10
-11.3062660664
 20
2.3665509652
 30
0.0
 11
0.0
 21
2.3665509652
 31
0.0
  0
LINE
  5
C4
330
BF
100
AcDbEntity
  8
0
  6
Continuous
 62
     0
370
    18
100
AcDbLine
 10
-1.016
 20
-7.6334490348
 30
0.0
 11
-1.016
 21
2.3665509652
 31
0.0
  0
MTEXT
  5
C5
330
BF
100
AcDbEntity
  8
0
  6
Continuous
 62
     0
370
    18
100
AcDbMText
 10
0.0
 20
4.0927900738
 30
0.0
 40
3.175
 41
0.0
 71
     1
 72
     1
  1
60,00
  7
SLDTEXTSTYLE0
 73
     1
 44
1.0
  0
ENDBLK
  5
C1
330
BF
100
AcDbEntity
  8
0
100
AcDbBlockEnd
  0
BLOCK
  5
C8
330
C7
100
AcDbEntity
  8
0
100
AcDbBlockBegin
  2
SW_BLOCK_DIMENSION_7
 70
     0
 10
0.0
 20
0.0
 30
0.0
  3
SW_BLOCK_DIMENSION_7
  1

  0
SOLID
  5
CA
330
C7
100
AcDbEntity
  8
0
  6
Continuous
 62
     0
370
    18
100
AcDbTrace
 10
-1.016
 20
2.3665509652
 30
0.0
 11
-1.524
 21
-0.9354490348
 31
0.0
 12
-0.508
 22
-0.9354490348
 32
0.0
 13
-0.508
 23
-0.9354490348
 33
0.0
  0
LINE
  5
CB
330
C7
100
AcDbEntity
  8
0
  6
Continuous
 62
     0
370
    18
100
AcDbLine
 10
-11.3062660664
 20
2.3665509652
 30
0.0
 11
0.0
 21
2.3665509652
 31
0.0
  0
LINE
  5
CC
330
C7
100
AcDbEntity
  8
0
  6
Continuous
 62
     0
370
    18
100
AcDbLine
 10
-1.016
 20
-7.6334490348
 30
0.0
 11
-1.016
 21
2.3665509652
 31
0.0
  0
MTEXT
  5
CD
330
C7
100
AcDbEntity
  8
0
  6
Continuous
 62
     0
370
    18
100
AcDbMText
 10
0.0
 20
4.0927900738
 30
0.0
 40
3.175
 41
0.0
 71
     1
 72
     1
  1
70,00
  7
SLDTEXTSTYLE0
 73
     1
 44
1.0
  0
ENDBLK
  5
C9
330
C7
100
AcDbEntity
  8
0
100
AcDbBlockEnd
  0
BLOCK
  5
D0
330
CF
100
AcDbEntity
  8
0
100
AcDbBlockBegin
  2
SW_BLOCK_DIMENSION_8
 70
     0
 10
0.0
 20
0.0
 30
0.0
  3
SW_BLOCK_DIMENSION_8
  1

  0
SOLID
  5
D2
330
CF
100
AcDbEntity
  8
0
  6
Continuous
 62
     0
370
    18
100
AcDbTrace
 10
-1.016
 20
2.3665509652
 30
0.0
 11
-1.524
 21
-0.9354490348
 31
0.0
 12
-0.508
 22
-0.9354490348
 32
0.0
 13
-0.508
 23
-0.9354490348
 33
0.0
  0
LINE
  5
D3
330
CF
100
AcDbEntity
  8
0
  6
Continuous
 62
     0
370
    18
100
AcDbLine
 10
-11.3062660664
 20
2.3665509652
 30
0.0
 11
0.0
 21
2.3665509652
 31
0.0
  0
LINE
  5
D4
330
CF
100
AcDbEntity
  8
0
  6
Continuous
 62
     0
370
    18
100
AcDbLine
 10
-1.016
 20
-7.6334490348
 30
0.0
 11
-1.016
 21
2.3665509652
 31
0.0
  0
MTEXT
  5
D5
330
CF
100
AcDbEntity
  8
0
  6
Continuous
 62
     0
370
    18
100
AcDbMText
 10
0.0
 20
4.0927900738
 30
0.0
 40
3.175
 41
0.0
 71
     1
 72
     1
  1
80,00
  7
SLDTEXTSTYLE0
 73
     1
 44
1.0
  0
ENDBLK
  5
D1
330
CF
100
AcDbEntity
  8
0
100
AcDbBlockEnd
  0
BLOCK
  5
D8
330
D7
100
AcDbEntity
  8
0
100
AcDbBlockBegin
  2
SW_BLOCK_DIMENSION_9
 70
     0
 10
0.0
 20
0.0
 30
0.0
  3
SW_BLOCK_DIMENSION_9
  1

  0
SOLID
  5
DA
330
D7
100
AcDbEntity
  8
0
  6
Continuous
 62
     0
370
    18
100
AcDbTrace
 10
-1.016
 20
2.3665509652
 30
0.0
 11
-1.524
 21
-0.9354490348
 31
0.0
 12
-0.508
 22
-0.9354490348
 32
0.0
 13
-0.508
 23
-0.9354490348
 33
0.0
  0
LINE
  5
DB
330
D7
100
AcDbEntity
  8
0
  6
Continuous
 62
     0
370
    18
100
AcDbLine
 10
-11.3062660664
 20
2.3665509652
 30
0.0
 11
0.0
 21
2.3665509652
 31
0.0
  0
LINE
  5
DC
330
D7
100
AcDbEntity
  8
0
  6
Continuous
 62
     0
370
    18
100
AcDbLine
 10
-1.016
 20
-7.6334490348
 30
0.0
 11
-1.016
 21
2.3665509652
 31
0.0
  0
MTEXT
  5
DD
330
D7
100
AcDbEntity
  8
0
  6
Continuous
 62
     0
370
    18
100
AcDbMText
 10
0.0
 20
4.0927900738
 30
0.0
 40
3.175
 41
0.0
 71
     1
 72
     1
  1
90,00
  7
SLDTEXTSTYLE0
 73
     1
 44
1.0
  0
ENDBLK
  5
D9
330
D7
100
AcDbEntity
  8
0
100
AcDbBlockEnd
  0
BLOCK
  5
E0
330
DF
100
AcDbEntity
  8
0
100
AcDbBlockBegin
  2
SW_BLOCK_DIMENSION_10
 70
     0
 10
0.0
 20
0.0
 30
0.0
  3
SW_BLOCK_DIMENSION_10
  1

  0
SOLID
  5
E2
330
DF
100
AcDbEntity
  8
0
  6
Continuous
 62
     0
370
    18
100
AcDbTrace
 10
-1.016
 20
2.3665509652
 30
0.0
 11
-1.524
 21
-0.9354490348
 31
0.0
 12
-0.508
 22
-0.9354490348
 32
0.0
 13
-0.508
 23
-0.9354490348
 33
0.0
  0
LINE
  5
E3
330
DF
100
AcDbEntity
  8
0
  6
Continuous
 62
     0
370
    18
100
AcDbLine
 10
-11.3062660664
 20
2.3665509652
 30
0.0
 11
0.0
 21
2.3665509652
 31
0.0
  0
LINE
  5
E4
330
DF
100
AcDbEntity
  8
0
  6
Continuous
 62
     0
370
    18
100
AcDbLine
 10
-1.016
 20
-7.6334490348
 30
0.0
 11
-1.016
 21
2.3665509652
 31
0.0
  0
MTEXT
  5
E5
330
DF
100
AcDbEntity
  8
0
  6
Continuous
 62
     0
370
    18
100
AcDbMText
 10
0.0
 20
4.0927900738
 30
0.0
 40
3.175
 41
0.0
 71
     1
 72
     1
  1
100,00
  7
SLDTEXTSTYLE0
 73
     1
 44
1.0
  0
ENDBLK
  5
E1
330
DF
100
AcDbEntity
  8
0
100
AcDbBlockEnd
  0
BLOCK
  5
E8
330
E7
100
AcDbEntity
  8
0
100
AcDbBlockBegin
  2
SW_BLOCK_DIMENSION_11
 70
     0
 10
0.0
 20
0.0
 30
0.0
  3
SW_BLOCK_DIMENSION_11
  1

  0
SOLID
  5
EA
330
E7
100
AcDbEntity
  8
0
  6
Continuous
 62
     0
370
    18
100
AcDbTrace
 10
-1.016
 20
2.3665509652
 30
0.0
 11
-1.524
 21
-0.9354490348
 31
0.0
 12
-0.508
 22
-0.9354490348
 32
0.0
 13
-0.508
 23
-0.9354490348
 33
0.0
  0
LINE
  5
EB
330
E7
100
AcDbEntity
  8
0
  6
Continuous
 62
     0
370
    18
100
AcDbLine
 10
-11.3062660664
 20
2.3665509652
 30
0.0
 11
0.0
 21
2.3665509652
 31
0.0
  0
LINE
  5
EC
330
E7
100
AcDbEntity
  8
0
  6
Continuous
 62
     0
370
    18
100
AcDbLine
 10
-1.016
 20
-7.6334490348
 30
0.0
 11
-1.016
 21
2.3665509652
 31
0.0
  0
MTEXT
  5
ED
330
E7
100
AcDbEntity
  8
0
  6
Continuous
 62
     0
370
    18
100
AcDbMText
 10
0.0
 20
4.0927900738
 30
0.0
 40
3.175
 41
0.0
 71
     1
 72
     1
  1
110,00
  7
SLDTEXTSTYLE0
 73
     1
 44
1.0
  0
ENDBLK
  5
E9
330
E7
100
AcDbEntity
  8
0
100
AcDbBlockEnd
  0
BLOCK
  5
F0
330
EF
100
AcDbEntity
  8
0
100
AcDbBlockBegin
  2
SW_BLOCK_DIMENSION_12
 70
     0
 10
0.0
 20
0.0
 30
0.0
  3
SW_BLOCK_DIMENSION_12
  1

  0
SOLID
  5
F2
330
EF
100
AcDbEntity
  8
0
  6
Continuous
 62
     0
370
    18
100
AcDbTrace
 10
-1.016
 20
2.3665509652
 30
0.0
 11
-1.524
 21
-0.9354490348
 31
0.0
 12
-0.508
 22
-0.9354490348
 32
0.0
 13
-0.508
 23
-0.9354490348
 33
0.0
  0
LINE
  5
F3
330
EF
100
AcDbEntity
  8
0
  6
Continuous
 62
     0
370
    18
100
AcDbLine
 10
-11.3062660664
 20
2.3665509652
 30
0.0
 11
0.0
 21
2.3665509652
 31
0.0
  0
LINE
  5
F4
330
EF
100
AcDbEntity
  8
0
  6
Continuous
 62
     0
370
    18
100
AcDbLine
 10
-1.016
 20
-7.6334490348
 30
0.0
 11
-1.016
 21
2.3665509652
 31
0.0
  0
MTEXT
  5
F5
330
EF
100
AcDbEntity
  8
0
  6
Continuous
 62
     0
370
    18
100
AcDbMText
 10
0.0
 20
4.0927900738
 30
0.0
 40
3.175
 41
0.0
 71
     1
 72
     1
  1
120,00
  7
SLDTEXTSTYLE0
 73
     1
 44
1.0
  0
ENDBLK
  5
F1
330
EF
100
AcDbEntity
  8
0
100
AcDbBlockEnd
  0
BLOCK
  5
F8
330
F7
100
AcDbEntity
  8
0
100
AcDbBlockBegin
  2
SW_BLOCK_DIMENSION_13
 70
     0
 10
0.0
 20
0.0
 30
0.0
  3
SW_BLOCK_DIMENSION_13
  1

  0
SOLID
  5
FA
330
F7
100
AcDbEntity
  8
0
  6
Continuous
 62
     0
370
    18
100
AcDbTrace
 10
-1.016
 20
2.3665509652
 30
0.0
 11
-1.524
 21
-0.9354490348
 31
0.0
 12
-0.508
 22
-0.9354490348
 32
0.0
 13
-0.508
 23
-0.9354490348
 33
0.0
  0
LINE
  5
FB
330
F7
100
AcDbEntity
  8
0
  6
Continuous
 62
     0
370
    18
100
AcDbLine
 10
-11.3062660664
 20
2.3665509652
 30
0.0
 11
0.0
 21
2.3665509652
 31
0.0
  0
LINE
  5
FC
330
F7
100
AcDbEntity
  8
0
  6
Continuous
 62
     0
370
    18
100
AcDbLine
 10
-1.016
 20
-7.6334490348
 30
0.0
 11
-1.016
 21
2.3665509652
 31
0.0
  0
MTEXT
  5
FD
330
F7
100
AcDbEntity
  8
0
  6
Continuous
 62
     0
370
    18
100
AcDbMText
 10
0.0
 20
4.0927900738
 30
0.0
 40
3.175
 41
0.0
 71
     1
 72
     1
  1
130,00
  7
SLDTEXTSTYLE0
 73
     1
 44
1.0
  0
ENDBLK
  5
F9
330
F7
100
AcDbEntity
  8
0
100
AcDbBlockEnd
  0
BLOCK
  5
100
330
FF
100
AcDbEntity
  8
0
100
AcDbBlockBegin
  2
SW_BLOCK_DIMENSION_14
 70
     0
 10
0.0
 20
0.0
 30
0.0
  3
SW_BLOCK_DIMENSION_14
  1

  0
INSERT
  5
102
330
FF
100
AcDbEntity
  8
0
  6
Continuous
 62
     0
370
    18
100
AcDbBlockReference
  2
_Origin
 10
11.9579915825
 20
5.1887726877
 30
0.0
 41
1.016
 42
1.016
 50
0.0
  0
LINE
  5
103
330
FF
100
AcDbEntity
  8
0
  6
Continuous
 62
     0
370
    18
100
AcDbLine
 10
3.2925925916
 20
9.671990294
 30
0.0
 11
2.2342592711
 21
9.671990294
 31
0.0
  0
LINE
  5
104
330
FF
100
AcDbEntity
  8
0
  6
Continuous
 62
     0
370
    18
100
AcDbLine
 10
2.2342592711
 20
9.671990294
 30
0.0
 11
2.2342592711
 21
4.9388883635
 31
0.0
  0
LINE
  5
105
330
FF
100
AcDbEntity
  8
0
  6
Continuous
 62
     0
370
    18
100
AcDbLine
 10
2.2342592711
 20
4.9388883635
 30
0.0
 11
3.2925925916
 21
4.9388883635
 31
0.0
  0
LINE
  5
106
330
FF
100
AcDbEntity
  8
0
  6
Continuous
 62
     0
370
    18
100
AcDbLine
 10
7.6493982924
 20
9.671990294
 30
0.0
 11
8.707731613
 21
9.671990294
 31
0.0
  0
LINE
  5
107
330
FF
100
AcDbEntity
  8
0
  6
Continuous
 62
     0
370
    18
100
AcDbLine
 10
8.707731613
 20
9.671990294
 30
0.0
 11
8.707731613
 21
4.9388883635
 31
0.0
  0
LINE
  5
108
330
FF
100
AcDbEntity
  8
0
  6
Continuous
 62
     0
370
    18
100
AcDbLine
 10
8.707731613
 20
4.9388883635
 30
0.0
 11
7.6493982924
 21
4.9388883635
 31
0.0
  0
LINE
  5
109
330
FF
100
AcDbEntity
  8
0
  6
Continuous
 62
     0
370
    18
100
AcDbLine
 10
21.5099578393
 20
5.1887726877
 30
0.0
 11
10.9419915825
 21
5.1887726877
 31
0.0
  0
MTEXT
  5
10A
330
FF
100
AcDbEntity
  8
0
  6
Continuous
 62
     0
370
    18
100
AcDbMText
 10
1.190625
 20
4.0927900738
 30
0.0
 40
3.175
 41
0.0
 71
     1
 72
     1
  1

  7
SLDTEXTSTYLE0
 73
     1
 44
1.0
  0
MTEXT
  5
10B
330
FF
100
AcDbEntity
  8
0
  6
Continuous
 62
     0
370
    18
100
AcDbMText
 10
3.2925925916
 20
9.0316784373
 30
0.0
 40
3.175
 41
0.0
 71
     1
 72
     1
  1
0"
  7
SLDTEXTSTYLE0
 73
     1
 44
1.0
  0
MTEXT
  5
10C
330
FF
100
AcDbEntity
  8
0
  6
Continuous
 62
     0
370
    18
100
AcDbMText
 10
4.2950697243
 20
4.0927898409
 30
0.0
 40
3.175
 41
0.0
 71
     1
 72
     1
  1
0
  7
SLDTEXTSTYLE0
 73
     1
 44
1.0
  0
MTEXT
  5
10D
330
FF
100
AcDbEntity
  8
0
  6
Continuous
 62
     0
370
    18
100
AcDbMText
 10
10.9566905156
 20
4.0927900738
 30
0.0
 40
3.175
 41
0.0
 71
     1
 72
     1
  1

  7
SLDTEXTSTYLE0
 73
     1
 44
1.0
  0
ENDBLK
  5
101
330
FF
100
AcDbEntity
  8
0
100
AcDbBlockEnd
  0
BLOCK
  5
110
330
10F
100
AcDbEntity
  8
0
100
AcDbBlockBegin
  2
SW_BLOCK_DIMENSION_15
 70
     0
 10
0.0
 20
0.0
 30
0.0
  3
SW_BLOCK_DIMENSION_15
  1

  0
SOLID
  5
112
330
10F
100
AcDbEntity
  8
0
  6
Continuous
 62
     0
370
    18
100
AcDbTrace
 10
13.951185805
 20
5.1887726877
 30
0.0
 11
13.443185805
 21
1.8867726877
 31
0.0
 12
14.459185805
 22
1.8867726877
 32
0.0
 13
14.459185805
 23
1.8867726877
 33
0.0
  0
LINE
  5
113
330
10F
100
AcDbEntity
  8
0
  6
Continuous
 62
     0
370
    18
100
AcDbLine
 10
4.2891897028
 20
9.671990294
 30
0.0
 11
3.2308563823
 21
9.671990294
 31
0.0
  0
LINE
  5
114
330
10F
100
AcDbEntity
  8
0
  6
Continuous
 62
     0
370
    18
100
AcDbLine
 10
3.2308563823
 20
9.671990294
 30
0.0
 11
3.2308563823
 21
4.9388883635
 31
0.0
  0
LINE
  5
115
330
10F
100
AcDbEntity
  8
0
  6
Continuous
 62
     0
370
    18
100
AcDbLine
 10
3.2308563823
 20
4.9388883635
 30
0.0
 11
4.2891897028
 21
4.9388883635
 31
0.0
  0
LINE
  5
116
330
10F
100
AcDbEntity
  8
0
  6
Continuous
 62
     0
370
    18
100
AcDbLine
 10
8.6459954036
 20
9.671990294
 30
0.0
 11
9.7043287242
 21
9.671990294
 31
0.0
  0
LINE
  5
117
330
10F
100
AcDbEntity
  8
0
  6
Continuous
 62
     0
370
    18
100
AcDbLine
 10
9.7043287242
 20
9.671990294
 30
0.0
 11
9.7043287242
 21
4.9388883635
 31
0.0
  0
LINE
  5
118
330
10F
100
AcDbEntity
  8
0
  6
Continuous
 62
     0
370
    18
100
AcDbLine
 10
9.7043287242
 20
4.9388883635
 30
0.0
 11
8.6459954036
 21
4.9388883635
 31
0.0
  0
LINE
  5
119
330
10F
100
AcDbEntity
  8
0
  6
Continuous
 62
     0
370
    18
100
AcDbLine
 10
22.7231520617
 20
5.1887726877
 30
0.0
 11
12.935185805
 21
5.1887726877
 31
0.0
  0
LINE
  5
11A
330
10F
100
AcDbEntity
  8
0
  6
Continuous
 62
     0
370
    18
100
AcDbLine
 10
13.951185805
 20
-20.2112273123
 30
0.0
 11
13.951185805
 21
5.1887726877
 31
0.0
  0
MTEXT
  5
11B
330
10F
100
AcDbEntity
  8
0
  6
Continuous
 62
     0
370
    18
100
AcDbMText
 10
1.190625
 20
4.0927900738
 30
0.0
 40
3.175
 41
0.0
 71
     1
 72
     1
  1

  7
SLDTEXTSTYLE0
 73
     1
 44
1.0
  0
MTEXT
  5
11C
330
10F
100
AcDbEntity
  8
0
  6
Continuous
 62
     0
370
    18
100
AcDbMText
 10
4.2891897028
 20
9.0316784373
 30
0.0
 40
3.175
 41
0.0
 71
     1
 72
     1
  1
1"
  7
SLDTEXTSTYLE0
 73
     1
 44
1.0
  0
MTEXT
  5
11D
330
10F
100
AcDbEntity
  8
0
  6
Continuous
 62
     0
370
    18
100
AcDbMText
 10
1.1759259505
 20
4.0927898409
 30
0.0
 40
3.175
 41
0.0
 71
     1
 72
     1
  1
25,40
  7
SLDTEXTSTYLE0
 73
     1
 44
1.0
  0
MTEXT
  5
11E
330
10F
100
AcDbEntity
  8
0
  6
Continuous
 62
     0
370
    18
100
AcDbMText
 10
12.949884738
 20
4.0927900738
 30
0.0
 40
3.175
 41
0.0
 71
     1
 72
     1
  1

  7
SLDTEXTSTYLE0
 73
     1
 44
1.0
  0
ENDBLK
  5
111
330
10F
100
AcDbEntity
  8
0
100
AcDbBlockEnd
  0
BLOCK
  5
121
330
120
100
AcDbEntity
  8
0
100
AcDbBlockBegin
  2
SW_BLOCK_DIMENSION_16
 70
     0
 10
0.0
 20
0.0
 30
0.0
  3
SW_BLOCK_DIMENSION_16
  1

  0
SOLID
  5
123
330
120
100
AcDbEntity
  8
0
  6
Continuous
 62
     0
370
    18
100
AcDbTrace
 10
13.951185805
 20
5.1887726877
 30
0.0
 11
13.443185805
 21
1.8867726877
 31
0.0
 12
14.459185805
 22
1.8867726877
 32
0.0
 13
14.459185805
 23
1.8867726877
 33
0.0
  0
LINE
  5
124
330
120
100
AcDbEntity
  8
0
  6
Continuous
 62
     0
370
    18
100
AcDbLine
 10
4.2891897028
 20
9.671990294
 30
0.0
 11
3.2308563823
 21
9.671990294
 31
0.0
  0
LINE
  5
125
330
120
100
AcDbEntity
  8
0
  6
Continuous
 62
     0
370
    18
100
AcDbLine
 10
3.2308563823
 20
9.671990294
 30
0.0
 11
3.2308563823
 21
4.9388883635
 31
0.0
  0
LINE
  5
126
330
120
100
AcDbEntity
  8
0
  6
Continuous
 62
     0
370
    18
100
AcDbLine
 10
3.2308563823
 20
4.9388883635
 30
0.0
 11
4.2891897028
 21
4.9388883635
 31
0.0
  0
LINE
  5
127
330
120
100
AcDbEntity
  8
0
  6
Continuous
 62
     0
370
    18
100
AcDbLine
 10
8.6459954036
 20
9.671990294
 30
0.0
 11
9.7043287242
 21
9.671990294
 31
0.0
  0
LINE
  5
128
330
120
100
AcDbEntity
  8
0
  6
Continuous
 62
     0
370
    18
100
AcDbLine
 10
9.7043287242
 20
9.671990294
 30
0.0
 11
9.7043287242
 21
4.9388883635
 31
0.0
  0
LINE
  5
129
330
120
100
AcDbEntity
  8
0
  6
Continuous
 62
     0
370
    18
100
AcDbLine
 10
9.7043287242
 20
4.9388883635
 30
0.0
 11
8.6459954036
 21
4.9388883635
 31
0.0
  0
LINE
  5
12A
330
120
100
AcDbEntity
  8
0
  6
Continuous
 62
     0
370
    18
100
AcDbLine
 10
22.7231520617
 20
5.1887726877
 30
0.0
 11
12.935185805
 21
5.1887726877
 31
0.0
  0
LINE
  5
12B
330
120
100
AcDbEntity
  8
0
  6
Continuous
 62
     0
370
    18
100
AcDbLine
 10
13.951185805
 20
-20.2112273123
 30
0.0
 11
13.951185805
 21
5.1887726877
 31
0.0
  0
MTEXT
  5
12C
330
120
100
AcDbEntity
  8
0
  6
Continuous
 62
     0
370
    18
100
AcDbMText
 10
1.190625
 20
4.0927900738
 30
0.0
 40
3.175
 41
0.0
 71
     1
 72
     1
  1

  7
SLDTEXTSTYLE0
 73
     1
 44
1.0
  0
MTEXT
  5
12D
330
120
100
AcDbEntity
  8
0
  6
Continuous
 62
     0
370
    18
100
AcDbMText
 10
4.2891897028
 20
9.0316784373
 30
0.0
 40
3.175
 41
0.0
 71
     1
 72
     1
  1
2"
  7
SLDTEXTSTYLE0
 73
     1
 44
1.0
  0
MTEXT
  5
12E
330
120
100
AcDbEntity
  8
0
  6
Continuous
 62
     0
370
    18
100
AcDbMText
 10
1.1759259505
 20
4.0927898409
 30
0.0
 40
3.175
 41
0.0
 71
     1
 72
     1
  1
50,80
  7
SLDTEXTSTYLE0
 73
     1
 44
1.0
  0
MTEXT
  5
12F
330
120
100
AcDbEntity
  8
0
  6
Continuous
 62
     0
370
    18
100
AcDbMText
 10
12.949884738
 20
4.0927900738
 30
0.0
 40
3.175
 41
0.0
 71
     1
 72
     1
  1

  7
SLDTEXTSTYLE0
 73
     1
 44
1.0
  0
ENDBLK
  5
122
330
120
100
AcDbEntity
  8
0
100
AcDbBlockEnd
  0
BLOCK
  5
132
330
131
100
AcDbEntity
  8
0
100
AcDbBlockBegin
  2
SW_BLOCK_DIMENSION_17
 70
     0
 10
0.0
 20
0.0
 30
0.0
  3
SW_BLOCK_DIMENSION_17
  1

  0
SOLID
  5
134
330
131
100
AcDbEntity
  8
0
  6
Continuous
 62
     0
370
    18
100
AcDbTrace
 10
13.951185805
 20
5.1887726877
 30
0.0
 11
13.443185805
 21
1.8867726877
 31
0.0
 12
14.459185805
 22
1.8867726877
 32
0.0
 13
14.459185805
 23
1.8867726877
 33
0.0
  0
LINE
  5
135
330
131
100
AcDbEntity
  8
0
  6
Continuous
 62
     0
370
    18
100
AcDbLine
 10
4.2891897028
 20
9.671990294
 30
0.0
 11
3.2308563823
 21
9.671990294
 31
0.0
  0
LINE
  5
136
330
131
100
AcDbEntity
  8
0
  6
Continuous
 62
     0
370
    18
100
AcDbLine
 10
3.2308563823
 20
9.671990294
 30
0.0
 11
3.2308563823
 21
4.9388883635
 31
0.0
  0
LINE
  5
137
330
131
100
AcDbEntity
  8
0
  6
Continuous
 62
     0
370
    18
100
AcDbLine
 10
3.2308563823
 20
4.9388883635
 30
0.0
 11
4.2891897028
 21
4.9388883635
 31
0.0
  0
LINE
  5
138
330
131
100
AcDbEntity
  8
0
  6
Continuous
 62
     0
370
    18
100
AcDbLine
 10
8.6459954036
 20
9.671990294
 30
0.0
 11
9.7043287242
 21
9.671990294
 31
0.0
  0
LINE
  5
139
330
131
100
AcDbEntity
  8
0
  6
Continuous
 62
     0
370
    18
100
AcDbLine
 10
9.7043287242
 20
9.671990294
 30
0.0
 11
9.7043287242
 21
4.9388883635
 31
0.0
  0
LINE
  5
13A
330
131
100
AcDbEntity
  8
0
  6
Continuous
 62
     0
370
    18
100
AcDbLine
 10
9.7043287242
 20
4.9388883635
 30
0.0
 11
8.6459954036
 21
4.9388883635
 31
0.0
  0
LINE
  5
13B
330
131
100
AcDbEntity
  8
0
  6
Continuous
 62
     0
370
    18
100
AcDbLine
 10
22.7231520617
 20
5.1887726877
 30
0.0
 11
12.935185805
 21
5.1887726877
 31
0.0
  0
LINE
  5
13C
330
131
100
AcDbEntity
  8
0
  6
Continuous
 62
     0
370
    18
100
AcDbLine
 10
13.951185805
 20
-20.2112273123
 30
0.0
 11
13.951185805
 21
5.1887726877
 31
0.0
  0
MTEXT
  5
13D
330
131
100
AcDbEntity
  8
0
  6
Continuous
 62
     0
370
    18
100
AcDbMText
 10
1.190625
 20
4.0927900738
 30
0.0
 40
3.175
 41
0.0
 71
     1
 72
     1
  1

  7
SLDTEXTSTYLE0
 73
     1
 44
1.0
  0
MTEXT
  5
13E
330
131
100
AcDbEntity
  8
0
  6
Continuous
 62
     0
370
    18
100
AcDbMText
 10
4.2891897028
 20
9.0316784373
 30
0.0
 40
3.175
 41
0.0
 71
     1
 72
     1
  1
3"
  7
SLDTEXTSTYLE0
 73
     1
 44
1.0
  0
MTEXT
  5
13F
330
131
100
AcDbEntity
  8
0
  6
Continuous
 62
     0
370
    18
100
AcDbMText
 10
1.1759259505
 20
4.0927898409
 30
0.0
 40
3.175
 41
0.0
 71
     1
 72
     1
  1
76,20
  7
SLDTEXTSTYLE0
 73
     1
 44
1.0
  0
MTEXT
  5
140
330
131
100
AcDbEntity
  8
0
  6
Continuous
 62
     0
370
    18
100
AcDbMText
 10
12.949884738
 20
4.0927900738
 30
0.0
 40
3.175
 41
0.0
 71
     1
 72
     1
  1

  7
SLDTEXTSTYLE0
 73
     1
 44
1.0
  0
ENDBLK
  5
133
330
131
100
AcDbEntity
  8
0
100
AcDbBlockEnd
  0
BLOCK
  5
143
330
142
100
AcDbEntity
  8
0
100
AcDbBlockBegin
  2
SW_BLOCK_DIMENSION_18
 70
     0
 10
0.0
 20
0.0
 30
0.0
  3
SW_BLOCK_DIMENSION_18
  1

  0
SOLID
  5
145
330
142
100
AcDbEntity
  8
0
  6
Continuous
 62
     0
370
    18
100
AcDbTrace
 10
16.3030379388
 20
5.1887726877
 30
0.0
 11
15.7950379388
 21
1.8867726877
 31
0.0
 12
16.8110379388
 22
1.8867726877
 32
0.0
 13
16.8110379388
 23
1.8867726877
 33
0.0
  0
LINE
  5
146
330
142
100
AcDbEntity
  8
0
  6
Continuous
 62
     0
370
    18
100
AcDbLine
 10
5.4651157698
 20
9.671990294
 30
0.0
 11
4.4067824492
 21
9.671990294
 31
0.0
  0
LINE
  5
147
330
142
100
AcDbEntity
  8
0
  6
Continuous
 62
     0
370
    18
100
AcDbLine
 10
4.4067824492
 20
9.671990294
 30
0.0
 11
4.4067824492
 21
4.9388883635
 31
0.0
  0
LINE
  5
148
330
142
100
AcDbEntity
  8
0
  6
Continuous
 62
     0
370
    18
100
AcDbLine
 10
4.4067824492
 20
4.9388883635
 30
0.0
 11
5.4651157698
 21
4.9388883635
 31
0.0
  0
LINE
  5
149
330
142
100
AcDbEntity
  8
0
  6
Continuous
 62
     0
370
    18
100
AcDbLine
 10
9.8219214706
 20
9.671990294
 30
0.0
 11
10.8802547911
 21
9.671990294
 31
0.0
  0
LINE
  5
14A
330
142
100
AcDbEntity
  8
0
  6
Continuous
 62
     0
370
    18
100
AcDbLine
 10
10.8802547911
 20
9.671990294
 30
0.0
 11
10.8802547911
 21
4.9388883635
 31
0.0
  0
LINE
  5
14B
330
142
100
AcDbEntity
  8
0
  6
Continuous
 62
     0
370
    18
100
AcDbLine
 10
10.8802547911
 20
4.9388883635
 30
0.0
 11
9.8219214706
 21
4.9388883635
 31
0.0
  0
LINE
  5
14C
330
142
100
AcDbEntity
  8
0
  6
Continuous
 62
     0
370
    18
100
AcDbLine
 10
25.0750041956
 20
5.1887726877
 30
0.0
 11
15.2870379388
 21
5.1887726877
 31
0.0
  0
LINE
  5
14D
330
142
100
AcDbEntity
  8
0
  6
Continuous
 62
     0
370
    18
100
AcDbLine
 10
16.3030379388
 20
-20.2112273123
 30
0.0
 11
16.3030379388
 21
5.1887726877
 31
0.0
  0
MTEXT
  5
14E
330
142
100
AcDbEntity
  8
0
  6
Continuous
 62
     0
370
    18
100
AcDbMText
 10
1.190625
 20
4.0927900738
 30
0.0
 40
3.175
 41
0.0
 71
     1
 72
     1
  1

  7
SLDTEXTSTYLE0
 73
     1
 44
1.0
  0
MTEXT
  5
14F
330
142
100
AcDbEntity
  8
0
  6
Continuous
 62
     0
370
    18
100
AcDbMText
 10
5.4651157698
 20
9.0316784373
 30
0.0
 40
3.175
 41
0.0
 71
     1
 72
     1
  1
4"
  7
SLDTEXTSTYLE0
 73
     1
 44
1.0
  0
MTEXT
  5
150
330
142
100
AcDbEntity
  8
0
  6
Continuous
 62
     0
370
    18
100
AcDbMText
 10
1.1759259505
 20
4.0927898409
 30
0.0
 40
3.175
 41
0.0
 71
     1
 72
     1
  1
101,60
  7
SLDTEXTSTYLE0
 73
     1
 44
1.0
  0
MTEXT
  5
151
330
142
100
AcDbEntity
  8
0
  6
Continuous
 62
     0
370
    18
100
AcDbMText
 10
15.3017368719
 20
4.0927900738
 30
0.0
 40
3.175
 41
0.0
 71
     1
 72
     1
  1

  7
SLDTEXTSTYLE0
 73
     1
 44
1.0
  0
ENDBLK
  5
144
330
142
100
AcDbEntity
  8
0
100
AcDbBlockEnd
  0
BLOCK
  5
154
330
153
100
AcDbEntity
  8
0
100
AcDbBlockBegin
  2
SW_BLOCK_DIMENSION_19
 70
     0
 10
0.0
 20
0.0
 30
0.0
  3
SW_BLOCK_DIMENSION_19
  1

  0
SOLID
  5
156
330
153
100
AcDbEntity
  8
0
  6
Continuous
 62
     0
370
    18
100
AcDbTrace
 10
16.3030379388
 20
5.1887726877
 30
0.0
 11
15.7950379388
 21
1.8867726877
 31
0.0
 12
16.8110379388
 22
1.8867726877
 32
0.0
 13
16.8110379388
 23
1.8867726877
 33
0.0
  0
LINE
  5
157
330
153
100
AcDbEntity
  8
0
  6
Continuous
 62
     0
370
    18
100
AcDbLine
 10
5.4651157698
 20
9.671990294
 30
0.0
 11
4.4067824492
 21
9.671990294
 31
0.0
  0
LINE
  5
158
330
153
100
AcDbEntity
  8
0
  6
Continuous
 62
     0
370
    18
100
AcDbLine
 10
4.4067824492
 20
9.671990294
 30
0.0
 11
4.4067824492
 21
4.9388883635
 31
0.0
  0
LINE
  5
159
330
153
100
AcDbEntity
  8
0
  6
Continuous
 62
     0
370
    18
100
AcDbLine
 10
4.4067824492
 20
4.9388883635
 30
0.0
 11
5.4651157698
 21
4.9388883635
 31
0.0
  0
LINE
  5
15A
330
153
100
AcDbEntity
  8
0
  6
Continuous
 62
     0
370
    18
100
AcDbLine
 10
9.8219214706
 20
9.671990294
 30
0.0
 11
10.8802547911
 21
9.671990294
 31
0.0
  0
LINE
  5
15B
330
153
100
AcDbEntity
  8
0
  6
Continuous
 62
     0
370
    18
100
AcDbLine
 10
10.8802547911
 20
9.671990294
 30
0.0
 11
10.8802547911
 21
4.9388883635
 31
0.0
  0
LINE
  5
15C
330
153
100
AcDbEntity
  8
0
  6
Continuous
 62
     0
370
    18
100
AcDbLine
 10
10.8802547911
 20
4.9388883635
 30
0.0
 11
9.8219214706
 21
4.9388883635
 31
0.0
  0
LINE
  5
15D
330
153
100
AcDbEntity
  8
0
  6
Continuous
 62
     0
370
    18
100
AcDbLine
 10
25.0750041956
 20
5.1887726877
 30
0.0
 11
15.2870379388
 21
5.1887726877
 31
0.0
  0
LINE
  5
15E
330
153
100
AcDbEntity
  8
0
  6
Continuous
 62
     0
370
    18
100
AcDbLine
 10
16.3030379388
 20
-20.2112273123
 30
0.0
 11
16.3030379388
 21
5.1887726877
 31
0.0
  0
MTEXT
  5
15F
330
153
100
AcDbEntity
  8
0
  6
Continuous
 62
     0
370
    18
100
AcDbMText
 10
1.190625
 20
4.0927900738
 30
0.0
 40
3.175
 41
0.0
 71
     1
 72
     1
  1

  7
SLDTEXTSTYLE0
 73
     1
 44
1.0
  0
MTEXT
  5
160
330
153
100
AcDbEntity
  8
0
  6
Continuous
 62
     0
370
    18
100
AcDbMText
 10
5.4651157698
 20
9.0316784373
 30
0.0
 40
3.175
 41
0.0
 71
     1
 72
     1
  1
5"
  7
SLDTEXTSTYLE0
 73
     1
 44
1.0
  0
MTEXT
  5
161
330
153
100
AcDbEntity
  8
0
  6
Continuous
 62
     0
370
    18
100
AcDbMText
 10
1.1759259505
 20
4.0927898409
 30
0.0
 40
3.175
 41
0.0
 71
     1
 72
     1
  1
127,00
  7
SLDTEXTSTYLE0
 73
     1
 44
1.0
  0
MTEXT
  5
162
330
153
100
AcDbEntity
  8
0
  6
Continuous
 62
     0
370
    18
100
AcDbMText
 10
15.3017368719
 20
4.0927900738
 30
0.0
 40
3.175
 41
0.0
 71
     1
 72
     1
  1

  7
SLDTEXTSTYLE0
 73
     1
 44
1.0
  0
ENDBLK
  5
155
330
153
100
AcDbEntity
  8
0
100
AcDbBlockEnd
  0
BLOCK
  5
165
330
164
100
AcDbEntity
  8
0
100
AcDbBlockBegin
  2
SW_NOTE_0
 70
     0
 10
0.0
 20
0.0
 30
0.0
  3
SW_NOTE_0
  1

  0
MTEXT
  5
167
330
164
100
AcDbEntity
  8
0
 62
     0
100
AcDbMText
 10
6.7138020833
 20
4.7749217527
 30
0.0
 40
3.7041666667
 41
0.0
 71
     2
 72
     1
  1
(Inch)
  7
SLDTEXTSTYLE0
 73
     1
 44
1.0
  0
MTEXT
  5
168
330
164
100
AcDbEntity
  8
0
 62
     0
100
AcDbMText
 10
6.7309508326
 20
-1.1639672404
 30
0.0
 40
3.7041666667
 41
0.0
 71
     2
 72
     1
  1
mm
  7
SLDTEXTSTYLE0
 73
     1
 44
1.0
  0
ENDBLK
  5
166
330
164
100
AcDbEntity
  8
0
100
AcDbBlockEnd
  0
BLOCK
  5
16B
330
16A
100
AcDbEntity
  8
0
100
AcDbBlockBegin
  2
SW_NOTE_0_1
 70
     0
 10
0.0
 20
0.0
 30
0.0
  3
SW_NOTE_0_1
  1

  0
MTEXT
  5
16D
330
16A
100
AcDbEntity
  8
0
 62
     0
100
AcDbMText
 10
0.0
 20
4.7749217527
 30
0.0
 40
3.7041666667
 41
0.0
 71
     1
 72
     1
  1
mm
  7
SLDTEXTSTYLE0
 73
     1
 44
1.0
  0
ENDBLK
  5
16C
330
16A
100
AcDbEntity
  8
0
100
AcDbBlockEnd
  0
BLOCK
  5
17A
330
179
100
AcDbEntity
  8
0
100
AcDbBlockBegin
  2
SW_NOTE_0_2
 70
     0
 10
0.0
 20
0.0
 30
0.0
  3
SW_NOTE_0_2
  1

  0
MTEXT
  5
17C
330
179
100
AcDbEntity
  8
0
  6
Continuous
 62
     0
370
     0
100
AcDbMText
 10
19.893359375
 20
4.0927900738
 30
0.0
 40
3.175
 41
0.0
 71
     2
 72
     1
  1
ABP-Beyerle GmbH
  7
SLDTEXTSTYLE0
 73
     1
 44
1.0
  0
MTEXT
  5
17D
330
179
100
AcDbEntity
  8
0
  6
Continuous
 62
     0
370
     0
100
AcDbMText
 10
20.6558884293
 20
-0.1405432084
 30
0.0
 40
3.175
 41
0.0
 71
     2
 72
     1
  1
Im Schollengarten 24b, 76646 Bruchsal
  7
SLDTEXTSTYLE0
 73
     1
 44
1.0
  0
MTEXT
  5
17E
330
179
100
AcDbEntity
  8
0
  6
Continuous
 62
     0
370
     0
100
AcDbMText
 10
20.7863491923
 20
-4.3738764906
 30
0.0
 40
3.175
 41
0.0
 71
     2
 72
     1
  1
Tel. +49 (0)7251-9127-0, Fax. +49 (0)7251-9127-29
  7
SLDTEXTSTYLE0
 73
     1
 44
1.0
  0
MTEXT
  5
17F
330
179
100
AcDbEntity
  8
0
  6
Continuous
 62
     0
370
     0
100
AcDbMText
 10
20.8392552227
 20
-8.6072097727
 30
0.0
 40
3.175
 41
0.0
 71
     2
 72
     1
  1
info@abp-beyerle.de, www.abp-beyerle.de
  7
SLDTEXTSTYLE0
 73
     1
 44
1.0
  0
ENDBLK
  5
17B
330
179
100
AcDbEntity
  8
0
100
AcDbBlockEnd
  0
BLOCK
  5
1E6
330
1E5
100
AcDbEntity
  8
0
100
AcDbBlockBegin
  2
_None
 70
     0
 10
0.0
 20
0.0
 30
0.0
  3
_None
  1

  0
ENDBLK
  5
1E7
330
1E5
100
AcDbEntity
  8
0
100
AcDbBlockEnd
  0
BLOCK
  5
1E9
330
1E8
100
AcDbEntity
  8
0
100
AcDbBlockBegin
  2
_D
 70
     0
 10
0.0
 20
0.0
 30
0.0
  3
_D
  1

  0
SOLID
  5
1EB
330
1E8
100
AcDbEntity
  8
0
  6
Continuous
370
    18
100
AcDbTrace
 10
246.4449702728
 20
176.2770736605
 30
0.0
 11
249.3778098975
 21
177.8769860755
 31
0.0
 12
248.7612887265
 22
178.6845488568
 32
0.0
 13
248.7612887265
 23
178.6845488568
 33
0.0
  0
LINE
  5
1EC
330
1E8
100
AcDbEntity
  8
0
  6
Continuous
370
    18
100
AcDbLine
 10
246.4449702728
 20
176.2770736605
 30
0.0
 11
267.8309773991
 21
192.603886215
 31
0.0
  0
LINE
  5
1ED
330
1E8
100
AcDbEntity
  8
0
  6
Continuous
370
    18
100
AcDbLine
 10
246.4449702728
 20
176.2770736605
 30
0.0
 11
222.5996125575
 21
158.0727083755
 31
0.0
  0
MTEXT
  5
1EE
330
1E8
100
AcDbEntity
  8
0
  6
Continuous
370
    18
100
AcDbMText
 10
253.7086899494
 20
187.4873208055
 30
0.0
 40
3.5
 41
0.0
 71
     1
 72
     1
  1
%%c
  7
SLDTEXTSTYLE1
 11
0.7948452571764957
 21
0.6068121761665881
 31
0.0
 73
     1
 44
1.0
  0
MTEXT
  5
1EF
330
1E8
100
AcDbEntity
  8
0
  6
Continuous
370
    18
100
AcDbMText
 10
257.8717833129
 20
190.7328429959
 30
0.0
 40
3.5
 41
0.0
 71
     1
 72
     1
  1
30,0
  7
SLDTEXTSTYLE1
 11
0.7948452571764957
 21
0.6068121761665881
 31
0.0
 73
     1
 44
1.0
  0
ENDBLK
  5
1EA
330
1E8
100
AcDbEntity
  8
0
100
AcDbBlockEnd
  0
ENDSEC
  0
SECTION
  2
ENTITIES
  0
LINE
  5
16F
330
1F
100
AcDbEntity
  8
0
100
AcDbLine
 10
127.4819306314
 20
27.1626886523
 30
0.0
 11
127.4819306314
 21
7.1626886523
 31
0.0
  0
LINE
  5
170
330
1F
100
AcDbEntity
  8
0
100
AcDbLine
 10
127.4819306314
 20
7.1626886523
 30
0.0
 11
231.2890403829
 21
7.1626886523
 31
0.0
  0
LINE
  5
171
330
1F
100
AcDbEntity
  8
0
100
AcDbLine
 10
231.2890403829
 20
7.1626886523
 30
0.0
 11
231.2890403829
 21
27.1626886523
 31
0.0
  0
LINE
  5
172
330
1F
100
AcDbEntity
  8
0
100
AcDbLine
 10
231.2890403829
 20
27.1626886523
 30
0.0
 11
127.4819306314
 21
27.1626886523
 31
0.0
  0
LINE
  5
173
330
1F
100
AcDbEntity
  8
0
100
AcDbLine
 10
231.2890403829
 20
17.1626886523
 30
0.0
 11
127.4819306314
 21
17.1626886523
 31
0.0
  0
LINE
  5
174
330
1F
100
AcDbEntity
  8
0
100
AcDbLine
 10
188.5336333335
 20
27.1626886523
 30
0.0
 11
188.5336333335
 21
7.1626886523
 31
0.0
  0
INSERT
  5
175
330
1F
100
AcDbEntity
  8
0
100
AcDbBlockReference
  2
Block5
 10
19.561342692
 20
-6.9223244521
 30
0.0
  0
MTEXT
  5
177
330
1F
100
AcDbEntity
  8
0
  6
Continuous
 62
     7
370
     0
100
AcDbMText
 10
402.5
 20
14.7189135832
 30
0.0
 40
6.35
 41
0.0
 71
     1
 72
     1
  1
1:1
  7
SLDTEXTSTYLE1
 73
     1
 44
1.0
  0
MTEXT
  5
178
330
1F
100
AcDbEntity
  8
0
  6
Continuous
 62
     7
370
     0
100
AcDbMText
 10
190.3749692016
 20
25.1056679674
 30
0.0
 40
4.2333333333
 41
0.0
 71
     1
 72
     1
  1
KH320EF
  7
SLDTEXTSTYLE1
 73
     1
 44
1.0
  0
INSERT
  5
180
330
1F
100
AcDbEntity
  8
0
  6
Continuous
 62
     7
370
     0
100
AcDbBlockReference
  2
SW_NOTE_0_2
 10
35.4202146835
 20
20.1681939512
 30
0.0
  0
MTEXT
  5
181
330
1F
100
AcDbEntity
  8
0
100
AcDbMText
 10
131.6112989967
 20
25.1056677346
 30
0.0
 40
4.2333333333
 41
0.0
 71
     1
 72
     1
  1
Artikelnummer
  7
SLDTEXTSTYLE1
 73
     1
 44
1.0
  0
MTEXT
  5
182
330
1F
100
AcDbEntity
  8
0
100
AcDbMText
 10
131.6112989967
 20
15.1068467326
 30
0.0
 40
4.2333333333
 41
0.0
 71
     1
 72
     1
  1
Index
  7
SLDTEXTSTYLE1
 73
     1
 44
1.0
  0
LINE
  5
183
330
1F
100
AcDbEntity
  8
0
  6
Continuous
 62
     7
370
    25
100
AcDbLine
 10
107.3388668712
 20
182.3214731975
 30
0.0
 11
106.9488668712
 21
182.5945541374
 31
0.0
  0
LINE
  5
184
330
1F
100
AcDbEntity
  8
0
  6
Continuous
 62
     7
370
    25
100
AcDbLine
 10
103.7288668712
 20
182.5945541374
 30
0.0
 11
103.3388668712
 21
182.3214731975
 31
0.0
  0
LINE
  5
185
330
1F
100
AcDbEntity
  8
0
  6
Continuous
 62
     7
370
    25
100
AcDbLine
 10
103.3388668712
 20
182.3214731975
 30
0.0
 11
103.3388668712
 21
182.274357456
 31
0.0
  0
LINE
  5
186
330
1F
100
AcDbEntity
  8
0
  6
Continuous
 62
     7
370
    25
100
AcDbLine
 10
107.3388668712
 20
182.274357456
 30
0.0
 11
107.3388668712
 21
182.3214731975
 31
0.0
  0
LINE
  5
187
330
1F
100
AcDbEntity
  8
0
  6
Continuous
 62
     7
370
    25
100
AcDbLine
 10
103.3388668712
 20
182.274357456
 30
0.0
 11
103.5130777632
 21
182.1523736762
 31
0.0
  0
LINE
  5
188
330
1F
100
AcDbEntity
  8
0
  6
Continuous
 62
     7
370
    25
100
AcDbLine
 10
107.1648030362
 20
182.1524766466
 30
0.0
 11
107.3388668712
 21
182.274357456
 31
0.0
  0
LINE
  5
189
330
1F
100
AcDbEntity
  8
0
  6
Continuous
 62
     7
370
    25
100
AcDbLine
 10
107.1251145554
 20
182.7179640945
 30
0.0
 11
106.9488668712
 21
182.8197207424
 31
0.0
  0
LINE
  5
18A
330
1F
100
AcDbEntity
  8
0
  6
Continuous
 62
     7
370
    25
100
AcDbLine
 10
103.7288668712
 20
182.8197207424
 30
0.0
 11
103.552619187
 21
182.7179640945
 31
0.0
  0
LINE
  5
18B
330
1F
100
AcDbEntity
  8
0
  6
Continuous
 62
     7
370
    25
100
AcDbLine
 10
103.552619187
 20
182.7179640945
 30
0.0
 11
103.7288668712
 21
182.5945541374
 31
0.0
  0
LINE
  5
18C
330
1F
100
AcDbEntity
  8
0
  6
Continuous
 62
     7
370
    25
100
AcDbLine
 10
106.9488668712
 20
182.5945541374
 30
0.0
 11
107.1251145554
 21
182.7179640945
 31
0.0
  0
LINE
  5
18D
330
1F
100
AcDbEntity
  8
0
  6
Continuous
 62
     7
370
    25
100
AcDbLine
 10
178.7499794322
 20
182.3589071552
 30
0.0
 11
178.3599794322
 21
182.6319880951
 31
0.0
  0
LINE
  5
18E
330
1F
100
AcDbEntity
  8
0
  6
Continuous
 62
     7
370
    25
100
AcDbLine
 10
175.1399794322
 20
182.6319880951
 30
0.0
 11
174.7499794322
 21
182.3589071552
 31
0.0
  0
LINE
  5
18F
330
1F
100
AcDbEntity
  8
0
  6
Continuous
 62
     7
370
    25
100
AcDbLine
 10
174.7499794322
 20
182.3589071552
 30
0.0
 11
174.7499794322
 21
182.3117914137
 31
0.0
  0
LINE
  5
190
330
1F
100
AcDbEntity
  8
0
  6
Continuous
 62
     7
370
    25
100
AcDbLine
 10
178.7499794322
 20
182.3117914137
 30
0.0
 11
178.7499794322
 21
182.3589071552
 31
0.0
  0
LINE
  5
191
330
1F
100
AcDbEntity
  8
0
  6
Continuous
 62
     7
370
    25
100
AcDbLine
 10
174.7499794322
 20
182.3117914137
 30
0.0
 11
174.987138398
 21
182.1457309181
 31
0.0
  0
LINE
  5
192
330
1F
100
AcDbEntity
  8
0
  6
Continuous
 62
     7
370
    25
100
AcDbLine
 10
178.5127702616
 20
182.1456957643
 30
0.0
 11
178.7499794322
 21
182.3117914137
 31
0.0
  0
LINE
  5
193
330
1F
100
AcDbEntity
  8
0
  6
Continuous
 62
     7
370
    25
100
AcDbLine
 10
178.5362271164
 20
182.7553980522
 30
0.0
 11
178.3599794322
 21
182.8571547001
 31
0.0
  0
LINE
  5
194
330
1F
100
AcDbEntity
  8
0
  6
Continuous
 62
     7
370
    25
100
AcDbLine
 10
175.1399794322
 20
182.8571547001
 30
0.0
 11
174.963731748
 21
182.7553980522
 31
0.0
  0
LINE
  5
195
330
1F
100
AcDbEntity
  8
0
  6
Continuous
 62
     7
370
    25
100
AcDbLine
 10
174.963731748
 20
182.7553980522
 30
0.0
 11
175.1399794322
 21
182.6319880951
 31
0.0
  0
LINE
  5
196
330
1F
100
AcDbEntity
  8
0
  6
Continuous
 62
     7
370
    25
100
AcDbLine
 10
178.3599794322
 20
182.6319880951
 30
0.0
 11
178.5362271164
 21
182.7553980522
 31
0.0
  0
LINE
  5
197
330
1F
100
AcDbEntity
  8
0
  6
Continuous
 62
     7
370
    25
100
AcDbLine
 10
186.4499794322
 20
152.174891018
 30
0.0
 11
186.7499794322
 21
152.474891018
 31
0.0
  0
LINE
  5
198
330
1F
100
AcDbEntity
  8
0
  6
Continuous
 62
     7
370
    25
100
AcDbLine
 10
186.7499794322
 20
181.874891018
 30
0.0
 11
186.4499794322
 21
182.174891018
 31
0.0
  0
LINE
  5
199
330
1F
100
AcDbEntity
  8
0
  6
Continuous
 62
     7
370
    25
100
AcDbLine
 10
156.0499794322
 20
182.174891018
 30
0.0
 11
155.7499794322
 21
181.874891018
 31
0.0
  0
LINE
  5
19A
330
1F
100
AcDbEntity
  8
0
  6
Continuous
 62
     7
370
    25
100
AcDbLine
 10
155.7499794322
 20
152.474891018
 30
0.0
 11
156.0499794322
 21
152.174891018
 31
0.0
  0
LINE
  5
19B
330
1F
100
AcDbEntity
  8
0
  6
Continuous
 62
     7
370
    25
100
AcDbLine
 10
156.0499794322
 20
152.174891018
 30
0.0
 11
186.4499794322
 21
152.174891018
 31
0.0
  0
LINE
  5
19C
330
1F
100
AcDbEntity
  8
0
  6
Continuous
 62
     7
370
    25
100
AcDbLine
 10
174.7306793962
 20
182.174891018
 30
0.0
 11
156.0499794322
 21
182.174891018
 31
0.0
  0
LINE
  5
19D
330
1F
100
AcDbEntity
  8
0
  6
Continuous
 62
     7
370
    25
100
AcDbLine
 10
186.4499794322
 20
182.174891018
 30
0.0
 11
178.768925235
 21
182.174891018
 31
0.0
  0
LINE
  5
19E
330
1F
100
AcDbEntity
  8
0
  6
Continuous
 62
     7
370
    25
100
AcDbLine
 10
115.0388668712
 20
152.174891018
 30
0.0
 11
115.3388668712
 21
152.474891018
 31
0.0
  0
LINE
  5
19F
330
1F
100
AcDbEntity
  8
0
  6
Continuous
 62
     7
370
    25
100
AcDbLine
 10
115.3388668712
 20
181.874891018
 30
0.0
 11
115.0388668712
 21
182.174891018
 31
0.0
  0
LINE
  5
1A0
330
1F
100
AcDbEntity
  8
0
  6
Continuous
 62
     7
370
    25
100
AcDbLine
 10
84.6388668712
 20
182.174891018
 30
0.0
 11
84.3388668712
 21
181.874891018
 31
0.0
  0
LINE
  5
1A1
330
1F
100
AcDbEntity
  8
0
  6
Continuous
 62
     7
370
    25
100
AcDbLine
 10
84.3388668712
 20
152.474891018
 30
0.0
 11
84.6388668712
 21
152.174891018
 31
0.0
  0
LINE
  5
1A2
330
1F
100
AcDbEntity
  8
0
  6
Continuous
 62
     7
370
    25
100
AcDbLine
 10
84.6388668712
 20
152.174891018
 30
0.0
 11
115.0388668712
 21
152.174891018
 31
0.0
  0
LINE
  5
1A3
330
1F
100
AcDbEntity
  8
0
  6
Continuous
 62
     7
370
    25
100
AcDbLine
 10
103.3195668352
 20
182.174891018
 30
0.0
 11
84.6388668712
 21
182.174891018
 31
0.0
  0
LINE
  5
1A4
330
1F
100
AcDbEntity
  8
0
  6
Continuous
 62
     7
370
    25
100
AcDbLine
 10
115.0388668712
 20
182.174891018
 30
0.0
 11
107.357812674
 21
182.174891018
 31
0.0
  0
LINE
  5
1A5
330
1F
100
AcDbEntity
  8
0
  6
Continuous
 62
     7
370
    25
100
AcDbLine
 10
103.3388668712
 20
182.3214731975
 30
0.0
 11
107.3388668712
 21
182.3214731975
 31
0.0
  0
LINE
  5
1A6
330
1F
100
AcDbEntity
  8
0
  6
Continuous
 62
     7
370
    25
100
AcDbLine
 10
103.7288668712
 20
182.5945541374
 30
0.0
 11
106.9488668712
 21
182.5945541374
 31
0.0
  0
LINE
  5
1A7
330
1F
100
AcDbEntity
  8
0
  6
Continuous
 62
     7
370
    25
100
AcDbLine
 10
103.3388668712
 20
182.274357456
 30
0.0
 11
107.3388668712
 21
182.274357456
 31
0.0
  0
LINE
  5
1A8
330
1F
100
AcDbEntity
  8
0
  6
Continuous
 62
     7
370
    25
100
AcDbLine
 10
104.9039609361
 20
182.8197207424
 30
0.0
 11
106.9488668712
 21
182.8197207424
 31
0.0
  0
LINE
  5
1A9
330
1F
100
AcDbEntity
  8
0
  6
Continuous
 62
     7
370
    25
100
AcDbLine
 10
103.7288668712
 20
182.8197207424
 30
0.0
 11
104.9039609361
 21
182.8197207424
 31
0.0
  0
LINE
  5
1AA
330
1F
100
AcDbEntity
  8
0
  6
Continuous
 62
     7
370
    25
100
AcDbLine
 10
107.1251145554
 20
182.7179640945
 30
0.0
 11
103.552619187
 21
182.7179640945
 31
0.0
  0
LINE
  5
1AB
330
1F
100
AcDbEntity
  8
0
  6
Continuous
 62
     7
370
    25
100
AcDbLine
 10
174.7499794322
 20
182.3589071552
 30
0.0
 11
178.7499794322
 21
182.3589071552
 31
0.0
  0
LINE
  5
1AC
330
1F
100
AcDbEntity
  8
0
  6
Continuous
 62
     7
370
    25
100
AcDbLine
 10
175.1399794322
 20
182.6319880951
 30
0.0
 11
178.3599794322
 21
182.6319880951
 31
0.0
  0
LINE
  5
1AD
330
1F
100
AcDbEntity
  8
0
  6
Continuous
 62
     7
370
    25
100
AcDbLine
 10
174.7499794322
 20
182.3117914137
 30
0.0
 11
178.7499794322
 21
182.3117914137
 31
0.0
  0
LINE
  5
1AE
330
1F
100
AcDbEntity
  8
0
  6
Continuous
 62
     7
370
    25
100
AcDbLine
 10
175.8039749135
 20
182.8571547001
 30
0.0
 11
178.3599794322
 21
182.8571547001
 31
0.0
  0
LINE
  5
1AF
330
1F
100
AcDbEntity
  8
0
  6
Continuous
 62
     7
370
    25
100
AcDbLine
 10
175.1399794322
 20
182.8571547001
 30
0.0
 11
175.8039749135
 21
182.8571547001
 31
0.0
  0
LINE
  5
1B0
330
1F
100
AcDbEntity
  8
0
  6
Continuous
 62
     7
370
    25
100
AcDbLine
 10
178.5362271164
 20
182.7553980522
 30
0.0
 11
174.963731748
 21
182.7553980522
 31
0.0
  0
LINE
  5
1B1
330
1F
100
AcDbEntity
  8
0
  6
Continuous
 62
     7
370
    25
100
AcDbLine
 10
186.7499794322
 20
181.874891018
 30
0.0
 11
186.7499794322
 21
152.474891018
 31
0.0
  0
LINE
  5
1B2
330
1F
100
AcDbEntity
  8
0
  6
Continuous
 62
     7
370
    25
100
AcDbLine
 10
186.4499794322
 20
152.174891018
 30
0.0
 11
186.4499794322
 21
182.174891018
 31
0.0
  0
LINE
  5
1B3
330
1F
100
AcDbEntity
  8
0
  6
Continuous
 62
     7
370
    25
100
AcDbLine
 10
156.0499794322
 20
182.174891018
 30
0.0
 11
156.0499794322
 21
152.174891018
 31
0.0
  0
LINE
  5
1B4
330
1F
100
AcDbEntity
  8
0
  6
Continuous
 62
     7
370
    25
100
AcDbLine
 10
155.7499794322
 20
152.474891018
 30
0.0
 11
155.7499794322
 21
181.874891018
 31
0.0
  0
SPLINE
  5
1B5
330
1F
100
AcDbEntity
  8
0
  6
Continuous
 62
     7
370
    25
100
AcDbSpline
210
0.0
220
0.0
230
1.0
 70
     8
 71
     3
 72
    38
 73
    34
 74
     0
 42
0.000000001
 43
0.00000001
 40
0.0
 40
0.0
 40
0.0
 40
0.0
 40
0.015937532550115
 40
0.064044176261982
 40
0.1131825492171627
 40
0.1612953562652432
 40
0.211000001620792
 40
0.2618138452693103
 40
0.3136059698999563
 40
0.340421615891853
 40
0.3675906508924857
 40
0.3949369475190535
 40
0.4226448319476984
 40
0.4506703120738161
 40
0.4790818337145387
 40
0.5076886871478787
 40
0.5366966756060333
 40
0.5652275278230593
 40
0.594169334717504
 40
0.6233208529019773
 40
0.6529062297072453
 40
0.6811889637147092
 40
0.7099002945695644
 40
0.7388326092301226
 40
0.768226046004663
 40
0.7954232875374055
 40
0.8230526733476373
 40
0.8509064490364652
 40
0.8792297663313923
 40
0.9305881295125243
 40
0.9567010067160169
 40
0.9832445754479154
 40
1.0
 40
1.0
 40
1.0
 40
1.0
 10
178.7689252349747
 20
182.1741726719164
 30
0.0
 10
178.7706622218846
 20
182.1743786972323
 30
0.0
 10
178.7776422167789
 20
182.1752065996447
 30
0.0
 10
178.7366489596158
 20
182.1703318809718
 30
0.0
 10
178.6493474861207
 20
182.1602815716023
 30
0.0
 10
178.5113611091722
 20
182.1452861838388
 30
0.0
 10
178.3309534795616
 20
182.1273432944946
 30
0.0
 10
178.1077567118748
 20
182.1077711662983
 30
0.0
 10
177.8907355698298
 20
182.0918355395206
 30
0.0
 10
177.700200502466
 20
182.080236956889
 30
0.0
 10
177.5476175817458
 20
182.0722907091277
 30
0.0
 10
177.3882433790976
 20
182.0654653316743
 30
0.0
 10
177.2230547173929
 20
182.0599829371056
 30
0.0
 10
177.0526144687937
 20
182.056029763475
 30
0.0
 10
176.8783068626001
 20
182.0537806078999
 30
0.0
 10
176.70110169097
 20
182.0533536276098
 30
0.0
 10
176.5239811845166
 20
182.0548084255422
 30
0.0
 10
176.3477594945093
 20
182.058114063933
 30
0.0
 10
176.1740539176501
 20
182.0631777944136
 30
0.0
 10
176.0023853756045
 20
182.069946852783
 30
0.0
 10
175.8374540681356
 20
182.0781135698577
 30
0.0
 10
175.6799891889522
 20
182.087411462365
 30
0.0
 10
175.5313757756016
 20
182.097517774276
 30
0.0
 10
175.3899391000539
 20
182.1083430257418
 30
0.0
 10
175.261238551701
 20
182.119227178003
 30
0.0
 10
175.145516442231
 20
182.1298349124619
 30
0.0
 10
175.0434030793459
 20
182.1398330877427
 30
0.0
 10
174.9526750860661
 20
182.149224316007
 30
0.0
 10
174.8543081268698
 20
182.1598859245622
 30
0.0
 10
174.783305002103
 20
182.1680251572365
 30
0.0
 10
174.7433166005071
 20
182.1727133330442
 30
0.0
 10
174.7245730822851
 20
182.1749386925014
 30
0.0
 10
174.7289757100226
 20
182.1744164597772
 30
0.0
 10
174.7306793962123
 20
182.1742143712216
 30
0.0
  0
LINE
  5
1B6
330
1F
100
AcDbEntity
  8
0
  6
Continuous
 62
     7
370
    25
100
AcDbLine
 10
115.3388668712
 20
181.874891018
 30
0.0
 11
115.3388668712
 21
152.474891018
 31
0.0
  0
LINE
  5
1B7
330
1F
100
AcDbEntity
  8
0
  6
Continuous
 62
     7
370
    25
100
AcDbLine
 10
115.0388668712
 20
152.174891018
 30
0.0
 11
115.0388668712
 21
182.174891018
 31
0.0
  0
LINE
  5
1B8
330
1F
100
AcDbEntity
  8
0
  6
Continuous
 62
     7
370
    25
100
AcDbLine
 10
84.6388668712
 20
182.174891018
 30
0.0
 11
84.6388668712
 21
152.174891018
 31
0.0
  0
LINE
  5
1B9
330
1F
100
AcDbEntity
  8
0
  6
Continuous
 62
     7
370
    25
100
AcDbLine
 10
84.3388668712
 20
152.474891018
 30
0.0
 11
84.3388668712
 21
181.874891018
 31
0.0
  0
SPLINE
  5
1BA
330
1F
100
AcDbEntity
  8
0
  6
Continuous
 62
     7
370
    25
100
AcDbSpline
210
0.0
220
0.0
230
1.0
 70
     8
 71
     3
 72
    38
 73
    34
 74
     0
 42
0.000000001
 43
0.00000001
 40
0.0
 40
0.0
 40
0.0
 40
0.0
 40
0.015937532550115
 40
0.0640441762619821
 40
0.1131825492171627
 40
0.1612953562652432
 40
0.2110000016207921
 40
0.2618138452693103
 40
0.3136059698999563
 40
0.340421615891853
 40
0.3675906508924857
 40
0.3949369475190535
 40
0.4226448319476984
 40
0.4506703120738161
 40
0.4790818337145387
 40
0.5076886871478787
 40
0.5366966756060333
 40
0.5652275278230593
 40
0.594169334717504
 40
0.6233208529019773
 40
0.6529062297072453
 40
0.6811889637147092
 40
0.7099002945695644
 40
0.7388326092301226
 40
0.768226046004663
 40
0.7954232875374055
 40
0.8230526733476373
 40
0.8509064490364652
 40
0.8792297663313923
 40
0.9305881295125243
 40
0.9567010067160169
 40
0.9832445754479154
 40
1.0
 40
1.0
 40
1.0
 40
1.0
 10
107.3578126740058
 20
182.1741726719164
 30
0.0
 10
107.3595496609158
 20
182.1743786972323
 30
0.0
 10
107.36652965581
 20
182.1752065996447
 30
0.0
 10
107.325536398647
 20
182.1703318809718
 30
0.0
 10
107.2382349251518
 20
182.1602815716023
 30
0.0
 10
107.1002485482033
 20
182.1452861838388
 30
0.0
 10
106.9198409185928
 20
182.1273432944946
 30
0.0
 10
106.696644150906
 20
182.1077711662983
 30
0.0
 10
106.479623008861
 20
182.0918355395206
 30
0.0
 10
106.2890879414972
 20
182.080236956889
 30
0.0
 10
106.136505020777
 20
182.0722907091277
 30
0.0
 10
105.9771308181288
 20
182.0654653316743
 30
0.0
 10
105.811942156424
 20
182.0599829371056
 30
0.0
 10
105.6415019078248
 20
182.056029763475
 30
0.0
 10
105.4671943016313
 20
182.0537806078999
 30
0.0
 10
105.2899891300012
 20
182.0533536276098
 30
0.0
 10
105.1128686235478
 20
182.0548084255422
 30
0.0
 10
104.9366469335405
 20
182.058114063933
 30
0.0
 10
104.7629413566812
 20
182.0631777944136
 30
0.0
 10
104.5912728146356
 20
182.069946852783
 30
0.0
 10
104.4263415071668
 20
182.0781135698577
 30
0.0
 10
104.2688766279833
 20
182.087411462365
 30
0.0
 10
104.1202632146327
 20
182.097517774276
 30
0.0
 10
103.978826539085
 20
182.1083430257418
 30
0.0
 10
103.8501259907322
 20
182.119227178003
 30
0.0
 10
103.7344038812621
 20
182.1298349124619
 30
0.0
 10
103.6322905183771
 20
182.1398330877427
 30
0.0
 10
103.5415625250972
 20
182.149224316007
 30
0.0
 10
103.443195565901
 20
182.1598859245622
 30
0.0
 10
103.3721924411342
 20
182.1680251572365
 30
0.0
 10
103.3322040395382
 20
182.1727133330442
 30
0.0
 10
103.3134605213162
 20
182.1749386925014
 30
0.0
 10
103.3178631490537
 20
182.1744164597772
 30
0.0
 10
103.3195668352434
 20
182.1742143712216
 30
0.0
  0
LINE
  5
1BB
330
1F
100
AcDbEntity
  8
0
  6
Continuous
 62
     7
370
    25
100
AcDbLine
 10
232.5222914152
 20
182.274357456
 30
0.0
 11
232.8051704512
 21
182.0762834225
 31
0.0
  0
LINE
  5
1BC
330
1F
100
AcDbEntity
  8
0
  6
Continuous
 62
     7
370
    25
100
AcDbLine
 10
236.2394123791
 20
182.0762834225
 30
0.0
 11
236.5222914152
 21
182.274357456
 31
0.0
  0
LINE
  5
1BD
330
1F
100
AcDbEntity
  8
0
  6
Continuous
 62
     7
370
    25
100
AcDbLine
 10
232.5222914152
 20
182.3214731975
 30
0.0
 11
232.5222914152
 21
182.274357456
 31
0.0
  0
LINE
  5
1BE
330
1F
100
AcDbEntity
  8
0
  6
Continuous
 62
     7
370
    25
100
AcDbLine
 10
236.5222914152
 20
182.274357456
 30
0.0
 11
236.5222914152
 21
182.3214731975
 31
0.0
  0
LINE
  5
1BF
330
1F
100
AcDbEntity
  8
0
  6
Continuous
 62
     7
370
    25
100
AcDbLine
 10
236.5222914152
 20
182.3214731975
 30
0.0
 11
236.1322914152
 21
182.5945541374
 31
0.0
  0
LINE
  5
1C0
330
1F
100
AcDbEntity
  8
0
  6
Continuous
 62
     7
370
    25
100
AcDbLine
 10
232.9122914152
 20
182.5945541374
 30
0.0
 11
232.5222914152
 21
182.3214731975
 31
0.0
  0
LINE
  5
1C1
330
1F
100
AcDbEntity
  8
0
  6
Continuous
 62
     7
370
    25
100
AcDbLine
 10
232.736043731
 20
182.7179640945
 30
0.0
 11
232.9122914152
 21
182.5945541374
 31
0.0
  0
LINE
  5
1C2
330
1F
100
AcDbEntity
  8
0
  6
Continuous
 62
     7
370
    25
100
AcDbLine
 10
236.1322914152
 20
182.5945541374
 30
0.0
 11
236.3085390994
 21
182.7179640945
 31
0.0
  0
LINE
  5
1C3
330
1F
100
AcDbEntity
  8
0
  6
Continuous
 62
     7
370
    25
100
AcDbLine
 10
236.3085390994
 20
182.7179640945
 30
0.0
 11
236.1322914152
 21
182.8197207424
 31
0.0
  0
LINE
  5
1C4
330
1F
100
AcDbEntity
  8
0
  6
Continuous
 62
     7
370
    25
100
AcDbLine
 10
232.9122914152
 20
182.8197207424
 30
0.0
 11
232.736043731
 21
182.7179640945
 31
0.0
  0
LINE
  5
1C5
330
1F
100
AcDbEntity
  8
0
  6
Continuous
 62
     7
370
    25
100
AcDbLine
 10
236.5222914152
 20
182.3589071552
 30
0.0
 11
236.1590220312
 21
182.6132711163
 31
0.0
  0
LINE
  5
1C6
330
1F
100
AcDbEntity
  8
0
  6
Continuous
 62
     7
370
    25
100
AcDbLine
 10
232.8855607991
 20
182.6132711163
 30
0.0
 11
232.5222914152
 21
182.3589071552
 31
0.0
  0
LINE
  5
1C7
330
1F
100
AcDbEntity
  8
0
  6
Continuous
 62
     7
370
    25
100
AcDbLine
 10
232.5222914152
 20
182.3589071552
 30
0.0
 11
232.5222914152
 21
182.3214731975
 31
0.0
  0
LINE
  5
1C8
330
1F
100
AcDbEntity
  8
0
  6
Continuous
 62
     7
370
    25
100
AcDbLine
 10
236.5222914152
 20
182.3214731975
 30
0.0
 11
236.5222914152
 21
182.3589071552
 31
0.0
  0
LINE
  5
1C9
330
1F
100
AcDbEntity
  8
0
  6
Continuous
 62
     7
370
    25
100
AcDbLine
 10
232.736043731
 20
182.7553980522
 30
0.0
 11
232.765344916
 21
182.7348811415
 31
0.0
  0
LINE
  5
1CA
330
1F
100
AcDbEntity
  8
0
  6
Continuous
 62
     7
370
    25
100
AcDbLine
 10
236.2792379143
 20
182.7348811415
 30
0.0
 11
236.3085390994
 21
182.7553980522
 31
0.0
  0
LINE
  5
1CB
330
1F
100
AcDbEntity
  8
0
  6
Continuous
 62
     7
370
    25
100
AcDbLine
 10
236.3085390994
 20
182.7553980522
 30
0.0
 11
236.1322914152
 21
182.8571547001
 31
0.0
  0
LINE
  5
1CC
330
1F
100
AcDbEntity
  8
0
  6
Continuous
 62
     7
370
    25
100
AcDbLine
 10
232.9122914152
 20
182.8571547001
 30
0.0
 11
232.736043731
 21
182.7553980522
 31
0.0
  0
LINE
  5
1CD
330
1F
100
AcDbEntity
  8
0
  6
Continuous
 62
     7
370
    25
100
AcDbLine
 10
233.9820355951
 20
182.274357456
 30
0.0
 11
236.5222914152
 21
182.274357456
 31
0.0
  0
LINE
  5
1CE
330
1F
100
AcDbEntity
  8
0
  6
Continuous
 62
     7
370
    25
100
AcDbLine
 10
232.5222914152
 20
182.274357456
 30
0.0
 11
233.9820355951
 21
182.274357456
 31
0.0
  0
LINE
  5
1CF
330
1F
100
AcDbEntity
  8
0
  6
Continuous
 62
     7
370
    25
100
AcDbLine
 10
233.9820355951
 20
182.3214731975
 30
0.0
 11
236.5222914152
 21
182.3214731975
 31
0.0
  0
LINE
  5
1D0
330
1F
100
AcDbEntity
  8
0
  6
Continuous
 62
     7
370
    25
100
AcDbLine
 10
232.5222914152
 20
182.3214731975
 30
0.0
 11
233.9820355951
 21
182.3214731975
 31
0.0
  0
LINE
  5
1D1
330
1F
100
AcDbEntity
  8
0
  6
Continuous
 62
     7
370
    25
100
AcDbLine
 10
234.08738548
 20
182.5945541374
 30
0.0
 11
236.1322914152
 21
182.5945541374
 31
0.0
  0
LINE
  5
1D2
330
1F
100
AcDbEntity
  8
0
  6
Continuous
 62
     7
370
    25
100
AcDbLine
 10
232.9122914152
 20
182.5945541374
 30
0.0
 11
234.08738548
 21
182.5945541374
 31
0.0
  0
LINE
  5
1D3
330
1F
100
AcDbEntity
  8
0
  6
Continuous
 62
     7
370
    25
100
AcDbLine
 10
234.0397760614
 20
182.7179640945
 30
0.0
 11
232.736043731
 21
182.7179640945
 31
0.0
  0
LINE
  5
1D4
330
1F
100
AcDbEntity
  8
0
  6
Continuous
 62
     7
370
    25
100
AcDbLine
 10
236.3085390994
 20
182.7179640945
 30
0.0
 11
234.0397760614
 21
182.7179640945
 31
0.0
  0
LINE
  5
1D5
330
1F
100
AcDbEntity
  8
0
  6
Continuous
 62
     7
370
    25
100
AcDbLine
 10
236.0724387719
 20
182.8197207424
 30
0.0
 11
236.1322914152
 21
182.8197207424
 31
0.0
  0
LINE
  5
1D6
330
1F
100
AcDbEntity
  8
0
  6
Continuous
 62
     7
370
    25
100
AcDbLine
 10
232.9122914152
 20
182.8197207424
 30
0.0
 11
236.0724387719
 21
182.8197207424
 31
0.0
  0
LINE
  5
1D7
330
1F
100
AcDbEntity
  8
0
  6
Continuous
 62
     7
370
    25
100
AcDbLine
 10
236.4688301831
 20
182.3589071552
 30
0.0
 11
236.5222914152
 21
182.3589071552
 31
0.0
  0
LINE
  5
1D8
330
1F
100
AcDbEntity
  8
0
  6
Continuous
 62
     7
370
    25
100
AcDbLine
 10
232.5222914152
 20
182.3589071552
 30
0.0
 11
232.5757526473
 21
182.3589071552
 31
0.0
  0
LINE
  5
1D9
330
1F
100
AcDbEntity
  8
0
  6
Continuous
 62
     7
370
    25
100
AcDbLine
 10
232.8008812477
 20
182.7553980522
 30
0.0
 11
232.736043731
 21
182.7553980522
 31
0.0
  0
LINE
  5
1DA
330
1F
100
AcDbEntity
  8
0
  6
Continuous
 62
     7
370
    25
100
AcDbLine
 10
236.3085390994
 20
182.7553980522
 30
0.0
 11
236.2437015827
 21
182.7553980522
 31
0.0
  0
LINE
  5
1DB
330
1F
100
AcDbEntity
  8
0
  6
Continuous
 62
     7
370
    25
100
AcDbLine
 10
235.8250482807
 20
182.8571547001
 30
0.0
 11
236.1322914152
 21
182.8571547001
 31
0.0
  0
LINE
  5
1DC
330
1F
100
AcDbEntity
  8
0
  6
Continuous
 62
     7
370
    25
100
AcDbLine
 10
232.9122914152
 20
182.8571547001
 30
0.0
 11
235.8250482807
 21
182.8571547001
 31
0.0
  0
CIRCLE
  5
1DD
330
1F
100
AcDbEntity
  8
0
  6
Continuous
 62
     7
370
    25
100
AcDbCircle
 10
234.5222914152
 20
167.174891018
 30
0.0
 40
13.49999999999997
  0
CIRCLE
  5
1DE
330
1F
100
AcDbEntity
  8
0
  6
Continuous
 62
     7
370
    25
100
AcDbCircle
 10
234.5222914152
 20
167.174891018
 30
0.0
 40
14.69999999999999
  0
CIRCLE
  5
1DF
330
1F
100
AcDbEntity
  8
0
  6
Continuous
 62
     7
370
    25
100
AcDbCircle
 10
234.5222914152
 20
167.174891018
 30
0.0
 40
15.0
  0
CIRCLE
  5
1E0
330
1F
100
AcDbEntity
  8
0
  6
Continuous
 62
     7
370
    25
100
AcDbCircle
 10
234.5222914152
 20
167.174891018
 30
0.0
 40
13.0
  0
CIRCLE
  5
1E1
330
1F
100
AcDbEntity
  8
0
  6
Continuous
 62
     7
370
    25
100
AcDbCircle
 10
234.5222914152
 20
167.174891018
 30
0.0
 40
3.0
  0
CIRCLE
  5
1E2
330
1F
100
AcDbEntity
  8
0
  6
Continuous
 62
     7
370
    25
100
AcDbCircle
 10
234.5222914152
 20
167.174891018
 30
0.0
 40
2.5
  0
DIMENSION
  5
1E3
330
1F
100
AcDbEntity
  8
0
  6
Continuous
370
    18
100
AcDbDimension
  2
_D
 10
222.5996125575
 20
158.0727083755
 30
0.0
 11
262.2252644357
 21
188.3242947207
 31
0.0
 70
   163
  1
<>
 71
     1
 42
-1.0
  3
SLDDIMSTYLE0
100
AcDbDiametricDimension
 15
246.4449702728
 25
176.2770736605
 35
0.0
 40
0.0
  0
LINE
  5
1F0
330
1F
100
AcDbEntity
  8
0
  6
Continuous
 62
     7
370
    25
100
AcDbLine
 10
250.5774074882
 20
88.4579169273
 30
0.0
 11
250.5774074882
 21
88.4194450014
 31
0.0
  0
LINE
  5
1F1
330
1F
100
AcDbEntity
  8
0
  6
Continuous
 62
     7
370
    25
100
AcDbLine
 10
254.5774074882
 20
88.4194450014
 30
0.0
 11
254.5774074882
 21
88.4579169273
 31
0.0
  0
LINE
  5
1F2
330
1F
100
AcDbEntity
  8
0
  6
Continuous
 62
     7
370
    25
100
AcDbLine
 10
301.0726894322
 20
59.338177497
 30
0.0
 11
301.0726894322
 21
59.2997055711
 31
0.0
  0
LINE
  5
1F3
330
1F
100
AcDbEntity
  8
0
  6
Continuous
 62
     7
370
    25
100
AcDbLine
 10
305.0726894322
 20
59.2997055711
 30
0.0
 11
305.0726894322
 21
59.338177497
 31
0.0
  0
LINE
  5
1F4
330
1F
100
AcDbEntity
  8
0
  6
Continuous
 62
     7
370
    25
100
AcDbLine
 10
309.9333490808
 20
30.7331124433
 30
0.0
 11
310.1454466377
 21
30.8555935635
 31
0.0
  0
LINE
  5
1F5
330
1F
100
AcDbEntity
  8
0
  6
Continuous
 62
     7
370
    25
100
AcDbLine
 10
320.5382269275
 20
48.8583676953
 30
0.0
 11
320.5382269275
 21
49.1032901289
 31
0.0
  0
LINE
  5
1F6
330
1F
100
AcDbEntity
  8
0
  6
Continuous
 62
     7
370
    25
100
AcDbLine
 10
280.9361885668
 20
42.3988996542
 30
0.0
 11
302.4322347149
 21
29.9894963545
 31
0.0
  0
LINE
  5
1F7
330
1F
100
AcDbEntity
  8
0
  6
Continuous
 62
     7
370
    25
100
AcDbLine
 10
317.4310157045
 20
55.9709622259
 30
0.0
 11
295.9349695564
 21
68.3803655256
 31
0.0
  0
LINE
  5
1F8
330
1F
100
AcDbEntity
  8
0
  6
Continuous
 62
     7
370
    25
100
AcDbLine
 10
288.4338551905
 20
67.6367494369
 30
0.0
 11
288.2217576336
 21
67.5142683167
 31
0.0
  0
LINE
  5
1F9
330
1F
100
AcDbEntity
  8
0
  6
Continuous
 62
     7
370
    25
100
AcDbLine
 10
277.8289773438
 20
49.5114941848
 30
0.0
 11
277.8289773438
 21
49.2665717513
 31
0.0
  0
LINE
  5
1FA
330
1F
100
AcDbEntity
  8
0
  6
Continuous
 62
     7
370
    25
100
AcDbLine
 10
259.4380671368
 20
59.8834182278
 30
0.0
 11
259.6501646938
 21
60.005899348
 31
0.0
  0
LINE
  5
1FB
330
1F
100
AcDbEntity
  8
0
  6
Continuous
 62
     7
370
    25
100
AcDbLine
 10
270.0429449835
 20
78.0086734799
 30
0.0
 11
270.0429449835
 21
78.2535959134
 31
0.0
  0
LINE
  5
1FC
330
1F
100
AcDbEntity
  8
0
  6
Continuous
 62
     7
370
    25
100
AcDbLine
 10
230.4409066229
 20
71.5492054387
 30
0.0
 11
251.936952771
 21
59.139802139
 31
0.0
  0
LINE
  5
1FD
330
1F
100
AcDbEntity
  8
0
  6
Continuous
 62
     7
370
    25
100
AcDbLine
 10
266.9357337605
 20
85.1212680105
 30
0.0
 11
245.4396876124
 21
97.5306713102
 31
0.0
  0
LINE
  5
1FE
330
1F
100
AcDbEntity
  8
0
  6
Continuous
 62
     7
370
    25
100
AcDbLine
 10
237.9385732466
 20
96.7870552214
 30
0.0
 11
237.7264756897
 21
96.6645741012
 31
0.0
  0
LINE
  5
1FF
330
1F
100
AcDbEntity
  8
0
  6
Continuous
 62
     7
370
    25
100
AcDbLine
 10
227.3336953999
 20
78.6617999693
 30
0.0
 11
227.3336953999
 21
78.4168775358
 31
0.0
  0
LINE
  5
200
330
1F
100
AcDbEntity
  8
0
  6
Continuous
 62
     7
370
    25
100
AcDbLine
 10
309.9685033015
 20
32.1415325393
 30
0.0
 11
310.1452512656
 21
32.2436001394
 31
0.0
  0
LINE
  5
201
330
1F
100
AcDbEntity
  8
0
  6
Continuous
 62
     7
370
    25
100
AcDbLine
 10
319.3361453995
 20
48.1644208003
 30
0.0
 11
319.3361453995
 21
48.3685228282
 31
0.0
  0
LWPOLYLINE
  5
202
330
1F
100
AcDbEntity
  8
0
  6
Continuous
 62
     7
370
    25
100
AcDbPolyline
 90
       19
 70
   128
 43
0.0
 10
250.8464924563
 20
89.0363388055
 10
250.6878916745
 20
88.8363509244
 10
250.5859170726
 20
88.564310167
 10
250.5996806549
 20
88.2860862213
 10
250.728382532
 20
88.0178484516
 10
250.9645430186
 20
87.7751858621
 10
251.2944373257
 20
87.5722011205
 10
251.6988931952
 20
87.4206909622
 10
252.1544051222
 20
87.3294606068
 10
252.6345004091
 20
87.303812031
 10
253.111277663
 20
87.3452358367
 10
253.5570283228
 20
87.451324623
 10
253.9458469806
 20
87.6159128952
 10
254.2551369091
 20
87.8294353812
 10
254.466923302
 20
88.0794829302
 10
254.5688979038
 20
88.3515236875
 10
254.5551343216
 20
88.6297476333
 10
254.4264324444
 20
88.8979854029
 10
254.3083225201
 20
89.0363388055
  0
LWPOLYLINE
  5
203
330
1F
100
AcDbEntity
  8
0
  6
Continuous
 62
     7
370
    25
100
AcDbPolyline
 90
       24
 70
   128
 43
0.0
 10
251.1737628445
 20
88.4095103105
 10
251.4385741187
 20
88.2077739101
 10
251.7878474541
 20
88.0547628942
 10
252.1956788452
 20
87.9618253898
 10
252.6318213035
 20
87.9358541465
 10
253.063928138
 20
87.9787753325
 10
253.4599519617
 20
88.0874056799
 10
253.7905214991
 20
88.2536885728
 10
254.0311199199
 20
88.4652915696
 10
254.16390314
 20
88.7065210441
 10
254.1790232353
 20
88.9594861097
 10
254.0753588176
 20
89.2054255048
 10
253.8605982024
 20
89.4260990296
 10
253.5506692022
 20
89.6051403381
 10
253.168557833
 20
89.7292707557
 10
252.7426035471
 20
89.789284097
 10
252.3043974252
 20
89.7807294472
 10
251.8864392108
 20
89.7042412654
 10
251.5197269525
 20
89.5654923303
 10
251.231458021
 20
89.3747730155
 10
251.0430120042
 20
89.1462281001
 10
250.968365081
 20
88.8968077151
 10
251.0130534723
 20
88.6450102294
 10
251.1737628445
 20
88.4095103105
  0
LWPOLYLINE
  5
204
330
1F
100
AcDbEntity
  8
0
  6
Continuous
 62
     7
370
    25
100
AcDbPolyline
 90
       25
 70
   128
 43
0.0
 10
251.7024847646
 20
89.6806795124
 10
252.1353565745
 20
89.7807713119
 10
252.5983534237
 20
89.8127758668
 10
253.059922842
 20
89.7745121195
 10
253.4886096363
 20
89.6685876812
 10
253.85519951
 20
89.5022211273
 10
254.1347099691
 20
89.2867500635
 10
254.3080928377
 20
89.0368584868
 10
254.3635323599
 20
88.769576095
 10
254.2972504237
 20
88.5031177416
 10
254.1137640337
 20
88.2556421229
 10
253.825577484
 20
88.0440142934
 10
253.4523302118
 20
87.8826563399
 10
253.0194584019
 20
87.7825645404
 10
252.5564615528
 20
87.7505599855
 10
252.0948921345
 20
87.7888237328
 10
251.6662053402
 20
87.8947481711
 10
251.2996154664
 20
88.061114725
 10
251.0201050073
 20
88.2765857888
 10
250.8467221387
 20
88.5264773656
 10
250.7912826166
 20
88.7937597573
 10
250.8575645528
 20
89.0602181108
 10
251.0410509428
 20
89.3076937295
 10
251.3292374925
 20
89.519321559
 10
251.7024847646
 20
89.6806795124
  0
LWPOLYLINE
  5
205
330
1F
100
AcDbEntity
  8
0
  6
Continuous
 62
     7
370
    25
100
AcDbPolyline
 90
       15
 70
   128
 43
0.0
 10
250.5774074882
 20
88.4194450014
 10
250.5996806549
 20
88.2476142954
 10
250.728382532
 20
87.9793765257
 10
250.9645430186
 20
87.7367139363
 10
251.2944373257
 20
87.5337291947
 10
251.6988931952
 20
87.3822190364
 10
252.1544051222
 20
87.290988681
 10
252.6345004091
 20
87.2653401051
 10
253.111277663
 20
87.3067639109
 10
253.5570283228
 20
87.4128526972
 10
253.9458469806
 20
87.5774409694
 10
254.2551369091
 20
87.7909634553
 10
254.466923302
 20
88.0410110043
 10
254.5688979038
 20
88.3130517617
 10
254.5774074882
 20
88.4194450014
  0
LINE
  5
206
330
1F
100
AcDbEntity
  8
0
  6
Continuous
 62
     7
370
    25
100
AcDbLine
 10
253.5705685968
 20
88.5247126784
 30
0.0
 11
253.5841088707
 21
89.191261279
 31
0.0
  0
LINE
  5
207
330
1F
100
AcDbEntity
  8
0
  6
Continuous
 62
     7
370
    25
100
AcDbLine
 10
252.5909477622
 20
89.5313049827
 30
0.0
 11
253.5841088707
 21
89.191261279
 31
0.0
  0
LINE
  5
208
330
1F
100
AcDbEntity
  8
0
  6
Continuous
 62
     7
370
    25
100
AcDbLine
 10
251.5842463797
 20
89.2048000858
 30
0.0
 11
252.5909477622
 21
89.5313049827
 31
0.0
  0
LINE
  5
209
330
1F
100
AcDbEntity
  8
0
  6
Continuous
 62
     7
370
    25
100
AcDbLine
 10
251.5842463797
 20
89.2048000858
 30
0.0
 11
251.5707061058
 21
88.5382514852
 31
0.0
  0
LINE
  5
20A
330
1F
100
AcDbEntity
  8
0
  6
Continuous
 62
     7
370
    25
100
AcDbLine
 10
252.5638672143
 20
88.1982077815
 30
0.0
 11
251.5707061058
 21
88.5382514852
 31
0.0
  0
LINE
  5
20B
330
1F
100
AcDbEntity
  8
0
  6
Continuous
 62
     7
370
    25
100
AcDbLine
 10
252.5638672143
 20
88.1982077815
 30
0.0
 11
253.5705685968
 21
88.5247126784
 31
0.0
  0
LINE
  5
20C
330
1F
100
AcDbEntity
  8
0
  6
Continuous
 62
     7
370
    25
100
AcDbLine
 10
251.5842463797
 20
88.5336154953
 30
0.0
 11
251.5842463797
 21
89.2048000858
 31
0.0
  0
LINE
  5
20D
330
1F
100
AcDbEntity
  8
0
  6
Continuous
 62
     7
370
    25
100
AcDbLine
 10
252.5909477622
 20
88.2069908543
 30
0.0
 11
252.5909477622
 21
89.5313049827
 31
0.0
  0
LWPOLYLINE
  5
20E
330
1F
100
AcDbEntity
  8
0
  6
Continuous
 62
     7
370
    25
100
AcDbPolyline
 90
       20
 70
   128
 43
0.0
 10
301.341774395
 20
59.91659937
 10
301.2690376718
 20
59.8370690993
 10
301.1146320986
 20
59.5733905246
 10
301.0740217004
 20
59.2960422237
 10
301.149566606
 20
59.0211426718
 10
301.3368764199
 20
58.7646680315
 10
301.6250653766
 20
58.5415236767
 10
301.9973849816
 20
58.3646779462
 10
302.4321973727
 20
58.2444084711
 10
302.9042328342
 20
58.1877048761
 10
303.3860583808
 20
58.197862568
 10
303.8496720632
 20
58.2742912187
 10
304.2681303393
 20
58.4125490729
 10
304.6171139351
 20
58.6046010865
 10
304.8763411926
 20
58.8392858946
 10
305.0307467657
 20
59.1029644693
 10
305.0713571639
 20
59.3803127702
 10
304.9958122584
 20
59.6552123222
 10
304.8085024445
 20
59.9116869625
 10
304.80360447
 20
59.9165993693
  0
LWPOLYLINE
  5
20F
330
1F
100
AcDbEntity
  8
0
  6
Continuous
 62
     7
370
    25
100
AcDbPolyline
 90
       24
 70
   128
 43
0.0
 10
301.4825750081
 20
59.5993891969
 10
301.6096002385
 20
59.3571285739
 10
301.8451361011
 20
59.1436358574
 10
302.1717139787
 20
58.9747448256
 10
302.5651130839
 20
58.8629813536
 10
302.9961568049
 20
58.8166344269
 10
303.4328766007
 20
58.839141385
 10
303.842882962
 20
58.9288329897
 10
304.1957675925
 20
59.0790572252
 10
304.4653586537
 20
59.278672647
 10
304.6316618098
 20
59.5128746925
 10
304.6823431164
 20
59.7642936674
 10
304.6136437729
 20
60.0142829765
 10
304.4306588954
 20
60.2443020563
 10
304.1469596351
 20
60.4372914441
 10
303.7835866683
 20
60.5789379996
 10
303.3674897056
 20
60.658736446
 10
302.9295287553
 20
60.6707684975
 10
302.5021853775
 20
60.6141417919
 10
302.1171536755
 20
60.4930560729
 10
301.8029896893
 20
60.3164917143
 10
301.5829935245
 20
60.0975436869
 10
301.4734812903
 20
59.8524503642
 10
301.4825750081
 20
59.5993891969
  0
LWPOLYLINE
  5
210
330
1F
100
AcDbEntity
  8
0
  6
Continuous
 62
     7
370
    25
100
AcDbPolyline
 90
       25
 70
   128
 43
0.0
 10
302.7928121528
 20
60.6803709464
 10
303.2589534744
 20
60.6874856806
 10
303.7124012093
 20
60.6247103875
 10
304.1222536438
 20
60.4963230995
 10
304.4605800118
 20
60.3110731982
 10
304.7043239303
 20
60.0815851582
 10
304.8368746542
 20
59.8234982102
 10
304.8491990707
 20
59.5544005531
 10
304.7404572912
 20
59.2926307477
 10
304.5180598881
 20
59.0560279735
 10
304.1971628771
 20
58.8607163186
 10
303.7996348591
 20
58.7200059495
 10
303.3525667116
 20
58.6434860453
 10
302.88642539
 20
58.6363713111
 10
302.432977655
 20
58.6991466043
 10
302.0231252205
 20
58.8275338922
 10
301.6847988526
 20
59.0127837936
 10
301.441054934
 20
59.2422718336
 10
301.3085042101
 20
59.5003587816
 10
301.2961797936
 20
59.7694564387
 10
301.4049215732
 20
60.0312262441
 10
301.6273189762
 20
60.2678290183
 10
301.9482159872
 20
60.4631406732
 10
302.3457440053
 20
60.6038510423
 10
302.7928121528
 20
60.6803709464
  0
LWPOLYLINE
  5
211
330
1F
100
AcDbEntity
  8
0
  6
Continuous
 62
     7
370
    25
100
AcDbPolyline
 90
       15
 70
   128
 43
0.0
 10
301.0726894322
 20
59.2997055711
 10
301.0740217004
 20
59.2575702979
 10
301.149566606
 20
58.9826707459
 10
301.3368764199
 20
58.7261961056
 10
301.6250653766
 20
58.5030517508
 10
301.9973849816
 20
58.3262060204
 10
302.4321973727
 20
58.2059365453
 10
302.9042328342
 20
58.1492329503
 10
303.3860583808
 20
58.1593906422
 10
303.8496720632
 20
58.2358192929
 10
304.2681303393
 20
58.374077147
 10
304.6171139351
 20
58.5661291607
 10
304.8763411926
 20
58.8008139688
 10
305.0307467657
 20
59.0644925435
 10
305.0726894322
 20
59.2997055711
  0
LINE
  5
212
330
1F
100
AcDbEntity
  8
0
  6
Continuous
 62
     7
370
    25
100
AcDbLine
 10
303.7995931554
 20
59.2270819864
 30
0.0
 11
304.21312793
 21
59.8494619499
 31
0.0
  0
LINE
  5
213
330
1F
100
AcDbEntity
  8
0
  6
Continuous
 62
     7
370
    25
100
AcDbLine
 10
303.4862242068
 20
60.3673969153
 30
0.0
 11
304.21312793
 21
59.8494619499
 31
0.0
  0
LINE
  5
214
330
1F
100
AcDbEntity
  8
0
  6
Continuous
 62
     7
370
    25
100
AcDbLine
 10
302.3457857089
 20
60.2629519172
 30
0.0
 11
303.4862242068
 21
60.3673969153
 31
0.0
  0
LINE
  5
215
330
1F
100
AcDbEntity
  8
0
  6
Continuous
 62
     7
370
    25
100
AcDbLine
 10
302.3457857089
 20
60.2629519172
 30
0.0
 11
301.9322509343
 21
59.6405719536
 31
0.0
  0
LINE
  5
216
330
1F
100
AcDbEntity
  8
0
  6
Continuous
 62
     7
370
    25
100
AcDbLine
 10
302.6591546576
 20
59.1226369882
 30
0.0
 11
301.9322509343
 21
59.6405719536
 31
0.0
  0
LINE
  5
217
330
1F
100
AcDbEntity
  8
0
  6
Continuous
 62
     7
370
    25
100
AcDbLine
 10
302.6591546576
 20
59.1226369882
 30
0.0
 11
303.7995931554
 21
59.2270819864
 31
0.0
  0
LINE
  5
218
330
1F
100
AcDbEntity
  8
0
  6
Continuous
 62
     7
370
    25
100
AcDbLine
 10
302.3457857089
 20
59.3459192887
 30
0.0
 11
302.3457857089
 21
60.2629519172
 31
0.0
  0
LINE
  5
219
330
1F
100
AcDbEntity
  8
0
  6
Continuous
 62
     7
370
    25
100
AcDbLine
 10
303.4862242068
 20
59.1983826577
 30
0.0
 11
303.4862242068
 21
60.3673969153
 31
0.0
  0
LWPOLYLINE
  5
21A
330
1F
100
AcDbEntity
  8
0
  6
Continuous
 62
     7
370
    25
100
AcDbPolyline
 90
       72
 70
   128
 43
0.0
 10
320.5382269275
 20
48.8583676953
 10
320.4975515182
 20
49.8957259281
 10
320.3758436305
 20
50.8780025982
 10
320.1740557936
 20
51.7975100589
 10
319.8937672711
 20
52.6470519177
 10
319.5371717005
 20
53.4199793575
 10
319.1070599257
 20
54.1102431733
 10
318.6067981545
 20
54.7124411148
 10
318.0403016136
 20
55.2218601665
 10
317.4120039065
 20
55.6345134338
 10
316.7268223146
 20
55.9471713453
 10
315.9901193129
 20
56.1573869289
 10
315.2076606012
 20
56.2635149627
 10
314.3855699798
 20
56.2647248508
 10
313.5302814225
 20
56.1610071244
 10
312.6484887219
 20
55.9531735152
 10
311.7470931014
 20
55.642850603
 10
310.833149204
 20
55.2324670854
 10
309.9138098798
 20
54.7252347697
 10
308.9962702055
 20
54.1251234367
 10
308.087711173
 20
53.4368297711
 10
307.1952434888
 20
52.665740604
 10
306.3258519224
 20
51.8178907538
 10
305.4863406417
 20
50.8999157951
 10
304.6832799607
 20
49.9190001264
 10
303.922954918
 20
48.882820743
 10
303.2113160879
 20
47.7994871534
 10
302.5539330093
 20
46.6774779117
 10
301.955950596
 20
45.5255742616
 10
301.4220488711
 20
44.3527914109
 10
300.9564063396
 20
43.1683079756
 10
300.5626672856
 20
41.9813941445
 10
300.243913251
 20
40.8013391277
 10
300.0026389183
 20
39.6373784555
 10
299.8407325865
 20
38.4986216985
 10
299.7594613919
 20
37.3939811722
 10
299.7594613919
 20
36.3321021865
 10
299.8407325865
 20
35.3212953841
 10
300.0026389183
 20
34.3694716989
 10
300.243913251
 20
33.4840804417
 10
300.5626672856
 20
32.6720509995
 10
300.9564063396
 20
31.9397386037
 10
301.4220488711
 20
31.2928745918
 10
301.955950596
 20
30.7365215516
 10
302.5539330093
 20
30.2750337
 10
303.2113160879
 20
29.9120228052
 10
303.922954918
 20
29.6503299196
 10
304.6832799607
 20
29.4920031449
 10
305.4863406417
 20
29.4382816027
 10
306.3258519224
 20
29.4895857369
 10
307.1952434888
 20
29.6455140232
 10
308.087711173
 20
29.9048461113
 10
308.9962702055
 20
30.2655523759
 10
309.9138098798
 20
30.7248098016
 10
310.833149204
 20
31.2790240761
 10
311.7470931014
 20
31.9238577215
 10
312.6484887219
 20
32.6542640402
 10
313.5302814225
 20
33.4645266123
 10
314.3855699798
 20
34.3483040347
 10
315.2076606012
 20
35.2986795508
 10
315.9901193129
 20
36.3082151835
 10
316.7268223146
 20
37.3690099478
 10
317.4120039065
 20
38.4727616864
 10
318.0403016136
 20
39.6108320454
 10
318.6067981545
 20
40.7743140811
 10
319.1070599257
 20
41.9541019692
 10
319.5371717005
 20
43.1409622698
 10
319.8937672711
 20
44.3256061918
 10
320.1740557936
 20
45.4987622904
 10
320.3758436305
 20
46.6512490285
 10
320.4975515182
 20
47.7740466346
 10
320.5382269275
 20
48.8583676953
  0
LWPOLYLINE
  5
21B
330
1F
100
AcDbEntity
  8
0
  6
Continuous
 62
     7
370
    25
100
AcDbPolyline
 90
       57
 70
   128
 43
0.0
 10
309.9333490808
 20
30.7331124433
 10
309.9316252097
 20
30.7321171119
 10
309.0071989589
 20
30.2450649613
 10
308.0898081501
 20
29.8549351009
 10
307.1864346813
 20
29.5646966546
 10
306.30395377
 20
29.3765585121
 10
305.4490816287
 20
29.2919525184
 10
304.6283243508
 20
29.3115225761
 10
303.8479283946
 20
29.4351197453
 10
303.1138330446
 20
29.6618033769
 10
302.4316252097
 20
29.9898482716
 10
301.8064969034
 20
30.4167578096
 10
301.2432057296
 20
30.9392829517
 10
300.7460386742
 20
31.5534469659
 10
300.3187794788
 20
32.2545756932
 10
299.9646798439
 20
33.0373331208
 10
299.6864346813
 20
33.8957619919
 10
299.4861616049
 20
34.8233291445
 10
299.3653848136
 20
35.8129752325
 10
299.3250234919
 20
36.8571684515
 10
299.3653848136
 20
37.9479618608
 10
299.4861616049
 20
39.0770538637
 10
299.6864346813
 20
40.2358513885
 10
299.9646798439
 20
41.4155352862
 10
300.3187794788
 20
42.60712745
 10
300.7460386742
 20
43.8015591442
 10
301.2432057296
 20
44.9897400222
 10
301.8064969034
 20
46.1626273101
 10
302.4316252097
 20
47.3112946276
 10
303.1138330446
 20
48.4269999226
 10
303.8479283946
 20
49.5012520043
 10
304.6283243508
 20
50.5258751657
 10
305.4490816287
 20
51.4930714057
 10
306.30395377
 20
52.3954797771
 10
307.1864346813
 20
53.2262324071
 10
308.0898081501
 20
53.9790067668
 10
309.0071989589
 20
54.6480737886
 10
309.9316252097
 20
55.2283414685
 10
310.8560514604
 20
55.7153936191
 10
311.7734422692
 20
56.1055234795
 10
312.6768157381
 20
56.3957619259
 10
313.5592966494
 20
56.5839000683
 10
314.4141687906
 20
56.6685060621
 10
315.2349260686
 20
56.6489360044
 10
316.0153220248
 20
56.5253388351
 10
316.7494173748
 20
56.2986552035
 10
317.4316252097
 20
55.9706103089
 10
318.056753516
 20
55.5437007708
 10
318.6200446898
 20
55.0211756288
 10
319.1172117451
 20
54.4070116146
 10
319.5444709405
 20
53.7058828872
 10
319.8985705755
 20
52.9231254596
 10
320.1768157381
 20
52.0646965885
 10
320.3770888145
 20
51.1371294359
 10
320.4978656057
 20
50.1474833479
 10
320.5382269275
 20
49.1032901289
 10
320.5382269275
 20
49.1032901289
  0
SPLINE
  5
21C
330
1F
100
AcDbEntity
  8
0
  6
Continuous
 62
     7
370
    25
100
AcDbSpline
210
0.0
220
0.0
230
1.0
 70
     8
 71
     3
 72
    36
 73
    32
 74
     0
 42
0.000000001
 43
0.00000001
 40
0.0
 40
0.0
 40
0.0
 40
0.0
 40
0.0220692241138592
 40
0.0521061625398464
 40
0.0795964680897262
 40
0.1075263182279329
 40
0.1356843213867264
 40
0.1643188680006264
 40
0.2161206748799985
 40
0.2691482949548666
 40
0.3187261893764432
 40
0.3693673665288423
 40
0.4189516127806132
 40
0.4701763807037062
 40
0.5225442696516374
 40
0.5759203584552278
 40
0.6035561102610574
 40
0.6315560588100602
 40
0.6597386901965573
 40
0.6882939678641559
 40
0.7171765542929386
 40
0.7464569885858969
 40
0.7759387285249024
 40
0.8058338714447552
 40
0.835237285813993
 40
0.8650642231321847
 40
0.8951072853635657
 40
0.9255974749610643
 40
0.9547451828945878
 40
0.9843345954994381
 40
1.0
 40
1.0
 40
1.0
 40
1.0
 10
305.0347449153185
 20
59.10407257319331
 30
0.0
 10
305.0358739092806
 20
59.0808938497733
 30
0.0
 10
305.0385395010837
 20
59.02616812295305
 30
0.0
 10
305.0241044085204
 20
58.94260863382745
 30
0.0
 10
304.9953464588172
 20
58.85360329661069
 30
0.0
 10
304.9524136338251
 20
58.76767608211132
 30
0.0
 10
304.894431275235
 20
58.68228050498286
 30
0.0
 10
304.8015268233345
 20
58.57584017672797
 30
0.0
 10
304.6557762410542
 20
58.45147811772636
 30
0.0
 10
304.4441583518615
 20
58.32174479865436
 30
0.0
 10
304.1988809226615
 20
58.21067132915227
 30
0.0
 10
303.9324338446535
 20
58.12210837023336
 30
0.0
 10
303.6441268675873
 20
58.05549919095719
 30
0.0
 10
303.3411555543702
 20
58.0133933008052
 30
0.0
 10
303.0270291540488
 20
57.99824534250647
 30
0.0
 10
302.7635175139526
 20
58.01030019197895
 30
0.0
 10
302.5545276602173
 20
58.035735043062
 30
0.0
 10
302.3979926975866
 20
58.06345114950113
 30
0.0
 10
302.2450143638538
 20
58.09967974291694
 30
0.0
 10
302.0967617025279
 20
58.14448009329978
 30
0.0
 10
301.954036119835
 20
58.19800722804186
 30
0.0
 10
301.818315209621
 20
58.26012686154544
 30
0.0
 10
301.6906592286416
 20
58.33075561425316
 30
0.0
 10
301.5734500491168
 20
58.40888313114115
 30
0.0
 10
301.4672887676652
 20
58.49416399518716
 30
0.0
 10
301.3732139717712
 20
58.58581097113484
 30
0.0
 10
301.2913677901216
 20
58.68421894794417
 30
0.0
 10
301.2239852062273
 20
58.78672181440822
 30
0.0
 10
301.1721530257376
 20
58.89265099224969
 30
0.0
 10
301.1387864719975
 20
58.98319858875374
 30
0.0
 10
301.1286928666382
 20
59.03943372449695
 30
0.0
 10
301.1251988648737
 20
59.05890007537202
 30
0.0
  0
LWPOLYLINE
  5
21D
330
1F
100
AcDbEntity
  8
0
  6
Continuous
 62
     7
370
    25
100
AcDbPolyline
 90
       38
 70
   128
 43
0.0
 10
295.9349695564
 20
68.3803655256
 10
295.2533712267
 20
68.7080585033
 10
294.5192758767
 20
68.9347421349
 10
293.7388799205
 20
69.0583393041
 10
292.9181226426
 20
69.0779093618
 10
292.0632505013
 20
68.9933033681
 10
291.18076959
 20
68.8051652256
 10
290.2773961211
 20
68.5149267792
 10
289.3600053124
 20
68.1247969188
 10
288.4355790616
 20
67.6377447682
 10
287.5111528109
 20
67.0574770883
 10
286.5937620021
 20
66.3884100665
 10
285.6903885332
 20
65.6356357068
 10
284.8079076219
 20
64.8048830768
 10
283.9530354807
 20
63.9024747054
 10
283.1322782027
 20
62.9352784654
 10
282.3518822465
 20
61.910655304
 10
281.6177868965
 20
60.8364032223
 10
280.9355790616
 20
59.7206979273
 10
280.3104507553
 20
58.5720306098
 10
279.7471595815
 20
57.3991433219
 10
279.2499925262
 20
56.2109624439
 10
278.8227333308
 20
55.0165307497
 10
278.4686336958
 20
53.8249385859
 10
278.1903885332
 20
52.6452546882
 10
277.9901154568
 20
51.4864571635
 10
277.8693386656
 20
50.3573651605
 10
277.8289773438
 20
49.2665717513
 10
277.8693386656
 20
48.2223785322
 10
277.9901154568
 20
47.2327324442
 10
278.1903885332
 20
46.3051652916
 10
278.4686336958
 20
45.4467364205
 10
278.8227333308
 20
44.6639789929
 10
279.2499925262
 20
43.9628502656
 10
279.7471595815
 20
43.3486862514
 10
280.3104507553
 20
42.8261611093
 10
280.9355790616
 20
42.3992515713
 10
280.9361885668
 20
42.3988996542
  0
LWPOLYLINE
  5
21E
330
1F
100
AcDbEntity
  8
0
  6
Continuous
 62
     7
370
    25
100
AcDbPolyline
 90
       69
 70
   128
 43
0.0
 10
319.6896987901
 20
48.3685228282
 10
319.6489774863
 20
47.3279130245
 10
319.5271609949
 20
46.2491655201
 10
319.3252886112
 20
45.1414838085
 10
319.0450826392
 20
44.0143182395
 10
318.6889336975
 20
42.8772853923
 10
318.2598803231
 20
41.7400860301
 10
317.7615830484
 20
40.6124223371
 10
317.1982931698
 20
39.5039151422
 10
316.5748164781
 20
38.424021838
 10
315.8964722565
 20
37.3819556933
 10
315.1690478988
 20
36.3866072492
 10
314.3987495331
 20
35.4464684676
 10
313.5921490734
 20
34.569560281
 10
312.7561281506
 20
33.763364161
 10
311.8978194002
 20
33.0347582886
 10
311.02454561
 20
32.3899588722
 10
310.143757244
 20
31.834467113
 10
309.2629688781
 20
31.3730222709
 10
308.3896950879
 20
31.0095612306
 10
307.5313863375
 20
30.7471849135
 10
306.6953654146
 20
30.5881318219
 10
305.888764955
 20
30.5337589406
 10
305.1184665893
 20
30.5845301599
 10
304.3910422316
 20
30.7400123177
 10
303.71269801
 20
30.9988788949
 10
303.0892213183
 20
31.3589213334
 10
302.5259314397
 20
31.8170678778
 10
302.0276341649
 20
32.3694097834
 10
301.5985807906
 20
33.0112346639
 10
301.2424318489
 20
33.7370666957
 10
300.9622258768
 20
34.5407133357
 10
300.7603534931
 20
35.4153181543
 10
300.6385370018
 20
36.3534193314
 10
300.597815698
 20
37.3470133186
 10
300.6385370018
 20
38.3876231224
 10
300.7603534931
 20
39.4663706267
 10
300.9622258768
 20
40.5740523383
 10
301.2424318489
 20
41.7012179074
 10
301.5985807906
 20
42.8382507546
 10
302.0276341649
 20
43.9754501168
 10
302.5259314397
 20
45.1031138098
 10
303.0892213183
 20
46.2116210047
 10
303.71269801
 20
47.2915143089
 10
304.3910422316
 20
48.3335804535
 10
305.1184665893
 20
49.3289288977
 10
305.888764955
 20
50.2690676793
 10
306.6953654146
 20
51.1459758659
 10
307.5313863375
 20
51.9521719859
 10
308.3896950879
 20
52.6807778583
 10
309.2629688781
 20
53.3255772747
 10
310.143757244
 20
53.8810690339
 10
311.02454561
 20
54.342513876
 10
311.8978194002
 20
54.7059749163
 10
312.7561281506
 20
54.9683512334
 10
313.5921490734
 20
55.127404325
 10
314.3987495331
 20
55.1817772063
 10
315.1690478988
 20
55.131005987
 10
315.8964722565
 20
54.9755238292
 10
316.5748164781
 20
54.7166572519
 10
317.1982931698
 20
54.3566148135
 10
317.7615830484
 20
53.8984682691
 10
318.2598803231
 20
53.3461263634
 10
318.6889336975
 20
52.7043014829
 10
319.0450826392
 20
51.9784694512
 10
319.3252886112
 20
51.1748228112
 10
319.5271609949
 20
50.3002179926
 10
319.6489774863
 20
49.3621168155
 10
319.6896987901
 20
48.3685228282
  0
ARC
  5
21F
330
1F
100
AcDbEntity
  8
0
  6
Continuous
 62
     7
370
    25
100
AcDbCircle
 10
300.2876730298
 20
48.5475643796
 30
0.0
 40
22.47937215728078
100
AcDbArc
 50
122.4630096299
 51
177.5423669028
  0
LWPOLYLINE
  5
220
330
1F
100
AcDbEntity
  8
0
  6
Continuous
 62
     7
370
    25
100
AcDbPolyline
 90
       72
 70
   128
 43
0.0
 10
270.0429449835
 20
78.0086734799
 10
270.0022695742
 20
79.0460317126
 10
269.8805616865
 20
80.0283083827
 10
269.6787738497
 20
80.9478158435
 10
269.3984853271
 20
81.7973577022
 10
269.0418897565
 20
82.5702851421
 10
268.6117779818
 20
83.2605489579
 10
268.1115162106
 20
83.8627468993
 10
267.5450196697
 20
84.3721659511
 10
266.9167219626
 20
84.7848192183
 10
266.2315403707
 20
85.0974771298
 10
265.494837369
 20
85.3076927134
 10
264.7123786572
 20
85.4138207472
 10
263.8902880359
 20
85.4150306354
 10
263.0349994786
 20
85.3113129089
 10
262.153206778
 20
85.1034792997
 10
261.2518111575
 20
84.7931563875
 10
260.3378672601
 20
84.3827728699
 10
259.4185279359
 20
83.8755405542
 10
258.5009882615
 20
83.2754292212
 10
257.5924292291
 20
82.5871355556
 10
256.6999615449
 20
81.8160463886
 10
255.8305699785
 20
80.9681965384
 10
254.9910586978
 20
80.0502215796
 10
254.1879980167
 20
79.0693059109
 10
253.427672974
 20
78.0331265275
 10
252.716034144
 20
76.9497929379
 10
252.0586510654
 20
75.8277836962
 10
251.460668652
 20
74.6758800461
 10
250.9267669272
 20
73.5030971955
 10
250.4611243956
 20
72.3186137602
 10
250.0673853416
 20
71.1316999291
 10
249.748631307
 20
69.9516449122
 10
249.5073569744
 20
68.78768424
 10
249.3454506425
 20
67.648927483
 10
249.2641794479
 20
66.5442869567
 10
249.2641794479
 20
65.482407971
 10
249.3454506425
 20
64.4716011687
 10
249.5073569744
 20
63.5197774835
 10
249.748631307
 20
62.6343862262
 10
250.0673853416
 20
61.8223567841
 10
250.4611243956
 20
61.0900443883
 10
250.9267669272
 20
60.4431803763
 10
251.460668652
 20
59.8868273361
 10
252.0586510654
 20
59.4253394845
 10
252.716034144
 20
59.0623285897
 10
253.427672974
 20
58.8006357041
 10
254.1879980167
 20
58.6423089294
 10
254.9910586978
 20
58.5885873872
 10
255.8305699785
 20
58.6398915215
 10
256.6999615449
 20
58.7958198077
 10
257.5924292291
 20
59.0551518958
 10
258.5009882615
 20
59.4158581605
 10
259.4185279359
 20
59.8751155861
 10
260.3378672601
 20
60.4293298607
 10
261.2518111575
 20
61.0741635061
 10
262.153206778
 20
61.8045698247
 10
263.0349994786
 20
62.6148323969
 10
263.8902880359
 20
63.4986098192
 10
264.7123786572
 20
64.4489853353
 10
265.494837369
 20
65.458520968
 10
266.2315403707
 20
66.5193157323
 10
266.9167219626
 20
67.6230674709
 10
267.5450196697
 20
68.7611378299
 10
268.1115162106
 20
69.9246198656
 10
268.6117779818
 20
71.1044077537
 10
269.0418897565
 20
72.2912680543
 10
269.3984853271
 20
73.4759119763
 10
269.6787738497
 20
74.6490680749
 10
269.8805616865
 20
75.801554813
 10
270.0022695742
 20
76.9243524192
 10
270.0429449835
 20
78.0086734799
  0
LWPOLYLINE
  5
221
330
1F
100
AcDbEntity
  8
0
  6
Continuous
 62
     7
370
    25
100
AcDbPolyline
 90
       57
 70
   128
 43
0.0
 10
259.4380671368
 20
59.8834182278
 10
259.4363432657
 20
59.8824228965
 10
258.511917015
 20
59.3953707458
 10
257.5945262062
 20
59.0052408854
 10
256.6911527374
 20
58.7150024391
 10
255.808671826
 20
58.5268642966
 10
254.9537996848
 20
58.4422583029
 10
254.1330424068
 20
58.4618283606
 10
253.3526464507
 20
58.5854255298
 10
252.6185511007
 20
58.8121091614
 10
251.9363432657
 20
59.1401540561
 10
251.3112149594
 20
59.5670635942
 10
250.7479237857
 20
60.0895887362
 10
250.2507567303
 20
60.7037527504
 10
249.8234975349
 20
61.4048814778
 10
249.4693978999
 20
62.1876389053
 10
249.1911527374
 20
63.0460677764
 10
248.9908796609
 20
63.973634929
 10
248.8701028697
 20
64.963281017
 10
248.8297415479
 20
66.0074742361
 10
248.8701028697
 20
67.0982676453
 10
248.9908796609
 20
68.2273596483
 10
249.1911527374
 20
69.386157173
 10
249.4693978999
 20
70.5658410707
 10
249.8234975349
 20
71.7574332346
 10
250.2507567303
 20
72.9518649287
 10
250.7479237857
 20
74.1400458067
 10
251.3112149594
 20
75.3129330947
 10
251.9363432657
 20
76.4616004121
 10
252.6185511007
 20
77.5773057072
 10
253.3526464507
 20
78.6515577889
 10
254.1330424068
 20
79.6761809502
 10
254.9537996848
 20
80.6433771903
 10
255.808671826
 20
81.5457855616
 10
256.6911527374
 20
82.3765381917
 10
257.5945262062
 20
83.1293125513
 10
258.511917015
 20
83.7983795731
 10
259.4363432657
 20
84.378647253
 10
260.3607695165
 20
84.8656994037
 10
261.2781603253
 20
85.2558292641
 10
262.1815337941
 20
85.5460677104
 10
263.0640147055
 20
85.7342058529
 10
263.9188868467
 20
85.8188118466
 10
264.7396441246
 20
85.7992417889
 10
265.5200400808
 20
85.6756446197
 10
266.2541354308
 20
85.4489609881
 10
266.9363432657
 20
85.1209160934
 10
267.561471572
 20
84.6940065553
 10
268.1247627458
 20
84.1714814133
 10
268.6219298012
 20
83.5573173991
 10
269.0491889966
 20
82.8561886717
 10
269.4032886316
 20
82.0734312442
 10
269.6815337941
 20
81.2150023731
 10
269.8818068705
 20
80.2874352205
 10
270.0025836618
 20
79.2977891325
 10
270.0429449835
 20
78.2535959134
 10
270.0429449835
 20
78.2535959134
  0
SPLINE
  5
222
330
1F
100
AcDbEntity
  8
0
  6
Continuous
 62
     7
370
    25
100
AcDbSpline
210
0.0
220
0.0
230
1.0
 70
     8
 71
     3
 72
    37
 73
    33
 74
     0
 42
0.000000001
 43
0.00000001
 40
0.0
 40
0.0
 40
0.0
 40
0.0
 40
0.000009962527717
 40
0.029416840096894
 40
0.059303200262633
 40
0.0866556940846767
 40
0.1144455290128391
 40
0.1424623732070409
 40
0.1709533718950183
 40
0.2224954909910688
 40
0.2752572781550479
 40
0.3245866334950811
 40
0.3749739412202974
 40
0.4243096165481472
 40
0.4752775894435285
 40
0.5273829527805329
 40
0.5804914617636732
 40
0.6079886727046331
 40
0.6358482546330517
 40
0.6638896035911199
 40
0.6923017307161728
 40
0.7210395257699415
 40
0.7501731742356421
 40
0.7795071191814913
 40
0.8092523946765452
 40
0.8385084067067602
 40
0.8681858185218461
 40
0.8980782717937128
 40
0.9284156109362444
 40
0.9574171984133949
 40
0.9868582762509459
 40
1.0
 40
1.0
 40
1.0
 40
1.0
 10
254.5390454484287
 20
88.27799470670477
 30
0.0
 10
254.5390474015921
 20
88.27798423294621
 30
0.0
 10
254.544814601982
 20
88.24705785664368
 30
0.0
 10
254.5421345841028
 20
88.18427426039293
 30
0.0
 10
254.5294284810061
 20
88.0929286305783
 30
0.0
 10
254.4999055223083
 20
88.00390535246666
 30
0.0
 10
254.4571748834342
 20
87.91798287961075
 30
0.0
 10
254.3991377242736
 20
87.8325860173062
 30
0.0
 10
254.3062509182263
 20
87.72614610287962
 30
0.0
 10
254.160492245706
 20
87.60178385414672
 30
0.0
 10
253.9488769226426
 20
87.47205059525528
 30
0.0
 10
253.7035988414526
 20
87.36097711046278
 30
0.0
 10
253.4371519369256
 20
87.27241415561234
 30
0.0
 10
253.1488449136865
 20
87.20580497525332
 30
0.0
 10
252.8458736132091
 20
87.16369908540005
 30
0.0
 10
252.5317472093307
 20
87.1485511270181
 30
0.0
 10
252.2682355701126
 20
87.16060597651057
 30
0.0
 10
252.0592457162696
 20
87.18604082759235
 30
0.0
 10
251.9027107536203
 20
87.21375693402709
 30
0.0
 10
251.7497324200474
 20
87.24998552746172
 30
0.0
 10
251.6014797580898
 20
87.29478587777254
 30
0.0
 10
251.4587541778045
 20
87.34831301278847
 30
0.0
 10
251.3230332584424
 20
87.41043264525163
 30
0.0
 10
251.1953773120869
 20
87.48106140189711
 30
0.0
 10
251.0781680021417
 20
87.5591889039525
 30
0.0
 10
250.9720072033515
 20
87.64446982289112
 30
0.0
 10
250.8779305831543
 20
87.7361165913626
 30
0.0
 10
250.7960913131162
 20
87.83452535422265
 30
0.0
 10
250.7286829132436
 20
87.93702528466113
 30
0.0
 10
250.676943737435
 20
88.04296503983261
 30
0.0
 10
250.6443951522467
 20
88.13048959564276
 30
0.0
 10
250.6347344593977
 20
88.18365789865095
 30
0.0
 10
250.6317530173152
 20
88.20006647498471
 30
0.0
  0
LWPOLYLINE
  5
223
330
1F
100
AcDbEntity
  8
0
  6
Continuous
 62
     7
370
    25
100
AcDbPolyline
 90
       38
 70
   128
 43
0.0
 10
245.4396876124
 20
97.5306713102
 10
244.7580892828
 20
97.8583642878
 10
244.0239939328
 20
98.0850479194
 10
243.2435979766
 20
98.2086450886
 10
242.4228406986
 20
98.2282151463
 10
241.5679685574
 20
98.1436091526
 10
240.6854876461
 20
97.9554710101
 10
239.7821141772
 20
97.6652325638
 10
238.8647233684
 20
97.2751027034
 10
237.9402971177
 20
96.7880505527
 10
237.0158708669
 20
96.2077828728
 10
236.0984800581
 20
95.538715851
 10
235.1951065893
 20
94.7859414914
 10
234.312625678
 20
93.9551888613
 10
233.4577535367
 20
93.05278049
 10
232.6369962588
 20
92.0855842499
 10
231.8566003026
 20
91.0609610886
 10
231.1225049526
 20
89.9867090069
 10
230.4402971177
 20
88.8710037118
 10
229.8151688114
 20
87.7223363944
 10
229.2518776376
 20
86.5494491064
 10
228.7547105822
 20
85.3612682284
 10
228.3274513868
 20
84.1668365343
 10
227.9733517518
 20
82.9752443704
 10
227.6951065893
 20
81.7955604727
 10
227.4948335129
 20
80.636762948
 10
227.3740567216
 20
79.507670945
 10
227.3336953999
 20
78.4168775358
 10
227.3740567216
 20
77.3726843167
 10
227.4948335129
 20
76.3830382287
 10
227.6951065893
 20
75.4554710761
 10
227.9733517518
 20
74.597042205
 10
228.3274513868
 20
73.8142847775
 10
228.7547105822
 20
73.1131560501
 10
229.2518776376
 20
72.4989920359
 10
229.8151688114
 20
71.9764668939
 10
230.4402971177
 20
71.5495573558
 10
230.4409066229
 20
71.5492054387
  0
LWPOLYLINE
  5
224
330
1F
100
AcDbEntity
  8
0
  6
Continuous
 62
     7
370
    25
100
AcDbPolyline
 90
       69
 70
   128
 43
0.0
 10
269.1944168461
 20
77.5188286128
 10
269.1536955424
 20
76.478218809
 10
269.031879051
 20
75.3994713047
 10
268.8300066673
 20
74.2917895931
 10
268.5498006953
 20
73.164624024
 10
268.1936517535
 20
72.0275911768
 10
267.7645983792
 20
70.8903918146
 10
267.2663011044
 20
69.7627281216
 10
266.7030112259
 20
68.6542209267
 10
266.0795345342
 20
67.5743276225
 10
265.4011903126
 20
66.5322614779
 10
264.6737659549
 20
65.5369130337
 10
263.9034675892
 20
64.5967742521
 10
263.0968671295
 20
63.7198660656
 10
262.2608462066
 20
62.9136699455
 10
261.4025374563
 20
62.1850640731
 10
260.5292636661
 20
61.5402646567
 10
259.6484753001
 20
60.9847728975
 10
258.7676869341
 20
60.5233280554
 10
257.8944131439
 20
60.1598670151
 10
257.0361043936
 20
59.897490698
 10
256.2000834707
 20
59.7384376064
 10
255.393483011
 20
59.6840647251
 10
254.6231846453
 20
59.7348359444
 10
253.8957602876
 20
59.8903181022
 10
253.217416066
 20
60.1491846795
 10
252.5939393743
 20
60.5092271179
 10
252.0306494958
 20
60.9673736623
 10
251.532352221
 20
61.519715568
 10
251.1032988467
 20
62.1615404485
 10
250.7471499049
 20
62.8873724802
 10
250.4669439329
 20
63.6910191203
 10
250.2650715492
 20
64.5656239388
 10
250.1432550578
 20
65.5037251159
 10
250.1025337541
 20
66.4973191032
 10
250.1432550578
 20
67.5379289069
 10
250.2650715492
 20
68.6166764113
 10
250.4669439329
 20
69.7243581229
 10
250.7471499049
 20
70.8515236919
 10
251.1032988467
 20
71.9885565392
 10
251.532352221
 20
73.1257559013
 10
252.0306494958
 20
74.2534195943
 10
252.5939393743
 20
75.3619267892
 10
253.217416066
 20
76.4418200934
 10
253.8957602876
 20
77.4838862381
 10
254.6231846453
 20
78.4792346822
 10
255.393483011
 20
79.4193734638
 10
256.2000834707
 20
80.2962816504
 10
257.0361043936
 20
81.1024777704
 10
257.8944131439
 20
81.8310836428
 10
258.7676869341
 20
82.4758830593
 10
259.6484753001
 20
83.0313748184
 10
260.5292636661
 20
83.4928196605
 10
261.4025374563
 20
83.8562807008
 10
262.2608462066
 20
84.1186570179
 10
263.0968671295
 20
84.2777101095
 10
263.9034675892
 20
84.3320829908
 10
264.6737659549
 20
84.2813117715
 10
265.4011903126
 20
84.1258296138
 10
266.0795345342
 20
83.8669630365
 10
266.7030112259
 20
83.5069205981
 10
267.2663011044
 20
83.0487740536
 10
267.7645983792
 20
82.496432148
 10
268.1936517535
 20
81.8546072675
 10
268.5498006953
 20
81.1287752357
 10
268.8300066673
 20
80.3251285957
 10
269.031879051
 20
79.4505237771
 10
269.1536955424
 20
78.5124226
 10
269.1944168461
 20
77.5188286128
  0
LWPOLYLINE
  5
225
330
1F
100
AcDbEntity
  8
0
  6
Continuous
 62
     7
370
    25
100
AcDbPolyline
 90
       18
 70
   128
 43
0.0
 10
268.4873100649
 20
77.5188286128
 10
268.4469185461
 20
78.4895183579
 10
268.3260989518
 20
79.4050425916
 10
268.1259130489
 20
80.2573556541
 10
267.8481200783
 20
81.0389673875
 10
267.4951612947
 20
81.7430089599
 10
267.0701385125
 20
82.3632932285
 10
266.5767868473
 20
82.8943691128
 10
266.0194418911
 20
83.331569499
 10
265.4030016116
 20
83.6710522544
 10
264.732883308
 20
83.9098339922
 10
264.0149760041
 20
84.0458162899
 10
263.2555886951
 20
84.0778041303
 10
262.461394904
 20
84.005516403
 10
261.6393740344
 20
83.8295883752
 10
260.7967500352
 20
83.5515661088
 10
259.9409279164
 20
83.1738928733
 10
259.4685083925
 20
82.9255229826
  0
LWPOLYLINE
  5
226
330
1F
100
AcDbEntity
  8
0
  6
Continuous
 62
     7
370
    25
100
AcDbPolyline
 90
       35
 70
   128
 43
0.0
 10
250.1042012136
 20
66.7043095685
 10
250.1126371862
 20
66.413805248
 10
250.1933314345
 20
65.4696605411
 10
250.3540107871
 20
64.5847693015
 10
250.5932631882
 20
63.7669079852
 10
250.908986079
 20
63.0232639869
 10
251.2984048754
 20
62.3603724767
 10
251.7580973511
 20
61.7840589691
 10
252.2840237119
 20
61.299388128
 10
252.8715620982
 20
60.910619258
 10
253.5155492015
 20
60.6211688741
 10
254.2103256399
 20
60.4335806765
 10
254.9497856932
 20
60.3495031972
 10
255.7274309598
 20
60.369675312
 10
256.5364274651
 20
60.4939197476
 10
257.3696657188
 20
60.7211446396
 10
258.2198231931
 20
61.0493531273
 10
259.0794286736
 20
61.4756609027
 10
259.9409279164
 20
61.9963215579
 10
260.7967500352
 20
62.6067595083
 10
261.6393740344
 20
63.3016102031
 10
262.461394904
 20
64.0747672696
 10
263.2555886951
 20
64.9194361755
 10
264.0149760041
 20
65.8281939403
 10
264.732883308
 20
66.793054368
 10
265.4030016116
 20
67.8055382304
 10
266.0194418911
 20
68.8567477829
 10
266.5767868473
 20
69.9374449583
 10
267.0701385125
 20
71.0381325509
 10
267.4951612947
 20
72.1491376785
 10
267.8481200783
 20
73.2606967881
 10
268.1259130489
 20
74.3630414583
 10
268.3260989518
 20
75.4464842446
 10
268.4469185461
 20
76.5015038127
 10
268.4873100649
 20
77.5188286128
  0
ARC
  5
227
330
1F
100
AcDbEntity
  8
0
  6
Continuous
 62
     7
370
    25
100
AcDbCircle
 10
249.7923910859
 20
77.6978701641
 30
0.0
 40
22.47937215728072
100
AcDbArc
 50
122.4630096299
 51
177.5423669028
  0
LWPOLYLINE
  5
228
330
1F
100
AcDbEntity
  8
0
  6
Continuous
 62
     7
370
    25
100
AcDbPolyline
 90
       68
 70
   128
 43
0.0
 10
306.6336500898
 20
50.6420986363
 10
305.8535112754
 20
49.7690648148
 10
305.1110752968
 20
48.8352942691
 10
304.4128667082
 20
47.8489930082
 10
303.7650213916
 20
46.8188286831
 10
303.1732326351
 20
45.7538544149
 10
302.6427010995
 20
44.6634292359
 10
302.178089115
 20
43.5571358416
 10
301.7834797084
 20
42.4446963782
 10
301.4623407214
 20
41.3358870038
 10
301.2174943349
 20
40.2404519749
 10
301.0510922679
 20
39.168018014
 10
300.9645968676
 20
38.1280097093
 10
300.9587682587
 20
37.1295666911
 10
301.0336576633
 20
36.1814633127
 10
301.1886069506
 20
35.2920315405
 10
301.4222544206
 20
34.4690877331
 10
301.7325467711
 20
33.7198639501
 10
302.1167571416
 20
33.050944397
 10
302.5715090776
 20
32.4682075631
 10
303.0928062028
 20
31.9767745605
 10
303.6760673393
 20
31.5809641202
 10
304.3161667672
 20
31.2842546384
 10
305.0074792698
 20
31.0892536089
 10
305.7439295678
 20
30.9976747076
 10
306.5190457097
 20
31.0103227333
 10
307.3260159469
 20
31.1270865346
 10
308.157748596
 20
31.3469399871
 10
309.0069343604
 20
31.6679510107
 10
309.8661105652
 20
32.0872985489
 10
310.727726739
 20
32.6012973606
 10
311.5842109679
 20
33.2054304058
 10
312.4280364377
 20
33.8943885414
 10
313.2517875798
 20
34.6621171786
 10
314.0482252395
 20
35.5018694906
 10
314.8103502941
 20
36.4062657038
 10
315.5314651612
 20
37.3673579518
 10
316.2052326574
 20
38.3767001213
 10
316.8257316897
 20
39.4254220772
 10
317.3875092903
 20
40.5043076131
 10
317.8856285375
 20
41.6038754441
 10
318.3157119414
 20
42.7144625286
 10
318.6739799136
 20
43.8263089874
 10
318.9572839822
 20
44.9296438739
 10
319.163134461
 20
46.0147710413
 10
319.2897223285
 20
47.0721543531
 10
319.3359351259
 20
48.0925014868
 10
319.3013667336
 20
49.066845595
 10
319.1863209399
 20
49.9866241067
 10
318.9918087713
 20
50.8437539752
 10
318.7195396077
 20
51.6307027125
 10
318.3719061603
 20
52.3405545847
 10
317.9519634444
 20
52.9670713881
 10
317.4634019317
 20
53.5047472705
 10
316.9105151182
 20
53.9488571169
 10
316.2981617933
 20
54.295498074
 10
315.6317233399
 20
54.5416238486
 10
314.9170564431
 20
54.6850714785
 10
314.1604416213
 20
54.7245803408
 10
313.3685280328
 20
54.6598032302
 10
312.5482750426
 20
54.4913094104
 10
311.7068910636
 20
54.2205796109
 10
310.8517702084
 20
53.8499930151
 10
309.9904273097
 20
53.3828063513
 10
309.1304318801
 20
52.8231252726
 10
308.2793415902
 20
52.1758682766
 10
307.4446358521
 20
51.4467234809
 10
306.6336500898
 20
50.6420986363
  0
LWPOLYLINE
  5
229
330
1F
100
AcDbEntity
  8
0
  6
Continuous
 62
     7
370
    25
100
AcDbPolyline
 90
       33
 70
   128
 43
0.0
 10
309.3337325161
 20
44.6541520495
 10
309.7317864013
 20
45.0229264004
 10
310.145672095
 20
45.308494931
 10
310.559484202
 20
45.4998834029
 10
310.9573201551
 20
45.5897368644
 10
311.3238913418
 20
45.5746022973
 10
311.645110637
 20
45.4550613147
 10
311.9086337633
 20
45.2357078093
 10
312.1043336746
 20
44.9249714135
 10
312.2246897333
 20
44.5347935526
 10
312.2650767234
 20
44.0801685431
 10
312.2239425955
 20
43.578567369
 10
312.1028681112
 20
43.0492662822
 10
311.9065060949
 20
42.5126060267
 10
311.6424026288
 20
41.989210155
 10
311.3207070611
 20
41.4991924771
 10
310.9537819719
 20
41.0613840974
 10
310.5557280867
 20
40.6926097465
 10
310.1418423931
 20
40.4070412159
 10
309.7280302861
 20
40.215652744
 10
309.330194333
 20
40.1257992825
 10
308.9636231462
 20
40.1409338496
 10
308.6424038511
 20
40.2604748322
 10
308.3788807248
 20
40.4798283375
 10
308.1831808134
 20
40.7905647334
 10
308.0628247548
 20
41.1807425942
 10
308.0224377647
 20
41.6353676038
 10
308.0635718926
 20
42.1369687779
 10
308.1846463769
 20
42.6662698647
 10
308.3810083932
 20
43.2029301202
 10
308.6451118592
 20
43.7263259919
 10
308.966807427
 20
44.2163436698
 10
309.3337325161
 20
44.6541520495
  0
LWPOLYLINE
  5
22A
330
1F
100
AcDbEntity
  8
0
  6
Continuous
 62
     7
370
    25
100
AcDbPolyline
 90
       23
 70
   128
 43
0.0
 10
308.0305030586
 20
41.8512304346
 10
308.0353555412
 20
41.8024783161
 10
308.1222414109
 20
41.4227723177
 10
308.2871193506
 20
41.11970871
 10
308.5222798511
 20
40.9074584104
 10
308.8167270687
 20
40.795946007
 10
309.1566929788
 20
40.7903856958
 10
309.5262811534
 20
40.8910374709
 10
309.90821006
 20
41.0931949671
 10
310.2846211276
 20
41.3874055245
 10
310.637913793
 20
41.7599121846
 10
310.9515684838
 20
42.1932969498
 10
311.2109190552
 20
42.6672952302
 10
311.4038385627
 20
43.159743393
 10
311.5213063048
 20
43.6476151095
 10
311.5578296201
 20
44.1080980405
 10
311.5117007192
 20
44.5196605158
 10
311.3850765382
 20
44.8630583315
 10
311.1838778829
 20
45.1222345875
 10
310.9175125791
 20
45.2850704901
 10
310.5984355721
 20
45.3439520133
 10
310.2415665483
 20
45.2961259228
 10
309.958598354
 20
45.1911513369
  0
ENDSEC
  0
SECTION
  2
OBJECTS
  0
DICTIONARY
  5
C
330
0
100
AcDbDictionary
281
     1
  3
ACAD_GROUP
350
D
  3
ACAD_LAYOUT
350
1A
  3
ACAD_MLINESTYLE
350
17
  3
ACAD_PLOTSETTINGS
350
19
  3
ACAD_PLOTSTYLENAME
350
E
  3
ACAD_SCALELIST
350
47
  0
DICTIONARY
  5
D
102
{ACAD_REACTORS
330
C
102
}
330
C
100
AcDbDictionary
281
     1
  0
DICTIONARY
  5
1A
102
{ACAD_REACTORS
330
C
102
}
330
C
100
AcDbDictionary
281
     1
  3
Layout1
350
1E
  3
Layout2
350
26
  3
Model
350
22
  0
DICTIONARY
  5
17
102
{ACAD_REACTORS
330
C
102
}
330
C
100
AcDbDictionary
281
     1
  3
Standard
350
18
  0
DICTIONARY
  5
19
102
{ACAD_REACTORS
330
C
102
}
330
C
100
AcDbDictionary
281
     1
  0
ACDBDICTIONARYWDFLT
  5
E
102
{ACAD_REACTORS
330
C
102
}
330
C
100
AcDbDictionary
281
     1
  3
Normal
350
F
100
AcDbDictionaryWithDefault
340
F
  0
DICTIONARY
  5
47
102
{ACAD_REACTORS
330
C
102
}
330
C
100
AcDbDictionary
281
     1
  3
A0
350
48
  3
A1
350
49
  3
A2
350
4A
  3
A3
350
4B
  3
A4
350
4C
  3
A5
350
4D
  3
A6
350
4E
  3
A7
350
4F
  3
A8
350
50
  3
A9
350
51
  3
B0
350
52
  3
B1
350
53
  3
B2
350
54
  3
B3
350
55
  3
B4
350
56
  3
B5
350
57
  3
B6
350
58
  3
B7
350
59
  3
B8
350
5A
  3
B9
350
5B
  3
C0
350
5C
  3
C1
350
5D
  3
C2
350
5E
  3
C3
350
5F
  3
C4
350
60
  3
C5
350
61
  3
C6
350
62
  3
C7
350
63
  3
C8
350
64
  3
C9
350
65
  3
D0
350
66
  3
D1
350
67
  3
D2
350
68
  0
LAYOUT
  5
1E
102
{ACAD_REACTORS
330
1A
102
}
330
1A
100
AcDbPlotSettings
  1

  2
none_device
  4

  6

 40
0.0
 41
0.0
 42
0.0
 43
0.0
 44
0.0
 45
0.0
 46
0.0
 47
0.0
 48
0.0
 49
0.0
140
0.0
141
0.0
142
1.0
143
1.0
 70
   688
 72
     1
 73
     0
 74
     5
  7

 75
    16
147
1.0
148
0.0
149
0.0
100
AcDbLayout
  1
Layout1
 70
     1
 71
     1
 10
0.0
 20
0.0
 11
420.0
 21
297.0
 12
0.0
 22
0.0
 32
0.0
 14
1.0000000000E+20
 24
1.0000000000E+20
 34
1.0000000000E+20
 15
-1.0000000000E+20
 25
-1.0000000000E+20
 35
-1.0000000000E+20
146
0.0
 13
0.0
 23
0.0
 33
0.0
 16
1.0
 26
0.0
 36
0.0
 17
0.0
 27
1.0
 37
0.0
 76
     0
330
1B
  0
LAYOUT
  5
26
102
{ACAD_REACTORS
330
1A
102
}
330
1A
100
AcDbPlotSettings
  1

  2
none_device
  4

  6

 40
0.0
 41
0.0
 42
0.0
 43
0.0
 44
0.0
 45
0.0
 46
0.0
 47
0.0
 48
0.0
 49
0.0
140
0.0
141
0.0
142
1.0
143
1.0
 70
   688
 72
     1
 73
     0
 74
     5
  7

 75
    16
147
1.0
148
0.0
149
0.0
100
AcDbLayout
  1
Layout2
 70
     1
 71
     2
 10
0.0
 20
0.0
 11
0.0
 21
0.0
 12
0.0
 22
0.0
 32
0.0
 14
0.0
 24
0.0
 34
0.0
 15
0.0
 25
0.0
 35
0.0
146
0.0
 13
0.0
 23
0.0
 33
0.0
 16
1.0
 26
0.0
 36
0.0
 17
0.0
 27
1.0
 37
0.0
 76
     0
330
23
  0
LAYOUT
  5
22
102
{ACAD_REACTORS
330
1A
102
}
330
1A
100
AcDbPlotSettings
  1

  2
none_device
  4
Letter_(8.50_x_11.00_Inches)
  6

 40
6.35
 41
6.35
 42
6.35000508
 43
6.35000508
 44
215.9
 45
279.4
 46
0.0
 47
0.0
 48
0.0
 49
0.0
140
0.0
141
0.0
142
1.0
143
1.0
 70
  1712
 72
     1
 73
     0
 74
     0
  7

 75
     0
147
1.0
148
0.0
149
0.0
100
AcDbLayout
  1
Model
 70
     1
 71
     0
 10
0.0
 20
0.0
 11
431.8
 21
279.4
 12
0.0
 22
0.0
 32
0.0
 14
0.0
 24
0.0
 34
0.0
 15
431.8
 25
279.4
 35
0.0
146
0.0
 13
0.0
 23
0.0
 33
0.0
 16
1.0
 26
0.0
 36
0.0
 17
0.0
 27
1.0
 37
0.0
 76
     0
330
1F
331
29
  0
MLINESTYLE
  5
18
102
{ACAD_REACTORS
330
17
102
}
330
17
100
AcDbMlineStyle
  2
Standard
 70
     0
  3

 62
   256
 51
90.0
 52
90.0
 71
     2
 49
0.5
 62
   256
  6
BYLAYER
 49
-0.5
 62
   256
  6
BYLAYER
  0
ACDBPLACEHOLDER
  5
F
102
{ACAD_REACTORS
330
E
102
}
330
E
  0
SCALE
  5
48
102
{ACAD_REACTORS
330
47
102
}
330
47
100
AcDbScale
 70
     0
300
1:1
140
1.0
141
1.0
290
     1
  0
SCALE
  5
49
102
{ACAD_REACTORS
330
47
102
}
330
47
100
AcDbScale
 70
     0
300
1:2
140
1.0
141
2.0
290
     0
  0
SCALE
  5
4A
102
{ACAD_REACTORS
330
47
102
}
330
47
100
AcDbScale
 70
     0
300
1:4
140
1.0
141
4.0
290
     0
  0
SCALE
  5
4B
102
{ACAD_REACTORS
330
47
102
}
330
47
100
AcDbScale
 70
     0
300
1:5
140
1.0
141
5.0
290
     0
  0
SCALE
  5
4C
102
{ACAD_REACTORS
330
47
102
}
330
47
100
AcDbScale
 70
     0
300
1:8
140
1.0
141
8.0
290
     0
  0
SCALE
  5
4D
102
{ACAD_REACTORS
330
47
102
}
330
47
100
AcDbScale
 70
     0
300
1:10
140
1.0
141
10.0
290
     0
  0
SCALE
  5
4E
102
{ACAD_REACTORS
330
47
102
}
330
47
100
AcDbScale
 70
     0
300
1:16
140
1.0
141
16.0
290
     0
  0
SCALE
  5
4F
102
{ACAD_REACTORS
330
47
102
}
330
47
100
AcDbScale
 70
     0
300
1:20
140
1.0
141
20.0
290
     0
  0
SCALE
  5
50
102
{ACAD_REACTORS
330
47
102
}
330
47
100
AcDbScale
 70
     0
300
1:30
140
1.0
141
30.0
290
     0
  0
SCALE
  5
51
102
{ACAD_REACTORS
330
47
102
}
330
47
100
AcDbScale
 70
     0
300
1:40
140
1.0
141
40.0
290
     0
  0
SCALE
  5
52
102
{ACAD_REACTORS
330
47
102
}
330
47
100
AcDbScale
 70
     0
300
1:50
140
1.0
141
50.0
290
     0
  0
SCALE
  5
53
102
{ACAD_REACTORS
330
47
102
}
330
47
100
AcDbScale
 70
     0
300
1:100
140
1.0
141
100.0
290
     0
  0
SCALE
  5
54
102
{ACAD_REACTORS
330
47
102
}
330
47
100
AcDbScale
 70
     0
300
2:1
140
2.0
141
1.0
290
     0
  0
SCALE
  5
55
102
{ACAD_REACTORS
330
47
102
}
330
47
100
AcDbScale
 70
     0
300
4:1
140
4.0
141
1.0
290
     0
  0
SCALE
  5
56
102
{ACAD_REACTORS
330
47
102
}
330
47
100
AcDbScale
 70
     0
300
8:1
140
8.0
141
1.0
290
     0
  0
SCALE
  5
57
102
{ACAD_REACTORS
330
47
102
}
330
47
100
AcDbScale
 70
     0
300
10:1
140
10.0
141
1.0
290
     0
  0
SCALE
  5
58
102
{ACAD_REACTORS
330
47
102
}
330
47
100
AcDbScale
 70
     0
300
100:1
140
100.0
141
1.0
290
     0
  0
SCALE
  5
59
102
{ACAD_REACTORS
330
47
102
}
330
47
100
AcDbScale
 70
     0
300
1/128" = 1'-0"
140
0.0078125
141
12.0
290
     0
  0
SCALE
  5
5A
102
{ACAD_REACTORS
330
47
102
}
330
47
100
AcDbScale
 70
     0
300
1/64" = 1'-0"
140
0.015625
141
12.0
290
     0
  0
SCALE
  5
5B
102
{ACAD_REACTORS
330
47
102
}
330
47
100
AcDbScale
 70
     0
300
1/32" = 1'-0"
140
0.03125
141
12.0
290
     0
  0
SCALE
  5
5C
102
{ACAD_REACTORS
330
47
102
}
330
47
100
AcDbScale
 70
     0
300
1/16" = 1'-0"
140
0.0625
141
12.0
290
     0
  0
SCALE
  5
5D
102
{ACAD_REACTORS
330
47
102
}
330
47
100
AcDbScale
 70
     0
300
3/32" = 1'-0"
140
0.09375
141
12.0
290
     0
  0
SCALE
  5
5E
102
{ACAD_REACTORS
330
47
102
}
330
47
100
AcDbScale
 70
     0
300
1/8" = 1'-0"
140
0.125
141
12.0
290
     0
  0
SCALE
  5
5F
102
{ACAD_REACTORS
330
47
102
}
330
47
100
AcDbScale
 70
     0
300
3/16" = 1'-0"
140
0.1875
141
12.0
290
     0
  0
SCALE
  5
60
102
{ACAD_REACTORS
330
47
102
}
330
47
100
AcDbScale
 70
     0
300
1/4" = 1'-0"
140
0.25
141
12.0
290
     0
  0
SCALE
  5
61
102
{ACAD_REACTORS
330
47
102
}
330
47
100
AcDbScale
 70
     0
300
3/8" = 1'-0"
140
0.375
141
12.0
290
     0
  0
SCALE
  5
62
102
{ACAD_REACTORS
330
47
102
}
330
47
100
AcDbScale
 70
     0
300
1/2" = 1'-0"
140
0.5
141
12.0
290
     0
  0
SCALE
  5
63
102
{ACAD_REACTORS
330
47
102
}
330
47
100
AcDbScale
 70
     0
300
3/4" = 1'-0"
140
0.75
141
12.0
290
     0
  0
SCALE
  5
64
102
{ACAD_REACTORS
330
47
102
}
330
47
100
AcDbScale
 70
     0
300
1" = 1'-0"
140
1.0
141
12.0
290
     0
  0
SCALE
  5
65
102
{ACAD_REACTORS
330
47
102
}
330
47
100
AcDbScale
 70
     0
300
1-1/2" = 1'-0"
140
1.5
141
12.0
290
     0
  0
SCALE
  5
66
102
{ACAD_REACTORS
330
47
102
}
330
47
100
AcDbScale
 70
     0
300
3" = 1'-0"
140
3.0
141
12.0
290
     0
  0
SCALE
  5
67
102
{ACAD_REACTORS
330
47
102
}
330
47
100
AcDbScale
 70
     0
300
6" = 1'-0"
140
6.0
141
12.0
290
     0
  0
SCALE
  5
68
102
{ACAD_REACTORS
330
47
102
}
330
47
100
AcDbScale
 70
     0
300
1'-0" = 1'-0"
140
12.0
141
12.0
290
     0
  0
ENDSEC
  0
EOF
