  0
SECTION
  2
HEADER
  9
$ACADVER
  1
AC1015
  9
$ACADMAINTVER
 70
     6
  9
$DWGCODEPAGE
  3
ANSI_1252
  9
$INSBASE
 10
0.0
 20
0.0
 30
0.0
  9
$EXTMIN
 10
0.0
 20
0.0
 30
0.0
  9
$EXTMAX
 10
431.8
 20
279.4
 30
0.0
  9
$LIMMIN
 10
0.0
 20
0.0
  9
$LIMMAX
 10
431.8
 20
279.4
  9
$ORTHOMODE
 70
     0
  9
$REGENMODE
 70
     1
  9
$FILLMODE
 70
     1
  9
$QTEXTMODE
 70
     0
  9
$MIRRTEXT
 70
     1
  9
$LTSCALE
 40
1.0
  9
$ATTMODE
 70
     1
  9
$TEXTSIZE
 40
3.5
  9
$TRACEWID
 40
1.0
  9
$TEXTSTYLE
  7
Standard
  9
$CLAYER
  8
0
  9
$CELTYPE
  6
ByLayer
  9
$CECOLOR
 62
   256
  9
$CELTSCALE
 40
1.0
  9
$DISPSILH
 70
     0
  9
$DIMSCALE
 40
1.0
  9
$DIMASZ
 40
5.0
  9
$DIMEXO
 40
1.0
  9
$DIMDLI
 40
3.75
  9
$DIMRND
 40
0.0
  9
$DIMDLE
 40
0.0
  9
$DIMEXE
 40
1.0
  9
$DIMTP
 40
0.0
  9
$DIMTM
 40
0.0
  9
$DIMTXT
 40
3.0
  9
$DIMCEN
 40
2.5
  9
$DIMTSZ
 40
0.0
  9
$DIMTOL
 70
     0
  9
$DIMLIM
 70
     0
  9
$DIMTIH
 70
     1
  9
$DIMTOH
 70
     1
  9
$DIMSE1
 70
     0
  9
$DIMSE2
 70
     0
  9
$DIMTAD
 70
     1
  9
$DIMZIN
 70
     0
  9
$DIMBLK
  1

  9
$DIMASO
 70
     1
  9
$DIMSHO
 70
     1
  9
$DIMPOST
  1

  9
$DIMAPOST
  1

  9
$DIMALT
 70
     0
  9
$DIMALTD
 70
     3
  9
$DIMALTF
 40
0.0393700787
  9
$DIMLFAC
 40
1.0
  9
$DIMTOFL
 70
     1
  9
$DIMTVP
 40
0.0
  9
$DIMTIX
 70
     0
  9
$DIMSOXD
 70
     0
  9
$DIMSAH
 70
     0
  9
$DIMBLK1
  1

  9
$DIMBLK2
  1

  9
$DIMSTYLE
  2
ISO-25
  9
$DIMCLRD
 70
     0
  9
$DIMCLRE
 70
     0
  9
$DIMCLRT
 70
     0
  9
$DIMTFAC
 40
1.0
  9
$DIMGAP
 40
1.524
  9
$DIMJUST
 70
     0
  9
$DIMSD1
 70
     0
  9
$DIMSD2
 70
     0
  9
$DIMTOLJ
 70
     0
  9
$DIMTZIN
 70
     0
  9
$DIMALTZ
 70
     0
  9
$DIMALTTZ
 70
     0
  9
$DIMUPT
 70
     0
  9
$DIMDEC
 70
     2
  9
$DIMTDEC
 70
     2
  9
$DIMALTU
 70
     2
  9
$DIMALTTD
 70
     3
  9
$DIMTXSTY
  7
Standard
  9
$DIMAUNIT
 70
     0
  9
$DIMADEC
 70
     0
  9
$DIMALTRND
 40
0.0
  9
$DIMAZIN
 70
     0
  9
$DIMDSEP
 70
    44
  9
$DIMATFIT
 70
     3
  9
$DIMFRAC
 70
     0
  9
$DIMLDRBLK
  1

  9
$DIMLUNIT
 70
     2
  9
$DIMLWD
 70
    -2
  9
$DIMLWE
 70
    -2
  9
$DIMTMOVE
 70
     0
  9
$LUNITS
 70
     2
  9
$LUPREC
 70
     2
  9
$SKETCHINC
 40
1.0
  9
$FILLETRAD
 40
10.0
  9
$AUNITS
 70
     0
  9
$AUPREC
 70
     0
  9
$MENU
  1
.
  9
$ELEVATION
 40
0.0
  9
$PELEVATION
 40
0.0
  9
$THICKNESS
 40
0.0
  9
$LIMCHECK
 70
     0
  9
$CHAMFERA
 40
0.0
  9
$CHAMFERB
 40
0.0
  9
$CHAMFERC
 40
0.0
  9
$CHAMFERD
 40
0.0
  9
$SKPOLY
 70
     0
  9
$TDCREATE
 40
2459936.513891296
  9
$TDUCREATE
 40
2459936.472224629
  9
$TDUPDATE
 40
2459936.513896979
  9
$TDUUPDATE
 40
2459936.472230312
  9
$TDINDWG
 40
0.0000000116
  9
$TDUSRTIMER
 40
0.0000000116
  9
$USRTIMER
 70
     1
  9
$ANGBASE
 50
0.0
  9
$ANGDIR
 70
     0
  9
$PDMODE
 70
     0
  9
$PDSIZE
 40
-1.0
  9
$PLINEWID
 40
0.0
  9
$SPLFRAME
 70
     0
  9
$SPLINETYPE
 70
     6
  9
$SPLINESEGS
 70
     8
  9
$HANDSEED
  5
240
  9
$SURFTAB1
 70
     6
  9
$SURFTAB2
 70
     6
  9
$SURFTYPE
 70
     6
  9
$SURFU
 70
     6
  9
$SURFV
 70
     6
  9
$UCSBASE
  2

  9
$UCSNAME
  2

  9
$UCSORG
 10
0.0
 20
0.0
 30
0.0
  9
$UCSXDIR
 10
1.0
 20
0.0
 30
0.0
  9
$UCSYDIR
 10
0.0
 20
1.0
 30
0.0
  9
$UCSORTHOREF
  2

  9
$UCSORTHOVIEW
 70
     0
  9
$UCSORGTOP
 10
0.0
 20
0.0
 30
0.0
  9
$UCSORGBOTTOM
 10
0.0
 20
0.0
 30
0.0
  9
$UCSORGLEFT
 10
0.0
 20
0.0
 30
0.0
  9
$UCSORGRIGHT
 10
0.0
 20
0.0
 30
0.0
  9
$UCSORGFRONT
 10
0.0
 20
0.0
 30
0.0
  9
$UCSORGBACK
 10
0.0
 20
0.0
 30
0.0
  9
$PUCSBASE
  2

  9
$PUCSNAME
  2

  9
$PUCSORG
 10
0.0
 20
0.0
 30
0.0
  9
$PUCSXDIR
 10
1.0
 20
0.0
 30
0.0
  9
$PUCSYDIR
 10
0.0
 20
1.0
 30
0.0
  9
$PUCSORTHOREF
  2

  9
$PUCSORTHOVIEW
 70
     0
  9
$PUCSORGTOP
 10
0.0
 20
0.0
 30
0.0
  9
$PUCSORGBOTTOM
 10
0.0
 20
0.0
 30
0.0
  9
$PUCSORGLEFT
 10
0.0
 20
0.0
 30
0.0
  9
$PUCSORGRIGHT
 10
0.0
 20
0.0
 30
0.0
  9
$PUCSORGFRONT
 10
0.0
 20
0.0
 30
0.0
  9
$PUCSORGBACK
 10
0.0
 20
0.0
 30
0.0
  9
$USERI1
 70
     0
  9
$USERI2
 70
     0
  9
$USERI3
 70
     0
  9
$USERI4
 70
     0
  9
$USERI5
 70
     0
  9
$USERR1
 40
0.0
  9
$USERR2
 40
0.0
  9
$USERR3
 40
0.0
  9
$USERR4
 40
0.0
  9
$USERR5
 40
0.0
  9
$WORLDVIEW
 70
     1
  9
$SHADEDGE
 70
     3
  9
$SHADEDIF
 70
    70
  9
$TILEMODE
 70
     1
  9
$MAXACTVP
 70
    64
  9
$PINSBASE
 10
0.0
 20
0.0
 30
0.0
  9
$PLIMCHECK
 70
     0
  9
$PEXTMIN
 10
1.0000000000E+20
 20
1.0000000000E+20
 30
1.0000000000E+20
  9
$PEXTMAX
 10
-1.0000000000E+20
 20
-1.0000000000E+20
 30
-1.0000000000E+20
  9
$PLIMMIN
 10
0.0
 20
0.0
  9
$PLIMMAX
 10
420.0
 20
297.0
  9
$UNITMODE
 70
     0
  9
$VISRETAIN
 70
     1
  9
$PLINEGEN
 70
     0
  9
$PSLTSCALE
 70
     1
  9
$TREEDEPTH
 70
  3020
  9
$CMLSTYLE
  2
Standard
  9
$CMLJUST
 70
     0
  9
$CMLSCALE
 40
20.0
  9
$PROXYGRAPHICS
 70
     1
  9
$MEASUREMENT
 70
     1
  9
$CELWEIGHT
370
    -1
  9
$ENDCAPS
280
     0
  9
$JOINSTYLE
280
     0
  9
$LWDISPLAY
290
     1
  9
$INSUNITS
 70
     4
  9
$HYPERLINKBASE
  1

  9
$STYLESHEET
  1

  9
$XEDIT
290
     1
  9
$CEPSNTYPE
380
     0
  9
$PSTYLEMODE
290
     1
  9
$FINGERPRINTGUID
  2
{04f8c4de-ab3c-4127-a94c-2ddec95edbe1}
  9
$VERSIONGUID
  2
{FAEB1C32-E019-11D5-929B-00C0DF256EC4}
  9
$EXTNAMES
290
     1
  9
$PSVPSCALE
 40
0.0
  9
$OLESTARTUP
290
     0
  0
ENDSEC
  0
SECTION
  2
CLASSES
  0
CLASS
  1
ACDBDICTIONARYWDFLT
  2
AcDbDictionaryWithDefault
  3
ObjectDBX Classes
 90
        0
280
     0
281
     0
  0
CLASS
  1
VISUALSTYLE
  2
AcDbVisualStyle
  3
ObjectDBX Classes
 90
     4095
280
     0
281
     0
  0
CLASS
  1
MATERIAL
  2
AcDbMaterial
  3
ObjectDBX Classes
 90
     1153
280
     0
281
     0
  0
CLASS
  1
SCALE
  2
AcDbScale
  3
ObjectDBX Classes
 90
     1153
280
     0
281
     0
  0
CLASS
  1
TABLESTYLE
  2
AcDbTableStyle
  3
ObjectDBX Classes
 90
     4095
280
     0
281
     0
  0
CLASS
  1
MLEADERSTYLE
  2
AcDbMLeaderStyle
  3
ACDB_MLEADERSTYLE_CLASS
 90
     4095
280
     0
281
     0
  0
CLASS
  1
SUN
  2
AcDbSun
  3
SCENEOE
 90
     1153
280
     0
281
     0
  0
CLASS
  1
ACDBPLACEHOLDER
  2
AcDbPlaceHolder
  3
ObjectDBX Classes
 90
        0
280
     0
281
     0
  0
CLASS
  1
LAYOUT
  2
AcDbLayout
  3
ObjectDBX Classes
 90
        0
280
     0
281
     0
  0
ENDSEC
  0
SECTION
  2
TABLES
  0
TABLE
  2
VPORT
  5
8
330
0
100
AcDbSymbolTable
 70
     1
  0
VPORT
  5
29
330
8
100
AcDbSymbolTableRecord
100
AcDbViewportTableRecord
  2
*Active
 70
     0
 10
0.0
 20
0.0
 11
1.0
 21
1.0
 12
215.9
 22
139.7
 13
0.0
 23
0.0
 14
10.0
 24
10.0
 15
10.0
 25
10.0
 16
0.0
 26
0.0
 36
1.0
 17
0.0
 27
0.0
 37
0.0
 40
279.4
 41
1.5454545455
 42
50.0
 43
0.0
 44
0.0
 50
0.0
 51
0.0
 71
     0
 72
  2000
 73
     1
 74
     3
 75
     0
 76
     0
 77
     0
 78
     0
281
     0
 65
     1
110
0.0
120
0.0
130
0.0
111
1.0
121
0.0
131
0.0
112
0.0
122
1.0
132
0.0
 79
     0
146
0.0
  0
ENDTAB
  0
TABLE
  2
LTYPE
  5
5
330
0
100
AcDbSymbolTable
 70
     6
  0
LTYPE
  5
14
330
5
100
AcDbSymbolTableRecord
100
AcDbLinetypeTableRecord
  2
ByBlock
 70
     0
  3

 72
    65
 73
     0
 40
0.0
  0
LTYPE
  5
15
330
5
100
AcDbSymbolTableRecord
100
AcDbLinetypeTableRecord
  2
ByLayer
 70
     0
  3

 72
    65
 73
     0
 40
0.0
  0
LTYPE
  5
16
330
5
100
AcDbSymbolTableRecord
100
AcDbLinetypeTableRecord
  2
Continuous
 70
     0
  3
Solid line
 72
    65
 73
     0
 40
0.0
  0
LTYPE
  5
6E
330
5
100
AcDbSymbolTableRecord
100
AcDbLinetypeTableRecord
  2
HIDDEN
 70
     0
  3
Hidden __ __ __ __ __ __ __ __ __ __ __ __ __ __
 72
    65
 73
     2
 40
1.905
 49
1.27
 74
     0
 49
-0.635
 74
     0
  0
LTYPE
  5
6F
330
5
100
AcDbSymbolTableRecord
100
AcDbLinetypeTableRecord
  2
PHANTOM
 70
     0
  3
Phantom ______  __  __  ______  __  __  ______
 72
    65
 73
     6
 40
12.7
 49
6.35
 74
     0
 49
-1.27
 74
     0
 49
1.27
 74
     0
 49
-1.27
 74
     0
 49
1.27
 74
     0
 49
-1.27
 74
     0
  0
LTYPE
  5
70
330
5
100
AcDbSymbolTableRecord
100
AcDbLinetypeTableRecord
  2
CENTER
 70
     0
  3
Center ____ _ ____ _ ____ _ ____ _ ____ _ ____
 72
    65
 73
     4
 40
10.16
 49
6.35
 74
     0
 49
-1.27
 74
     0
 49
1.27
 74
     0
 49
-1.27
 74
     0
  0
LTYPE
  5
71
330
5
100
AcDbSymbolTableRecord
100
AcDbLinetypeTableRecord
  2
CENTERX2
 70
     0
  3
Center (2x) ________  __  ________  __  _____
 72
    65
 73
     4
 40
20.32
 49
12.7
 74
     0
 49
-2.54
 74
     0
 49
2.54
 74
     0
 49
-2.54
 74
     0
  0
LTYPE
  5
72
330
5
100
AcDbSymbolTableRecord
100
AcDbLinetypeTableRecord
  2
DOT2
 70
     0
  3
Dot (.5x) ........................................
 72
    65
 73
     2
 40
0.635
 49
0.0
 74
     0
 49
-0.635
 74
     0
  0
ENDTAB
  0
TABLE
  2
LAYER
  5
2
330
0
100
AcDbSymbolTable
 70
     1
  0
LAYER
  5
10
330
2
100
AcDbSymbolTableRecord
100
AcDbLayerTableRecord
  2
0
 70
     0
 62
     7
  6
Continuous
370
    -3
390
F
  0
ENDTAB
  0
TABLE
  2
STYLE
  5
3
330
0
100
AcDbSymbolTable
 70
     3
  0
STYLE
  5
11
330
3
100
AcDbSymbolTableRecord
100
AcDbTextStyleTableRecord
  2
Standard
 70
     0
 40
0.0
 41
1.0
 50
0.0
 71
     0
 42
3.5
  3
txt
  4

  0
STYLE
  5
94
330
3
100
AcDbSymbolTableRecord
100
AcDbTextStyleTableRecord
  2
SLDTEXTSTYLE0
 70
     0
 40
0.0
 41
0.605
 50
0.0
 71
     0
 42
3.5
  3
TXT
  4

  0
STYLE
  5
176
330
3
100
AcDbSymbolTableRecord
100
AcDbTextStyleTableRecord
  2
SLDTEXTSTYLE1
 70
     0
 40
0.0
 41
0.75
 50
0.0
 71
     0
 42
3.5
  3
TXT
  4

  0
ENDTAB
  0
TABLE
  2
VIEW
  5
6
330
0
100
AcDbSymbolTable
 70
     0
  0
ENDTAB
  0
TABLE
  2
UCS
  5
7
330
0
100
AcDbSymbolTable
 70
     0
  0
ENDTAB
  0
TABLE
  2
APPID
  5
9
330
0
100
AcDbSymbolTable
 70
     1
  0
APPID
  5
12
330
9
100
AcDbSymbolTableRecord
100
AcDbRegAppTableRecord
  2
ACAD
 70
     0
  0
ENDTAB
  0
TABLE
  2
DIMSTYLE
  5
A
330
0
100
AcDbSymbolTable
 70
     3
100
AcDbDimStyleTable
  0
DIMSTYLE
105
27
330
A
100
AcDbSymbolTableRecord
100
AcDbDimStyleTableRecord
  2
ISO-25
 70
     0
 41
2.5
 42
0.625
 43
3.75
 44
1.25
 73
     0
 74
     0
 77
     1
 78
     8
140
2.5
141
2.5
143
0.0393700787
147
0.625
171
     3
172
     1
178
     0
271
     2
272
     2
274
     3
278
    44
283
     0
284
     8
340
11
  0
DIMSTYLE
105
196
102
{ACAD_REACTORS
330
195
330
1AD
102
}
330
A
100
AcDbSymbolTableRecord
100
AcDbDimStyleTableRecord
  2
SLDDIMSTYLE0
 70
     0
 41
5.0
 44
0.0
 45
0.000000001
 73
     0
 74
     0
 77
     1
 78
    12
 79
     3
140
3.0
143
0.0393700787
147
0.75
148
0.000000001
170
     1
173
     1
178
     0
271
     2
272
     2
276
     2
284
    12
340
176
  0
DIMSTYLE
105
212
102
{ACAD_REACTORS
330
211
330
229
102
}
330
A
100
AcDbSymbolTableRecord
100
AcDbDimStyleTableRecord
  2
SLDDIMSTYLE1
 70
     0
 41
5.0
 44
0.0
 45
0.000000001
 73
     0
 74
     0
 77
     1
 78
    12
 79
     3
140
3.0
143
0.0393700787
147
0.75
148
0.000000001
170
     1
172
     1
173
     1
178
     0
271
     2
272
     2
276
     2
284
    12
289
     0
340
176
  0
ENDTAB
  0
TABLE
  2
BLOCK_RECORD
  5
1
330
0
100
AcDbSymbolTable
 70
    30
  0
BLOCK_RECORD
  5
1F
330
1
100
AcDbSymbolTableRecord
100
AcDbBlockTableRecord
  2
*Model_Space
340
22
  0
BLOCK_RECORD
  5
1B
330
1
100
AcDbSymbolTableRecord
100
AcDbBlockTableRecord
  2
*Paper_Space
340
1E
  0
BLOCK_RECORD
  5
23
330
1
100
AcDbSymbolTableRecord
100
AcDbBlockTableRecord
  2
*Paper_Space0
340
26
  0
BLOCK_RECORD
  5
73
330
1
100
AcDbSymbolTableRecord
100
AcDbBlockTableRecord
  2
Block5
340
0
102
{BLKREFS
331
175
102
}
  0
BLOCK_RECORD
  5
8A
330
1
100
AcDbSymbolTableRecord
100
AcDbBlockTableRecord
  2
SW_BLOCK_DIMENSION_0
340
0
102
{BLKREFS
331
96
102
}
  0
BLOCK_RECORD
  5
8D
330
1
100
AcDbSymbolTableRecord
100
AcDbBlockTableRecord
  2
_Origin
340
0
102
{BLKREFS
331
92
331
102
102
}
  0
BLOCK_RECORD
  5
97
330
1
100
AcDbSymbolTableRecord
100
AcDbBlockTableRecord
  2
SW_BLOCK_DIMENSION_1
340
0
102
{BLKREFS
331
9E
102
}
  0
BLOCK_RECORD
  5
9F
330
1
100
AcDbSymbolTableRecord
100
AcDbBlockTableRecord
  2
SW_BLOCK_DIMENSION_2
340
0
102
{BLKREFS
331
A6
102
}
  0
BLOCK_RECORD
  5
A7
330
1
100
AcDbSymbolTableRecord
100
AcDbBlockTableRecord
  2
SW_BLOCK_DIMENSION_3
340
0
102
{BLKREFS
331
AE
102
}
  0
BLOCK_RECORD
  5
AF
330
1
100
AcDbSymbolTableRecord
100
AcDbBlockTableRecord
  2
SW_BLOCK_DIMENSION_4
340
0
102
{BLKREFS
331
B6
102
}
  0
BLOCK_RECORD
  5
B7
330
1
100
AcDbSymbolTableRecord
100
AcDbBlockTableRecord
  2
SW_BLOCK_DIMENSION_5
340
0
102
{BLKREFS
331
BE
102
}
  0
BLOCK_RECORD
  5
BF
330
1
100
AcDbSymbolTableRecord
100
AcDbBlockTableRecord
  2
SW_BLOCK_DIMENSION_6
340
0
102
{BLKREFS
331
C6
102
}
  0
BLOCK_RECORD
  5
C7
330
1
100
AcDbSymbolTableRecord
100
AcDbBlockTableRecord
  2
SW_BLOCK_DIMENSION_7
340
0
102
{BLKREFS
331
CE
102
}
  0
BLOCK_RECORD
  5
CF
330
1
100
AcDbSymbolTableRecord
100
AcDbBlockTableRecord
  2
SW_BLOCK_DIMENSION_8
340
0
102
{BLKREFS
331
D6
102
}
  0
BLOCK_RECORD
  5
D7
330
1
100
AcDbSymbolTableRecord
100
AcDbBlockTableRecord
  2
SW_BLOCK_DIMENSION_9
340
0
102
{BLKREFS
331
DE
102
}
  0
BLOCK_RECORD
  5
DF
330
1
100
AcDbSymbolTableRecord
100
AcDbBlockTableRecord
  2
SW_BLOCK_DIMENSION_10
340
0
102
{BLKREFS
331
E6
102
}
  0
BLOCK_RECORD
  5
E7
330
1
100
AcDbSymbolTableRecord
100
AcDbBlockTableRecord
  2
SW_BLOCK_DIMENSION_11
340
0
102
{BLKREFS
331
EE
102
}
  0
BLOCK_RECORD
  5
EF
330
1
100
AcDbSymbolTableRecord
100
AcDbBlockTableRecord
  2
SW_BLOCK_DIMENSION_12
340
0
102
{BLKREFS
331
F6
102
}
  0
BLOCK_RECORD
  5
F7
330
1
100
AcDbSymbolTableRecord
100
AcDbBlockTableRecord
  2
SW_BLOCK_DIMENSION_13
340
0
102
{BLKREFS
331
FE
102
}
  0
BLOCK_RECORD
  5
FF
330
1
100
AcDbSymbolTableRecord
100
AcDbBlockTableRecord
  2
SW_BLOCK_DIMENSION_14
340
0
102
{BLKREFS
331
10E
102
}
  0
BLOCK_RECORD
  5
10F
330
1
100
AcDbSymbolTableRecord
100
AcDbBlockTableRecord
  2
SW_BLOCK_DIMENSION_15
340
0
102
{BLKREFS
331
11F
102
}
  0
BLOCK_RECORD
  5
120
330
1
100
AcDbSymbolTableRecord
100
AcDbBlockTableRecord
  2
SW_BLOCK_DIMENSION_16
340
0
102
{BLKREFS
331
130
102
}
  0
BLOCK_RECORD
  5
131
330
1
100
AcDbSymbolTableRecord
100
AcDbBlockTableRecord
  2
SW_BLOCK_DIMENSION_17
340
0
102
{BLKREFS
331
141
102
}
  0
BLOCK_RECORD
  5
142
330
1
100
AcDbSymbolTableRecord
100
AcDbBlockTableRecord
  2
SW_BLOCK_DIMENSION_18
340
0
102
{BLKREFS
331
152
102
}
  0
BLOCK_RECORD
  5
153
330
1
100
AcDbSymbolTableRecord
100
AcDbBlockTableRecord
  2
SW_BLOCK_DIMENSION_19
340
0
102
{BLKREFS
331
163
102
}
  0
BLOCK_RECORD
  5
164
330
1
100
AcDbSymbolTableRecord
100
AcDbBlockTableRecord
  2
SW_NOTE_0
340
0
102
{BLKREFS
331
169
102
}
  0
BLOCK_RECORD
  5
16A
330
1
100
AcDbSymbolTableRecord
100
AcDbBlockTableRecord
  2
SW_NOTE_0_1
340
0
102
{BLKREFS
331
16E
102
}
  0
BLOCK_RECORD
  5
179
330
1
100
AcDbSymbolTableRecord
100
AcDbBlockTableRecord
  2
SW_NOTE_0_2
340
0
102
{BLKREFS
331
180
102
}
  0
BLOCK_RECORD
  5
197
330
1
100
AcDbSymbolTableRecord
100
AcDbBlockTableRecord
  2
_D
340
0
  0
BLOCK_RECORD
  5
1AE
330
1
100
AcDbSymbolTableRecord
100
AcDbBlockTableRecord
  2
_D_1
340
0
  0
BLOCK_RECORD
  5
213
330
1
100
AcDbSymbolTableRecord
100
AcDbBlockTableRecord
  2
_D_2
340
0
  0
BLOCK_RECORD
  5
22A
330
1
100
AcDbSymbolTableRecord
100
AcDbBlockTableRecord
  2
_D_3
340
0
  0
ENDTAB
  0
ENDSEC
  0
SECTION
  2
BLOCKS
  0
BLOCK
  5
20
330
1F
100
AcDbEntity
  8
0
100
AcDbBlockBegin
  2
*Model_Space
 70
     0
 10
0.0
 20
0.0
 30
0.0
  3
*Model_Space
  1

  0
ENDBLK
  5
21
330
1F
100
AcDbEntity
  8
0
100
AcDbBlockEnd
  0
BLOCK
  5
1C
330
1B
100
AcDbEntity
 67
     1
  8
0
100
AcDbBlockBegin
  2
*Paper_Space
 70
     0
 10
0.0
 20
0.0
 30
0.0
  3
*Paper_Space
  1

  0
ENDBLK
  5
1D
330
1B
100
AcDbEntity
 67
     1
  8
0
100
AcDbBlockEnd
  0
BLOCK
  5
24
330
23
100
AcDbEntity
  8
0
100
AcDbBlockBegin
  2
*Paper_Space0
 70
     0
 10
0.0
 20
0.0
 30
0.0
  3
*Paper_Space0
  1

  0
ENDBLK
  5
25
330
23
100
AcDbEntity
  8
0
100
AcDbBlockEnd
  0
BLOCK
  5
74
330
73
100
AcDbEntity
  8
0
100
AcDbBlockBegin
  2
Block5
 70
     0
 10
0.0
 20
0.0
 30
0.0
  3
Block5
  1

  0
LINE
  5
76
330
73
100
AcDbEntity
  8
0
100
AcDbLine
 10
363.6834285714
 20
41.3579706949
 30
0.0
 11
388.6834285714
 21
41.3579706949
 31
0.0
  0
LINE
  5
77
330
73
100
AcDbEntity
  8
0
100
AcDbLine
 10
374.9034285714
 20
41.3579706949
 30
0.0
 11
374.9034285714
 21
171.3579706949
 31
0.0
  0
LINE
  5
78
330
73
100
AcDbEntity
  8
0
100
AcDbLine
 10
374.9034285714
 20
51.3579706949
 30
0.0
 11
384.9034285714
 21
51.3579706949
 31
0.0
  0
LINE
  5
79
330
73
100
AcDbEntity
  8
0
100
AcDbLine
 10
374.9034285714
 20
61.3579706949
 30
0.0
 11
384.9034285714
 21
61.3579706949
 31
0.0
  0
LINE
  5
7A
330
73
100
AcDbEntity
  8
0
100
AcDbLine
 10
374.9034285714
 20
71.3579706949
 30
0.0
 11
384.9034285714
 21
71.3579706949
 31
0.0
  0
LINE
  5
7B
330
73
100
AcDbEntity
  8
0
100
AcDbLine
 10
374.9034285714
 20
81.3579706949
 30
0.0
 11
384.9034285714
 21
81.3579706949
 31
0.0
  0
LINE
  5
7C
330
73
100
AcDbEntity
  8
0
100
AcDbLine
 10
374.9034285714
 20
91.3579706949
 30
0.0
 11
384.9034285714
 21
91.3579706949
 31
0.0
  0
LINE
  5
7D
330
73
100
AcDbEntity
  8
0
100
AcDbLine
 10
374.9034285714
 20
101.3579706949
 30
0.0
 11
384.9034285714
 21
101.3579706949
 31
0.0
  0
LINE
  5
7E
330
73
100
AcDbEntity
  8
0
100
AcDbLine
 10
374.9034285714
 20
111.3579706949
 30
0.0
 11
384.9034285714
 21
111.3579706949
 31
0.0
  0
LINE
  5
7F
330
73
100
AcDbEntity
  8
0
100
AcDbLine
 10
374.9034285714
 20
121.3579706949
 30
0.0
 11
384.9034285714
 21
121.3579706949
 31
0.0
  0
LINE
  5
80
330
73
100
AcDbEntity
  8
0
100
AcDbLine
 10
374.9034285714
 20
131.3579706949
 30
0.0
 11
384.9034285714
 21
131.3579706949
 31
0.0
  0
LINE
  5
81
330
73
100
AcDbEntity
  8
0
100
AcDbLine
 10
374.9034285714
 20
141.3579706949
 30
0.0
 11
384.9034285714
 21
141.3579706949
 31
0.0
  0
LINE
  5
82
330
73
100
AcDbEntity
  8
0
100
AcDbLine
 10
374.9034285714
 20
151.3579706949
 30
0.0
 11
384.9034285714
 21
151.3579706949
 31
0.0
  0
LINE
  5
83
330
73
100
AcDbEntity
  8
0
100
AcDbLine
 10
374.9034285714
 20
161.3579706949
 30
0.0
 11
384.9034285714
 21
161.3579706949
 31
0.0
  0
LINE
  5
84
330
73
100
AcDbEntity
  8
0
100
AcDbLine
 10
374.9034285714
 20
171.3579706949
 30
0.0
 11
384.9034285714
 21
171.3579706949
 31
0.0
  0
LINE
  5
85
330
73
100
AcDbEntity
  8
0
100
AcDbLine
 10
374.9034285714
 20
66.7579706949
 30
0.0
 11
362.9034285714
 21
66.7579706949
 31
0.0
  0
LINE
  5
86
330
73
100
AcDbEntity
  8
0
100
AcDbLine
 10
374.9034285714
 20
92.1579706949
 30
0.0
 11
362.9034285714
 21
92.1579706949
 31
0.0
  0
LINE
  5
87
330
73
100
AcDbEntity
  8
0
100
AcDbLine
 10
374.9034285714
 20
117.5579706949
 30
0.0
 11
362.9034285714
 21
117.5579706949
 31
0.0
  0
LINE
  5
88
330
73
100
AcDbEntity
  8
0
100
AcDbLine
 10
374.9034285714
 20
142.9579706949
 30
0.0
 11
362.9034285714
 21
142.9579706949
 31
0.0
  0
LINE
  5
89
330
73
100
AcDbEntity
  8
0
100
AcDbLine
 10
374.9034285714
 20
168.3579706949
 30
0.0
 11
362.9034285714
 21
168.3579706949
 31
0.0
  0
INSERT
  5
96
330
73
100
AcDbEntity
  8
0
100
AcDbBlockReference
  2
SW_BLOCK_DIMENSION_0
 10
397.2096946378
 20
38.9914197296
 30
0.0
  0
INSERT
  5
9E
330
73
100
AcDbEntity
  8
0
100
AcDbBlockReference
  2
SW_BLOCK_DIMENSION_1
 10
397.2096946378
 20
48.9914197296
 30
0.0
  0
INSERT
  5
A6
330
73
100
AcDbEntity
  8
0
100
AcDbBlockReference
  2
SW_BLOCK_DIMENSION_2
 10
397.2096946378
 20
58.9914197296
 30
0.0
  0
INSERT
  5
AE
330
73
100
AcDbEntity
  8
0
100
AcDbBlockReference
  2
SW_BLOCK_DIMENSION_3
 10
397.2096946378
 20
68.9914197296
 30
0.0
  0
INSERT
  5
B6
330
73
100
AcDbEntity
  8
0
100
AcDbBlockReference
  2
SW_BLOCK_DIMENSION_4
 10
397.2096946378
 20
78.9914197296
 30
0.0
  0
INSERT
  5
BE
330
73
100
AcDbEntity
  8
0
100
AcDbBlockReference
  2
SW_BLOCK_DIMENSION_5
 10
397.2096946378
 20
88.9914197296
 30
0.0
  0
INSERT
  5
C6
330
73
100
AcDbEntity
  8
0
100
AcDbBlockReference
  2
SW_BLOCK_DIMENSION_6
 10
397.2096946378
 20
98.9914197296
 30
0.0
  0
INSERT
  5
CE
330
73
100
AcDbEntity
  8
0
100
AcDbBlockReference
  2
SW_BLOCK_DIMENSION_7
 10
397.2096946378
 20
108.9914197296
 30
0.0
  0
INSERT
  5
D6
330
73
100
AcDbEntity
  8
0
100
AcDbBlockReference
  2
SW_BLOCK_DIMENSION_8
 10
397.2096946378
 20
118.9914197296
 30
0.0
  0
INSERT
  5
DE
330
73
100
AcDbEntity
  8
0
100
AcDbBlockReference
  2
SW_BLOCK_DIMENSION_9
 10
397.2096946378
 20
128.9914197296
 30
0.0
  0
INSERT
  5
E6
330
73
100
AcDbEntity
  8
0
100
AcDbBlockReference
  2
SW_BLOCK_DIMENSION_10
 10
397.2096946378
 20
138.9914197296
 30
0.0
  0
INSERT
  5
EE
330
73
100
AcDbEntity
  8
0
100
AcDbBlockReference
  2
SW_BLOCK_DIMENSION_11
 10
397.2096946378
 20
148.9914197296
 30
0.0
  0
INSERT
  5
F6
330
73
100
AcDbEntity
  8
0
100
AcDbBlockReference
  2
SW_BLOCK_DIMENSION_12
 10
397.2096946378
 20
158.9914197296
 30
0.0
  0
INSERT
  5
FE
330
73
100
AcDbEntity
  8
0
100
AcDbBlockReference
  2
SW_BLOCK_DIMENSION_13
 10
397.2096946378
 20
168.9914197296
 30
0.0
  0
INSERT
  5
10E
330
73
100
AcDbEntity
  8
0
100
AcDbBlockReference
  2
SW_BLOCK_DIMENSION_14
 10
341.1734707322
 20
36.1691980072
 30
0.0
  0
INSERT
  5
11F
330
73
100
AcDbEntity
  8
0
100
AcDbBlockReference
  2
SW_BLOCK_DIMENSION_15
 10
339.1802765097
 20
61.5691980072
 30
0.0
  0
INSERT
  5
130
330
73
100
AcDbEntity
  8
0
100
AcDbBlockReference
  2
SW_BLOCK_DIMENSION_16
 10
339.1802765097
 20
86.9691980072
 30
0.0
  0
INSERT
  5
141
330
73
100
AcDbEntity
  8
0
100
AcDbBlockReference
  2
SW_BLOCK_DIMENSION_17
 10
339.1802765097
 20
112.3691980072
 30
0.0
  0
INSERT
  5
152
330
73
100
AcDbEntity
  8
0
100
AcDbBlockReference
  2
SW_BLOCK_DIMENSION_18
 10
336.8284243759
 20
137.7691980072
 30
0.0
  0
INSERT
  5
163
330
73
100
AcDbEntity
  8
0
100
AcDbBlockReference
  2
SW_BLOCK_DIMENSION_19
 10
341.1734707322
 20
163.1691980072
 30
0.0
  0
INSERT
  5
169
330
73
100
AcDbEntity
  8
0
 62
     7
100
AcDbBlockReference
  2
SW_NOTE_0
 10
337.5586028241
 20
28.8175207347
 30
0.0
  0
INSERT
  5
16E
330
73
100
AcDbEntity
  8
0
 62
     7
100
AcDbBlockReference
  2
SW_NOTE_0_1
 10
393.160738319
 20
28.8175207347
 30
0.0
  0
ENDBLK
  5
75
330
73
100
AcDbEntity
  8
0
100
AcDbBlockEnd
  0
BLOCK
  5
8B
330
8A
100
AcDbEntity
  8
0
100
AcDbBlockBegin
  2
SW_BLOCK_DIMENSION_0
 70
     0
 10
0.0
 20
0.0
 30
0.0
  3
SW_BLOCK_DIMENSION_0
  1

  0
INSERT
  5
92
330
8A
100
AcDbEntity
  8
0
 62
     0
100
AcDbBlockReference
  2
_Origin
 10
-1.8
 20
2.3665509652
 30
0.0
 41
1.8
 42
1.8
 50
0.0
  0
LINE
  5
93
330
8A
100
AcDbEntity
  8
0
 62
     0
100
AcDbLine
 10
-7.5262660664
 20
2.3665509652
 30
0.0
 11
0.0
 21
2.3665509652
 31
0.0
  0
MTEXT
  5
95
330
8A
100
AcDbEntity
  8
0
 62
     0
100
AcDbMText
 10
0.0
 20
4.0927900738
 30
0.0
 40
3.175
 41
0.0
 71
     1
 72
     1
  1
0
  7
SLDTEXTSTYLE0
 73
     1
 44
1.0
  0
ENDBLK
  5
8C
330
8A
100
AcDbEntity
  8
0
100
AcDbBlockEnd
  0
BLOCK
  5
8E
330
8D
100
AcDbEntity
  8
0
100
AcDbBlockBegin
  2
_Origin
 70
     0
 10
0.0
 20
0.0
 30
0.0
  3
_Origin
  1

  0
CIRCLE
  5
90
330
8D
100
AcDbEntity
  8
0
  6
ByBlock
 62
     0
370
    -2
100
AcDbCircle
 10
0.0
 20
0.0
 30
0.0
 40
0.5
  0
LINE
  5
91
330
8D
100
AcDbEntity
  8
0
  6
ByBlock
 62
     0
370
    -2
100
AcDbLine
 10
0.0
 20
0.0
 30
0.0
 11
-1.0
 21
0.0
 31
0.0
  0
ENDBLK
  5
8F
330
8D
100
AcDbEntity
  8
0
100
AcDbBlockEnd
  0
BLOCK
  5
98
330
97
100
AcDbEntity
  8
0
100
AcDbBlockBegin
  2
SW_BLOCK_DIMENSION_1
 70
     0
 10
0.0
 20
0.0
 30
0.0
  3
SW_BLOCK_DIMENSION_1
  1

  0
SOLID
  5
9A
330
97
100
AcDbEntity
  8
0
 62
     0
100
AcDbTrace
 10
-1.8
 20
2.3665509652
 30
0.0
 11
-2.7
 21
-2.6334490348
 31
0.0
 12
-0.9
 22
-2.6334490348
 32
0.0
 13
-0.9
 23
-2.6334490348
 33
0.0
  0
LINE
  5
9B
330
97
100
AcDbEntity
  8
0
 62
     0
100
AcDbLine
 10
-11.3062660664
 20
2.3665509652
 30
0.0
 11
0.0
 21
2.3665509652
 31
0.0
  0
LINE
  5
9C
330
97
100
AcDbEntity
  8
0
 62
     0
100
AcDbLine
 10
-1.8
 20
-7.6334490348
 30
0.0
 11
-1.8
 21
2.3665509652
 31
0.0
  0
MTEXT
  5
9D
330
97
100
AcDbEntity
  8
0
 62
     0
100
AcDbMText
 10
0.0
 20
4.0927900738
 30
0.0
 40
3.175
 41
0.0
 71
     1
 72
     1
  1
10
  7
SLDTEXTSTYLE0
 73
     1
 44
1.0
  0
ENDBLK
  5
99
330
97
100
AcDbEntity
  8
0
100
AcDbBlockEnd
  0
BLOCK
  5
A0
330
9F
100
AcDbEntity
  8
0
100
AcDbBlockBegin
  2
SW_BLOCK_DIMENSION_2
 70
     0
 10
0.0
 20
0.0
 30
0.0
  3
SW_BLOCK_DIMENSION_2
  1

  0
SOLID
  5
A2
330
9F
100
AcDbEntity
  8
0
 62
     0
100
AcDbTrace
 10
-1.8
 20
2.3665509652
 30
0.0
 11
-2.7
 21
-2.6334490348
 31
0.0
 12
-0.9
 22
-2.6334490348
 32
0.0
 13
-0.9
 23
-2.6334490348
 33
0.0
  0
LINE
  5
A3
330
9F
100
AcDbEntity
  8
0
 62
     0
100
AcDbLine
 10
-11.3062660664
 20
2.3665509652
 30
0.0
 11
0.0
 21
2.3665509652
 31
0.0
  0
LINE
  5
A4
330
9F
100
AcDbEntity
  8
0
 62
     0
100
AcDbLine
 10
-1.8
 20
-7.6334490348
 30
0.0
 11
-1.8
 21
2.3665509652
 31
0.0
  0
MTEXT
  5
A5
330
9F
100
AcDbEntity
  8
0
 62
     0
100
AcDbMText
 10
0.0
 20
4.0927900738
 30
0.0
 40
3.175
 41
0.0
 71
     1
 72
     1
  1
20
  7
SLDTEXTSTYLE0
 73
     1
 44
1.0
  0
ENDBLK
  5
A1
330
9F
100
AcDbEntity
  8
0
100
AcDbBlockEnd
  0
BLOCK
  5
A8
330
A7
100
AcDbEntity
  8
0
100
AcDbBlockBegin
  2
SW_BLOCK_DIMENSION_3
 70
     0
 10
0.0
 20
0.0
 30
0.0
  3
SW_BLOCK_DIMENSION_3
  1

  0
SOLID
  5
AA
330
A7
100
AcDbEntity
  8
0
 62
     0
100
AcDbTrace
 10
-1.8
 20
2.3665509652
 30
0.0
 11
-2.7
 21
-2.6334490348
 31
0.0
 12
-0.9
 22
-2.6334490348
 32
0.0
 13
-0.9
 23
-2.6334490348
 33
0.0
  0
LINE
  5
AB
330
A7
100
AcDbEntity
  8
0
 62
     0
100
AcDbLine
 10
-11.3062660664
 20
2.3665509652
 30
0.0
 11
0.0
 21
2.3665509652
 31
0.0
  0
LINE
  5
AC
330
A7
100
AcDbEntity
  8
0
 62
     0
100
AcDbLine
 10
-1.8
 20
-7.6334490348
 30
0.0
 11
-1.8
 21
2.3665509652
 31
0.0
  0
MTEXT
  5
AD
330
A7
100
AcDbEntity
  8
0
 62
     0
100
AcDbMText
 10
0.0
 20
4.0927900738
 30
0.0
 40
3.175
 41
0.0
 71
     1
 72
     1
  1
30
  7
SLDTEXTSTYLE0
 73
     1
 44
1.0
  0
ENDBLK
  5
A9
330
A7
100
AcDbEntity
  8
0
100
AcDbBlockEnd
  0
BLOCK
  5
B0
330
AF
100
AcDbEntity
  8
0
100
AcDbBlockBegin
  2
SW_BLOCK_DIMENSION_4
 70
     0
 10
0.0
 20
0.0
 30
0.0
  3
SW_BLOCK_DIMENSION_4
  1

  0
SOLID
  5
B2
330
AF
100
AcDbEntity
  8
0
 62
     0
100
AcDbTrace
 10
-1.8
 20
2.3665509652
 30
0.0
 11
-2.7
 21
-2.6334490348
 31
0.0
 12
-0.9
 22
-2.6334490348
 32
0.0
 13
-0.9
 23
-2.6334490348
 33
0.0
  0
LINE
  5
B3
330
AF
100
AcDbEntity
  8
0
 62
     0
100
AcDbLine
 10
-11.3062660664
 20
2.3665509652
 30
0.0
 11
0.0
 21
2.3665509652
 31
0.0
  0
LINE
  5
B4
330
AF
100
AcDbEntity
  8
0
 62
     0
100
AcDbLine
 10
-1.8
 20
-7.6334490348
 30
0.0
 11
-1.8
 21
2.3665509652
 31
0.0
  0
MTEXT
  5
B5
330
AF
100
AcDbEntity
  8
0
 62
     0
100
AcDbMText
 10
0.0
 20
4.0927900738
 30
0.0
 40
3.175
 41
0.0
 71
     1
 72
     1
  1
40
  7
SLDTEXTSTYLE0
 73
     1
 44
1.0
  0
ENDBLK
  5
B1
330
AF
100
AcDbEntity
  8
0
100
AcDbBlockEnd
  0
BLOCK
  5
B8
330
B7
100
AcDbEntity
  8
0
100
AcDbBlockBegin
  2
SW_BLOCK_DIMENSION_5
 70
     0
 10
0.0
 20
0.0
 30
0.0
  3
SW_BLOCK_DIMENSION_5
  1

  0
SOLID
  5
BA
330
B7
100
AcDbEntity
  8
0
 62
     0
100
AcDbTrace
 10
-1.8
 20
2.3665509652
 30
0.0
 11
-2.7
 21
-2.6334490348
 31
0.0
 12
-0.9
 22
-2.6334490348
 32
0.0
 13
-0.9
 23
-2.6334490348
 33
0.0
  0
LINE
  5
BB
330
B7
100
AcDbEntity
  8
0
 62
     0
100
AcDbLine
 10
-11.3062660664
 20
2.3665509652
 30
0.0
 11
0.0
 21
2.3665509652
 31
0.0
  0
LINE
  5
BC
330
B7
100
AcDbEntity
  8
0
 62
     0
100
AcDbLine
 10
-1.8
 20
-7.6334490348
 30
0.0
 11
-1.8
 21
2.3665509652
 31
0.0
  0
MTEXT
  5
BD
330
B7
100
AcDbEntity
  8
0
 62
     0
100
AcDbMText
 10
0.0
 20
4.0927900738
 30
0.0
 40
3.175
 41
0.0
 71
     1
 72
     1
  1
50
  7
SLDTEXTSTYLE0
 73
     1
 44
1.0
  0
ENDBLK
  5
B9
330
B7
100
AcDbEntity
  8
0
100
AcDbBlockEnd
  0
BLOCK
  5
C0
330
BF
100
AcDbEntity
  8
0
100
AcDbBlockBegin
  2
SW_BLOCK_DIMENSION_6
 70
     0
 10
0.0
 20
0.0
 30
0.0
  3
SW_BLOCK_DIMENSION_6
  1

  0
SOLID
  5
C2
330
BF
100
AcDbEntity
  8
0
 62
     0
100
AcDbTrace
 10
-1.8
 20
2.3665509652
 30
0.0
 11
-2.7
 21
-2.6334490348
 31
0.0
 12
-0.9
 22
-2.6334490348
 32
0.0
 13
-0.9
 23
-2.6334490348
 33
0.0
  0
LINE
  5
C3
330
BF
100
AcDbEntity
  8
0
 62
     0
100
AcDbLine
 10
-11.3062660664
 20
2.3665509652
 30
0.0
 11
0.0
 21
2.3665509652
 31
0.0
  0
LINE
  5
C4
330
BF
100
AcDbEntity
  8
0
 62
     0
100
AcDbLine
 10
-1.8
 20
-7.6334490348
 30
0.0
 11
-1.8
 21
2.3665509652
 31
0.0
  0
MTEXT
  5
C5
330
BF
100
AcDbEntity
  8
0
 62
     0
100
AcDbMText
 10
0.0
 20
4.0927900738
 30
0.0
 40
3.175
 41
0.0
 71
     1
 72
     1
  1
60
  7
SLDTEXTSTYLE0
 73
     1
 44
1.0
  0
ENDBLK
  5
C1
330
BF
100
AcDbEntity
  8
0
100
AcDbBlockEnd
  0
BLOCK
  5
C8
330
C7
100
AcDbEntity
  8
0
100
AcDbBlockBegin
  2
SW_BLOCK_DIMENSION_7
 70
     0
 10
0.0
 20
0.0
 30
0.0
  3
SW_BLOCK_DIMENSION_7
  1

  0
SOLID
  5
CA
330
C7
100
AcDbEntity
  8
0
 62
     0
100
AcDbTrace
 10
-1.8
 20
2.3665509652
 30
0.0
 11
-2.7
 21
-2.6334490348
 31
0.0
 12
-0.9
 22
-2.6334490348
 32
0.0
 13
-0.9
 23
-2.6334490348
 33
0.0
  0
LINE
  5
CB
330
C7
100
AcDbEntity
  8
0
 62
     0
100
AcDbLine
 10
-11.3062660664
 20
2.3665509652
 30
0.0
 11
0.0
 21
2.3665509652
 31
0.0
  0
LINE
  5
CC
330
C7
100
AcDbEntity
  8
0
 62
     0
100
AcDbLine
 10
-1.8
 20
-7.6334490348
 30
0.0
 11
-1.8
 21
2.3665509652
 31
0.0
  0
MTEXT
  5
CD
330
C7
100
AcDbEntity
  8
0
 62
     0
100
AcDbMText
 10
0.0
 20
4.0927900738
 30
0.0
 40
3.175
 41
0.0
 71
     1
 72
     1
  1
70
  7
SLDTEXTSTYLE0
 73
     1
 44
1.0
  0
ENDBLK
  5
C9
330
C7
100
AcDbEntity
  8
0
100
AcDbBlockEnd
  0
BLOCK
  5
D0
330
CF
100
AcDbEntity
  8
0
100
AcDbBlockBegin
  2
SW_BLOCK_DIMENSION_8
 70
     0
 10
0.0
 20
0.0
 30
0.0
  3
SW_BLOCK_DIMENSION_8
  1

  0
SOLID
  5
D2
330
CF
100
AcDbEntity
  8
0
 62
     0
100
AcDbTrace
 10
-1.8
 20
2.3665509652
 30
0.0
 11
-2.7
 21
-2.6334490348
 31
0.0
 12
-0.9
 22
-2.6334490348
 32
0.0
 13
-0.9
 23
-2.6334490348
 33
0.0
  0
LINE
  5
D3
330
CF
100
AcDbEntity
  8
0
 62
     0
100
AcDbLine
 10
-11.3062660664
 20
2.3665509652
 30
0.0
 11
0.0
 21
2.3665509652
 31
0.0
  0
LINE
  5
D4
330
CF
100
AcDbEntity
  8
0
 62
     0
100
AcDbLine
 10
-1.8
 20
-7.6334490348
 30
0.0
 11
-1.8
 21
2.3665509652
 31
0.0
  0
MTEXT
  5
D5
330
CF
100
AcDbEntity
  8
0
 62
     0
100
AcDbMText
 10
0.0
 20
4.0927900738
 30
0.0
 40
3.175
 41
0.0
 71
     1
 72
     1
  1
80
  7
SLDTEXTSTYLE0
 73
     1
 44
1.0
  0
ENDBLK
  5
D1
330
CF
100
AcDbEntity
  8
0
100
AcDbBlockEnd
  0
BLOCK
  5
D8
330
D7
100
AcDbEntity
  8
0
100
AcDbBlockBegin
  2
SW_BLOCK_DIMENSION_9
 70
     0
 10
0.0
 20
0.0
 30
0.0
  3
SW_BLOCK_DIMENSION_9
  1

  0
SOLID
  5
DA
330
D7
100
AcDbEntity
  8
0
 62
     0
100
AcDbTrace
 10
-1.8
 20
2.3665509652
 30
0.0
 11
-2.7
 21
-2.6334490348
 31
0.0
 12
-0.9
 22
-2.6334490348
 32
0.0
 13
-0.9
 23
-2.6334490348
 33
0.0
  0
LINE
  5
DB
330
D7
100
AcDbEntity
  8
0
 62
     0
100
AcDbLine
 10
-11.3062660664
 20
2.3665509652
 30
0.0
 11
0.0
 21
2.3665509652
 31
0.0
  0
LINE
  5
DC
330
D7
100
AcDbEntity
  8
0
 62
     0
100
AcDbLine
 10
-1.8
 20
-7.6334490348
 30
0.0
 11
-1.8
 21
2.3665509652
 31
0.0
  0
MTEXT
  5
DD
330
D7
100
AcDbEntity
  8
0
 62
     0
100
AcDbMText
 10
0.0
 20
4.0927900738
 30
0.0
 40
3.175
 41
0.0
 71
     1
 72
     1
  1
90
  7
SLDTEXTSTYLE0
 73
     1
 44
1.0
  0
ENDBLK
  5
D9
330
D7
100
AcDbEntity
  8
0
100
AcDbBlockEnd
  0
BLOCK
  5
E0
330
DF
100
AcDbEntity
  8
0
100
AcDbBlockBegin
  2
SW_BLOCK_DIMENSION_10
 70
     0
 10
0.0
 20
0.0
 30
0.0
  3
SW_BLOCK_DIMENSION_10
  1

  0
SOLID
  5
E2
330
DF
100
AcDbEntity
  8
0
 62
     0
100
AcDbTrace
 10
-1.8
 20
2.3665509652
 30
0.0
 11
-2.7
 21
-2.6334490348
 31
0.0
 12
-0.9
 22
-2.6334490348
 32
0.0
 13
-0.9
 23
-2.6334490348
 33
0.0
  0
LINE
  5
E3
330
DF
100
AcDbEntity
  8
0
 62
     0
100
AcDbLine
 10
-11.3062660664
 20
2.3665509652
 30
0.0
 11
0.0
 21
2.3665509652
 31
0.0
  0
LINE
  5
E4
330
DF
100
AcDbEntity
  8
0
 62
     0
100
AcDbLine
 10
-1.8
 20
-7.6334490348
 30
0.0
 11
-1.8
 21
2.3665509652
 31
0.0
  0
MTEXT
  5
E5
330
DF
100
AcDbEntity
  8
0
 62
     0
100
AcDbMText
 10
0.0
 20
4.0927900738
 30
0.0
 40
3.175
 41
0.0
 71
     1
 72
     1
  1
100
  7
SLDTEXTSTYLE0
 73
     1
 44
1.0
  0
ENDBLK
  5
E1
330
DF
100
AcDbEntity
  8
0
100
AcDbBlockEnd
  0
BLOCK
  5
E8
330
E7
100
AcDbEntity
  8
0
100
AcDbBlockBegin
  2
SW_BLOCK_DIMENSION_11
 70
     0
 10
0.0
 20
0.0
 30
0.0
  3
SW_BLOCK_DIMENSION_11
  1

  0
SOLID
  5
EA
330
E7
100
AcDbEntity
  8
0
 62
     0
100
AcDbTrace
 10
-1.8
 20
2.3665509652
 30
0.0
 11
-2.7
 21
-2.6334490348
 31
0.0
 12
-0.9
 22
-2.6334490348
 32
0.0
 13
-0.9
 23
-2.6334490348
 33
0.0
  0
LINE
  5
EB
330
E7
100
AcDbEntity
  8
0
 62
     0
100
AcDbLine
 10
-11.3062660664
 20
2.3665509652
 30
0.0
 11
0.0
 21
2.3665509652
 31
0.0
  0
LINE
  5
EC
330
E7
100
AcDbEntity
  8
0
 62
     0
100
AcDbLine
 10
-1.8
 20
-7.6334490348
 30
0.0
 11
-1.8
 21
2.3665509652
 31
0.0
  0
MTEXT
  5
ED
330
E7
100
AcDbEntity
  8
0
 62
     0
100
AcDbMText
 10
0.0
 20
4.0927900738
 30
0.0
 40
3.175
 41
0.0
 71
     1
 72
     1
  1
110
  7
SLDTEXTSTYLE0
 73
     1
 44
1.0
  0
ENDBLK
  5
E9
330
E7
100
AcDbEntity
  8
0
100
AcDbBlockEnd
  0
BLOCK
  5
F0
330
EF
100
AcDbEntity
  8
0
100
AcDbBlockBegin
  2
SW_BLOCK_DIMENSION_12
 70
     0
 10
0.0
 20
0.0
 30
0.0
  3
SW_BLOCK_DIMENSION_12
  1

  0
SOLID
  5
F2
330
EF
100
AcDbEntity
  8
0
 62
     0
100
AcDbTrace
 10
-1.8
 20
2.3665509652
 30
0.0
 11
-2.7
 21
-2.6334490348
 31
0.0
 12
-0.9
 22
-2.6334490348
 32
0.0
 13
-0.9
 23
-2.6334490348
 33
0.0
  0
LINE
  5
F3
330
EF
100
AcDbEntity
  8
0
 62
     0
100
AcDbLine
 10
-11.3062660664
 20
2.3665509652
 30
0.0
 11
0.0
 21
2.3665509652
 31
0.0
  0
LINE
  5
F4
330
EF
100
AcDbEntity
  8
0
 62
     0
100
AcDbLine
 10
-1.8
 20
-7.6334490348
 30
0.0
 11
-1.8
 21
2.3665509652
 31
0.0
  0
MTEXT
  5
F5
330
EF
100
AcDbEntity
  8
0
 62
     0
100
AcDbMText
 10
0.0
 20
4.0927900738
 30
0.0
 40
3.175
 41
0.0
 71
     1
 72
     1
  1
120
  7
SLDTEXTSTYLE0
 73
     1
 44
1.0
  0
ENDBLK
  5
F1
330
EF
100
AcDbEntity
  8
0
100
AcDbBlockEnd
  0
BLOCK
  5
F8
330
F7
100
AcDbEntity
  8
0
100
AcDbBlockBegin
  2
SW_BLOCK_DIMENSION_13
 70
     0
 10
0.0
 20
0.0
 30
0.0
  3
SW_BLOCK_DIMENSION_13
  1

  0
SOLID
  5
FA
330
F7
100
AcDbEntity
  8
0
 62
     0
100
AcDbTrace
 10
-1.8
 20
2.3665509652
 30
0.0
 11
-2.7
 21
-2.6334490348
 31
0.0
 12
-0.9
 22
-2.6334490348
 32
0.0
 13
-0.9
 23
-2.6334490348
 33
0.0
  0
LINE
  5
FB
330
F7
100
AcDbEntity
  8
0
 62
     0
100
AcDbLine
 10
-11.3062660664
 20
2.3665509652
 30
0.0
 11
0.0
 21
2.3665509652
 31
0.0
  0
LINE
  5
FC
330
F7
100
AcDbEntity
  8
0
 62
     0
100
AcDbLine
 10
-1.8
 20
-7.6334490348
 30
0.0
 11
-1.8
 21
2.3665509652
 31
0.0
  0
MTEXT
  5
FD
330
F7
100
AcDbEntity
  8
0
 62
     0
100
AcDbMText
 10
0.0
 20
4.0927900738
 30
0.0
 40
3.175
 41
0.0
 71
     1
 72
     1
  1
130
  7
SLDTEXTSTYLE0
 73
     1
 44
1.0
  0
ENDBLK
  5
F9
330
F7
100
AcDbEntity
  8
0
100
AcDbBlockEnd
  0
BLOCK
  5
100
330
FF
100
AcDbEntity
  8
0
100
AcDbBlockBegin
  2
SW_BLOCK_DIMENSION_14
 70
     0
 10
0.0
 20
0.0
 30
0.0
  3
SW_BLOCK_DIMENSION_14
  1

  0
INSERT
  5
102
330
FF
100
AcDbEntity
  8
0
 62
     0
100
AcDbBlockReference
  2
_Origin
 10
12.7419915825
 20
5.1887726877
 30
0.0
 41
1.8
 42
1.8
 50
0.0
  0
LINE
  5
103
330
FF
100
AcDbEntity
  8
0
 62
     0
100
AcDbLine
 10
3.2925925916
 20
9.671990294
 30
0.0
 11
2.2342592711
 21
9.671990294
 31
0.0
  0
LINE
  5
104
330
FF
100
AcDbEntity
  8
0
 62
     0
100
AcDbLine
 10
2.2342592711
 20
9.671990294
 30
0.0
 11
2.2342592711
 21
4.9388883635
 31
0.0
  0
LINE
  5
105
330
FF
100
AcDbEntity
  8
0
 62
     0
100
AcDbLine
 10
2.2342592711
 20
4.9388883635
 30
0.0
 11
3.2925925916
 21
4.9388883635
 31
0.0
  0
LINE
  5
106
330
FF
100
AcDbEntity
  8
0
 62
     0
100
AcDbLine
 10
7.6493982924
 20
9.671990294
 30
0.0
 11
8.707731613
 21
9.671990294
 31
0.0
  0
LINE
  5
107
330
FF
100
AcDbEntity
  8
0
 62
     0
100
AcDbLine
 10
8.707731613
 20
9.671990294
 30
0.0
 11
8.707731613
 21
4.9388883635
 31
0.0
  0
LINE
  5
108
330
FF
100
AcDbEntity
  8
0
 62
     0
100
AcDbLine
 10
8.707731613
 20
4.9388883635
 30
0.0
 11
7.6493982924
 21
4.9388883635
 31
0.0
  0
LINE
  5
109
330
FF
100
AcDbEntity
  8
0
 62
     0
100
AcDbLine
 10
21.5099578393
 20
5.1887726877
 30
0.0
 11
10.9419915825
 21
5.1887726877
 31
0.0
  0
MTEXT
  5
10A
330
FF
100
AcDbEntity
  8
0
 62
     0
100
AcDbMText
 10
1.190625
 20
4.0927900738
 30
0.0
 40
3.175
 41
0.0
 71
     1
 72
     1
  1

  7
SLDTEXTSTYLE0
 73
     1
 44
1.0
  0
MTEXT
  5
10B
330
FF
100
AcDbEntity
  8
0
 62
     0
100
AcDbMText
 10
3.2925925916
 20
9.0316784373
 30
0.0
 40
3.175
 41
0.0
 71
     1
 72
     1
  1
0"
  7
SLDTEXTSTYLE0
 73
     1
 44
1.0
  0
MTEXT
  5
10C
330
FF
100
AcDbEntity
  8
0
 62
     0
100
AcDbMText
 10
4.2950697243
 20
4.0927898409
 30
0.0
 40
3.175
 41
0.0
 71
     1
 72
     1
  1
0
  7
SLDTEXTSTYLE0
 73
     1
 44
1.0
  0
MTEXT
  5
10D
330
FF
100
AcDbEntity
  8
0
 62
     0
100
AcDbMText
 10
10.9566905156
 20
4.0927900738
 30
0.0
 40
3.175
 41
0.0
 71
     1
 72
     1
  1

  7
SLDTEXTSTYLE0
 73
     1
 44
1.0
  0
ENDBLK
  5
101
330
FF
100
AcDbEntity
  8
0
100
AcDbBlockEnd
  0
BLOCK
  5
110
330
10F
100
AcDbEntity
  8
0
100
AcDbBlockBegin
  2
SW_BLOCK_DIMENSION_15
 70
     0
 10
0.0
 20
0.0
 30
0.0
  3
SW_BLOCK_DIMENSION_15
  1

  0
SOLID
  5
112
330
10F
100
AcDbEntity
  8
0
 62
     0
100
AcDbTrace
 10
14.735185805
 20
5.1887726877
 30
0.0
 11
13.835185805
 21
0.1887726877
 31
0.0
 12
15.635185805
 22
0.1887726877
 32
0.0
 13
15.635185805
 23
0.1887726877
 33
0.0
  0
LINE
  5
113
330
10F
100
AcDbEntity
  8
0
 62
     0
100
AcDbLine
 10
4.2891897028
 20
9.671990294
 30
0.0
 11
3.2308563823
 21
9.671990294
 31
0.0
  0
LINE
  5
114
330
10F
100
AcDbEntity
  8
0
 62
     0
100
AcDbLine
 10
3.2308563823
 20
9.671990294
 30
0.0
 11
3.2308563823
 21
4.9388883635
 31
0.0
  0
LINE
  5
115
330
10F
100
AcDbEntity
  8
0
 62
     0
100
AcDbLine
 10
3.2308563823
 20
4.9388883635
 30
0.0
 11
4.2891897028
 21
4.9388883635
 31
0.0
  0
LINE
  5
116
330
10F
100
AcDbEntity
  8
0
 62
     0
100
AcDbLine
 10
8.6459954036
 20
9.671990294
 30
0.0
 11
9.7043287242
 21
9.671990294
 31
0.0
  0
LINE
  5
117
330
10F
100
AcDbEntity
  8
0
 62
     0
100
AcDbLine
 10
9.7043287242
 20
9.671990294
 30
0.0
 11
9.7043287242
 21
4.9388883635
 31
0.0
  0
LINE
  5
118
330
10F
100
AcDbEntity
  8
0
 62
     0
100
AcDbLine
 10
9.7043287242
 20
4.9388883635
 30
0.0
 11
8.6459954036
 21
4.9388883635
 31
0.0
  0
LINE
  5
119
330
10F
100
AcDbEntity
  8
0
 62
     0
100
AcDbLine
 10
22.7231520617
 20
5.1887726877
 30
0.0
 11
12.935185805
 21
5.1887726877
 31
0.0
  0
LINE
  5
11A
330
10F
100
AcDbEntity
  8
0
 62
     0
100
AcDbLine
 10
14.735185805
 20
-20.2112273123
 30
0.0
 11
14.735185805
 21
5.1887726877
 31
0.0
  0
MTEXT
  5
11B
330
10F
100
AcDbEntity
  8
0
 62
     0
100
AcDbMText
 10
1.190625
 20
4.0927900738
 30
0.0
 40
3.175
 41
0.0
 71
     1
 72
     1
  1

  7
SLDTEXTSTYLE0
 73
     1
 44
1.0
  0
MTEXT
  5
11C
330
10F
100
AcDbEntity
  8
0
 62
     0
100
AcDbMText
 10
4.2891897028
 20
9.0316784373
 30
0.0
 40
3.175
 41
0.0
 71
     1
 72
     1
  1
1"
  7
SLDTEXTSTYLE0
 73
     1
 44
1.0
  0
MTEXT
  5
11D
330
10F
100
AcDbEntity
  8
0
 62
     0
100
AcDbMText
 10
1.1759259505
 20
4.0927898409
 30
0.0
 40
3.175
 41
0.0
 71
     1
 72
     1
  1
25,40
  7
SLDTEXTSTYLE0
 73
     1
 44
1.0
  0
MTEXT
  5
11E
330
10F
100
AcDbEntity
  8
0
 62
     0
100
AcDbMText
 10
12.949884738
 20
4.0927900738
 30
0.0
 40
3.175
 41
0.0
 71
     1
 72
     1
  1

  7
SLDTEXTSTYLE0
 73
     1
 44
1.0
  0
ENDBLK
  5
111
330
10F
100
AcDbEntity
  8
0
100
AcDbBlockEnd
  0
BLOCK
  5
121
330
120
100
AcDbEntity
  8
0
100
AcDbBlockBegin
  2
SW_BLOCK_DIMENSION_16
 70
     0
 10
0.0
 20
0.0
 30
0.0
  3
SW_BLOCK_DIMENSION_16
  1

  0
SOLID
  5
123
330
120
100
AcDbEntity
  8
0
 62
     0
100
AcDbTrace
 10
14.735185805
 20
5.1887726877
 30
0.0
 11
13.835185805
 21
0.1887726877
 31
0.0
 12
15.635185805
 22
0.1887726877
 32
0.0
 13
15.635185805
 23
0.1887726877
 33
0.0
  0
LINE
  5
124
330
120
100
AcDbEntity
  8
0
 62
     0
100
AcDbLine
 10
4.2891897028
 20
9.671990294
 30
0.0
 11
3.2308563823
 21
9.671990294
 31
0.0
  0
LINE
  5
125
330
120
100
AcDbEntity
  8
0
 62
     0
100
AcDbLine
 10
3.2308563823
 20
9.671990294
 30
0.0
 11
3.2308563823
 21
4.9388883635
 31
0.0
  0
LINE
  5
126
330
120
100
AcDbEntity
  8
0
 62
     0
100
AcDbLine
 10
3.2308563823
 20
4.9388883635
 30
0.0
 11
4.2891897028
 21
4.9388883635
 31
0.0
  0
LINE
  5
127
330
120
100
AcDbEntity
  8
0
 62
     0
100
AcDbLine
 10
8.6459954036
 20
9.671990294
 30
0.0
 11
9.7043287242
 21
9.671990294
 31
0.0
  0
LINE
  5
128
330
120
100
AcDbEntity
  8
0
 62
     0
100
AcDbLine
 10
9.7043287242
 20
9.671990294
 30
0.0
 11
9.7043287242
 21
4.9388883635
 31
0.0
  0
LINE
  5
129
330
120
100
AcDbEntity
  8
0
 62
     0
100
AcDbLine
 10
9.7043287242
 20
4.9388883635
 30
0.0
 11
8.6459954036
 21
4.9388883635
 31
0.0
  0
LINE
  5
12A
330
120
100
AcDbEntity
  8
0
 62
     0
100
AcDbLine
 10
22.7231520617
 20
5.1887726877
 30
0.0
 11
12.935185805
 21
5.1887726877
 31
0.0
  0
LINE
  5
12B
330
120
100
AcDbEntity
  8
0
 62
     0
100
AcDbLine
 10
14.735185805
 20
-20.2112273123
 30
0.0
 11
14.735185805
 21
5.1887726877
 31
0.0
  0
MTEXT
  5
12C
330
120
100
AcDbEntity
  8
0
 62
     0
100
AcDbMText
 10
1.190625
 20
4.0927900738
 30
0.0
 40
3.175
 41
0.0
 71
     1
 72
     1
  1

  7
SLDTEXTSTYLE0
 73
     1
 44
1.0
  0
MTEXT
  5
12D
330
120
100
AcDbEntity
  8
0
 62
     0
100
AcDbMText
 10
4.2891897028
 20
9.0316784373
 30
0.0
 40
3.175
 41
0.0
 71
     1
 72
     1
  1
2"
  7
SLDTEXTSTYLE0
 73
     1
 44
1.0
  0
MTEXT
  5
12E
330
120
100
AcDbEntity
  8
0
 62
     0
100
AcDbMText
 10
1.1759259505
 20
4.0927898409
 30
0.0
 40
3.175
 41
0.0
 71
     1
 72
     1
  1
50,80
  7
SLDTEXTSTYLE0
 73
     1
 44
1.0
  0
MTEXT
  5
12F
330
120
100
AcDbEntity
  8
0
 62
     0
100
AcDbMText
 10
12.949884738
 20
4.0927900738
 30
0.0
 40
3.175
 41
0.0
 71
     1
 72
     1
  1

  7
SLDTEXTSTYLE0
 73
     1
 44
1.0
  0
ENDBLK
  5
122
330
120
100
AcDbEntity
  8
0
100
AcDbBlockEnd
  0
BLOCK
  5
132
330
131
100
AcDbEntity
  8
0
100
AcDbBlockBegin
  2
SW_BLOCK_DIMENSION_17
 70
     0
 10
0.0
 20
0.0
 30
0.0
  3
SW_BLOCK_DIMENSION_17
  1

  0
SOLID
  5
134
330
131
100
AcDbEntity
  8
0
 62
     0
100
AcDbTrace
 10
14.735185805
 20
5.1887726877
 30
0.0
 11
13.835185805
 21
0.1887726877
 31
0.0
 12
15.635185805
 22
0.1887726877
 32
0.0
 13
15.635185805
 23
0.1887726877
 33
0.0
  0
LINE
  5
135
330
131
100
AcDbEntity
  8
0
 62
     0
100
AcDbLine
 10
4.2891897028
 20
9.671990294
 30
0.0
 11
3.2308563823
 21
9.671990294
 31
0.0
  0
LINE
  5
136
330
131
100
AcDbEntity
  8
0
 62
     0
100
AcDbLine
 10
3.2308563823
 20
9.671990294
 30
0.0
 11
3.2308563823
 21
4.9388883635
 31
0.0
  0
LINE
  5
137
330
131
100
AcDbEntity
  8
0
 62
     0
100
AcDbLine
 10
3.2308563823
 20
4.9388883635
 30
0.0
 11
4.2891897028
 21
4.9388883635
 31
0.0
  0
LINE
  5
138
330
131
100
AcDbEntity
  8
0
 62
     0
100
AcDbLine
 10
8.6459954036
 20
9.671990294
 30
0.0
 11
9.7043287242
 21
9.671990294
 31
0.0
  0
LINE
  5
139
330
131
100
AcDbEntity
  8
0
 62
     0
100
AcDbLine
 10
9.7043287242
 20
9.671990294
 30
0.0
 11
9.7043287242
 21
4.9388883635
 31
0.0
  0
LINE
  5
13A
330
131
100
AcDbEntity
  8
0
 62
     0
100
AcDbLine
 10
9.7043287242
 20
4.9388883635
 30
0.0
 11
8.6459954036
 21
4.9388883635
 31
0.0
  0
LINE
  5
13B
330
131
100
AcDbEntity
  8
0
 62
     0
100
AcDbLine
 10
22.7231520617
 20
5.1887726877
 30
0.0
 11
12.935185805
 21
5.1887726877
 31
0.0
  0
LINE
  5
13C
330
131
100
AcDbEntity
  8
0
 62
     0
100
AcDbLine
 10
14.735185805
 20
-20.2112273123
 30
0.0
 11
14.735185805
 21
5.1887726877
 31
0.0
  0
MTEXT
  5
13D
330
131
100
AcDbEntity
  8
0
 62
     0
100
AcDbMText
 10
1.190625
 20
4.0927900738
 30
0.0
 40
3.175
 41
0.0
 71
     1
 72
     1
  1

  7
SLDTEXTSTYLE0
 73
     1
 44
1.0
  0
MTEXT
  5
13E
330
131
100
AcDbEntity
  8
0
 62
     0
100
AcDbMText
 10
4.2891897028
 20
9.0316784373
 30
0.0
 40
3.175
 41
0.0
 71
     1
 72
     1
  1
3"
  7
SLDTEXTSTYLE0
 73
     1
 44
1.0
  0
MTEXT
  5
13F
330
131
100
AcDbEntity
  8
0
 62
     0
100
AcDbMText
 10
1.1759259505
 20
4.0927898409
 30
0.0
 40
3.175
 41
0.0
 71
     1
 72
     1
  1
76,20
  7
SLDTEXTSTYLE0
 73
     1
 44
1.0
  0
MTEXT
  5
140
330
131
100
AcDbEntity
  8
0
 62
     0
100
AcDbMText
 10
12.949884738
 20
4.0927900738
 30
0.0
 40
3.175
 41
0.0
 71
     1
 72
     1
  1

  7
SLDTEXTSTYLE0
 73
     1
 44
1.0
  0
ENDBLK
  5
133
330
131
100
AcDbEntity
  8
0
100
AcDbBlockEnd
  0
BLOCK
  5
143
330
142
100
AcDbEntity
  8
0
100
AcDbBlockBegin
  2
SW_BLOCK_DIMENSION_18
 70
     0
 10
0.0
 20
0.0
 30
0.0
  3
SW_BLOCK_DIMENSION_18
  1

  0
SOLID
  5
145
330
142
100
AcDbEntity
  8
0
 62
     0
100
AcDbTrace
 10
17.0870379388
 20
5.1887726877
 30
0.0
 11
16.1870379388
 21
0.1887726877
 31
0.0
 12
17.9870379388
 22
0.1887726877
 32
0.0
 13
17.9870379388
 23
0.1887726877
 33
0.0
  0
LINE
  5
146
330
142
100
AcDbEntity
  8
0
 62
     0
100
AcDbLine
 10
5.4651157698
 20
9.671990294
 30
0.0
 11
4.4067824492
 21
9.671990294
 31
0.0
  0
LINE
  5
147
330
142
100
AcDbEntity
  8
0
 62
     0
100
AcDbLine
 10
4.4067824492
 20
9.671990294
 30
0.0
 11
4.4067824492
 21
4.9388883635
 31
0.0
  0
LINE
  5
148
330
142
100
AcDbEntity
  8
0
 62
     0
100
AcDbLine
 10
4.4067824492
 20
4.9388883635
 30
0.0
 11
5.4651157698
 21
4.9388883635
 31
0.0
  0
LINE
  5
149
330
142
100
AcDbEntity
  8
0
 62
     0
100
AcDbLine
 10
9.8219214706
 20
9.671990294
 30
0.0
 11
10.8802547911
 21
9.671990294
 31
0.0
  0
LINE
  5
14A
330
142
100
AcDbEntity
  8
0
 62
     0
100
AcDbLine
 10
10.8802547911
 20
9.671990294
 30
0.0
 11
10.8802547911
 21
4.9388883635
 31
0.0
  0
LINE
  5
14B
330
142
100
AcDbEntity
  8
0
 62
     0
100
AcDbLine
 10
10.8802547911
 20
4.9388883635
 30
0.0
 11
9.8219214706
 21
4.9388883635
 31
0.0
  0
LINE
  5
14C
330
142
100
AcDbEntity
  8
0
 62
     0
100
AcDbLine
 10
25.0750041956
 20
5.1887726877
 30
0.0
 11
15.2870379388
 21
5.1887726877
 31
0.0
  0
LINE
  5
14D
330
142
100
AcDbEntity
  8
0
 62
     0
100
AcDbLine
 10
17.0870379388
 20
-20.2112273123
 30
0.0
 11
17.0870379388
 21
5.1887726877
 31
0.0
  0
MTEXT
  5
14E
330
142
100
AcDbEntity
  8
0
 62
     0
100
AcDbMText
 10
1.190625
 20
4.0927900738
 30
0.0
 40
3.175
 41
0.0
 71
     1
 72
     1
  1

  7
SLDTEXTSTYLE0
 73
     1
 44
1.0
  0
MTEXT
  5
14F
330
142
100
AcDbEntity
  8
0
 62
     0
100
AcDbMText
 10
5.4651157698
 20
9.0316784373
 30
0.0
 40
3.175
 41
0.0
 71
     1
 72
     1
  1
4"
  7
SLDTEXTSTYLE0
 73
     1
 44
1.0
  0
MTEXT
  5
150
330
142
100
AcDbEntity
  8
0
 62
     0
100
AcDbMText
 10
1.1759259505
 20
4.0927898409
 30
0.0
 40
3.175
 41
0.0
 71
     1
 72
     1
  1
101,60
  7
SLDTEXTSTYLE0
 73
     1
 44
1.0
  0
MTEXT
  5
151
330
142
100
AcDbEntity
  8
0
 62
     0
100
AcDbMText
 10
15.3017368719
 20
4.0927900738
 30
0.0
 40
3.175
 41
0.0
 71
     1
 72
     1
  1

  7
SLDTEXTSTYLE0
 73
     1
 44
1.0
  0
ENDBLK
  5
144
330
142
100
AcDbEntity
  8
0
100
AcDbBlockEnd
  0
BLOCK
  5
154
330
153
100
AcDbEntity
  8
0
100
AcDbBlockBegin
  2
SW_BLOCK_DIMENSION_19
 70
     0
 10
0.0
 20
0.0
 30
0.0
  3
SW_BLOCK_DIMENSION_19
  1

  0
SOLID
  5
156
330
153
100
AcDbEntity
  8
0
 62
     0
100
AcDbTrace
 10
12.7419915825
 20
5.1887726877
 30
0.0
 11
11.8419915825
 21
0.1887726877
 31
0.0
 12
13.6419915825
 22
0.1887726877
 32
0.0
 13
13.6419915825
 23
0.1887726877
 33
0.0
  0
LINE
  5
157
330
153
100
AcDbEntity
  8
0
 62
     0
100
AcDbLine
 10
3.2925925916
 20
9.671990294
 30
0.0
 11
2.2342592711
 21
9.671990294
 31
0.0
  0
LINE
  5
158
330
153
100
AcDbEntity
  8
0
 62
     0
100
AcDbLine
 10
2.2342592711
 20
9.671990294
 30
0.0
 11
2.2342592711
 21
4.9388883635
 31
0.0
  0
LINE
  5
159
330
153
100
AcDbEntity
  8
0
 62
     0
100
AcDbLine
 10
2.2342592711
 20
4.9388883635
 30
0.0
 11
3.2925925916
 21
4.9388883635
 31
0.0
  0
LINE
  5
15A
330
153
100
AcDbEntity
  8
0
 62
     0
100
AcDbLine
 10
7.6493982924
 20
9.671990294
 30
0.0
 11
8.707731613
 21
9.671990294
 31
0.0
  0
LINE
  5
15B
330
153
100
AcDbEntity
  8
0
 62
     0
100
AcDbLine
 10
8.707731613
 20
9.671990294
 30
0.0
 11
8.707731613
 21
4.9388883635
 31
0.0
  0
LINE
  5
15C
330
153
100
AcDbEntity
  8
0
 62
     0
100
AcDbLine
 10
8.707731613
 20
4.9388883635
 30
0.0
 11
7.6493982924
 21
4.9388883635
 31
0.0
  0
LINE
  5
15D
330
153
100
AcDbEntity
  8
0
 62
     0
100
AcDbLine
 10
20.7299578393
 20
5.1887726877
 30
0.0
 11
10.9419915825
 21
5.1887726877
 31
0.0
  0
LINE
  5
15E
330
153
100
AcDbEntity
  8
0
 62
     0
100
AcDbLine
 10
12.7419915825
 20
-20.2112273123
 30
0.0
 11
12.7419915825
 21
5.1887726877
 31
0.0
  0
MTEXT
  5
15F
330
153
100
AcDbEntity
  8
0
 62
     0
100
AcDbMText
 10
1.190625
 20
4.0927900738
 30
0.0
 40
3.175
 41
0.0
 71
     1
 72
     1
  1

  7
SLDTEXTSTYLE0
 73
     1
 44
1.0
  0
MTEXT
  5
160
330
153
100
AcDbEntity
  8
0
 62
     0
100
AcDbMText
 10
3.2925925916
 20
9.0316784373
 30
0.0
 40
3.175
 41
0.0
 71
     1
 72
     1
  1
5"
  7
SLDTEXTSTYLE0
 73
     1
 44
1.0
  0
MTEXT
  5
161
330
153
100
AcDbEntity
  8
0
 62
     0
100
AcDbMText
 10
1.9432179397
 20
4.0927898409
 30
0.0
 40
3.175
 41
0.0
 71
     1
 72
     1
  1
127
  7
SLDTEXTSTYLE0
 73
     1
 44
1.0
  0
MTEXT
  5
162
330
153
100
AcDbEntity
  8
0
 62
     0
100
AcDbMText
 10
10.9566905156
 20
4.0927900738
 30
0.0
 40
3.175
 41
0.0
 71
     1
 72
     1
  1

  7
SLDTEXTSTYLE0
 73
     1
 44
1.0
  0
ENDBLK
  5
155
330
153
100
AcDbEntity
  8
0
100
AcDbBlockEnd
  0
BLOCK
  5
165
330
164
100
AcDbEntity
  8
0
100
AcDbBlockBegin
  2
SW_NOTE_0
 70
     0
 10
0.0
 20
0.0
 30
0.0
  3
SW_NOTE_0
  1

  0
MTEXT
  5
167
330
164
100
AcDbEntity
  8
0
 62
     0
100
AcDbMText
 10
6.9453125
 20
4.7749217527
 30
0.0
 40
3.7041666667
 41
0.0
 71
     2
 72
     1
  1
(Inch)
  7
SLDTEXTSTYLE0
 73
     1
 44
1.0
  0
MTEXT
  5
168
330
164
100
AcDbEntity
  8
0
 62
     0
100
AcDbMText
 10
6.9624612493
 20
-1.1639672404
 30
0.0
 40
3.7041666667
 41
0.0
 71
     2
 72
     1
  1
mm
  7
SLDTEXTSTYLE0
 73
     1
 44
1.0
  0
ENDBLK
  5
166
330
164
100
AcDbEntity
  8
0
100
AcDbBlockEnd
  0
BLOCK
  5
16B
330
16A
100
AcDbEntity
  8
0
100
AcDbBlockBegin
  2
SW_NOTE_0_1
 70
     0
 10
0.0
 20
0.0
 30
0.0
  3
SW_NOTE_0_1
  1

  0
MTEXT
  5
16D
330
16A
100
AcDbEntity
  8
0
 62
     0
100
AcDbMText
 10
0.0
 20
4.7749217527
 30
0.0
 40
3.7041666667
 41
0.0
 71
     1
 72
     1
  1
mm
  7
SLDTEXTSTYLE0
 73
     1
 44
1.0
  0
ENDBLK
  5
16C
330
16A
100
AcDbEntity
  8
0
100
AcDbBlockEnd
  0
BLOCK
  5
17A
330
179
100
AcDbEntity
  8
0
100
AcDbBlockBegin
  2
SW_NOTE_0_2
 70
     0
 10
0.0
 20
0.0
 30
0.0
  3
SW_NOTE_0_2
  1

  0
MTEXT
  5
17C
330
179
100
AcDbEntity
  8
0
  6
Continuous
 62
     0
370
     0
100
AcDbMText
 10
20.290234375
 20
4.0927900738
 30
0.0
 40
3.175
 41
0.0
 71
     2
 72
     1
  1
ABP-Beyerle GmbH
  7
SLDTEXTSTYLE0
 73
     1
 44
1.0
  0
MTEXT
  5
17D
330
179
100
AcDbEntity
  8
0
  6
Continuous
 62
     0
370
     0
100
AcDbMText
 10
21.2512009293
 20
-0.1405432084
 30
0.0
 40
3.175
 41
0.0
 71
     2
 72
     1
  1
Im Schollengarten 24b, 76646 Bruchsal
  7
SLDTEXTSTYLE0
 73
     1
 44
1.0
  0
MTEXT
  5
17E
330
179
100
AcDbEntity
  8
0
  6
Continuous
 62
     0
370
     0
100
AcDbMText
 10
21.3320523173
 20
-4.3738764906
 30
0.0
 40
3.175
 41
0.0
 71
     2
 72
     1
  1
Tel. +49 (0)7251-9127-0, Fax. +49 (0)7251-9127-29
  7
SLDTEXTSTYLE0
 73
     1
 44
1.0
  0
MTEXT
  5
17F
330
179
100
AcDbEntity
  8
0
  6
Continuous
 62
     0
370
     0
100
AcDbMText
 10
21.5337864727
 20
-8.6072097727
 30
0.0
 40
3.175
 41
0.0
 71
     2
 72
     1
  1
info@abp-beyerle.de, www.abp-beyerle.de
  7
SLDTEXTSTYLE0
 73
     1
 44
1.0
  0
ENDBLK
  5
17B
330
179
100
AcDbEntity
  8
0
100
AcDbBlockEnd
  0
BLOCK
  5
198
330
197
100
AcDbEntity
  8
0
100
AcDbBlockBegin
  2
_D
 70
     0
 10
0.0
 20
0.0
 30
0.0
  3
_D
  1

  0
SOLID
  5
19A
330
197
100
AcDbEntity
  8
0
100
AcDbTrace
 10
280.7827061909
 20
233.3288422625
 30
0.0
 11
279.8827061909
 21
228.3288422625
 31
0.0
 12
281.6827061909
 22
228.3288422625
 32
0.0
 13
281.6827061909
 23
228.3288422625
 33
0.0
  0
SOLID
  5
19B
330
197
100
AcDbEntity
  8
0
100
AcDbTrace
 10
280.7827061909
 20
151.3288422625
 30
0.0
 11
281.6827061909
 21
156.3288422625
 31
0.0
 12
279.8827061909
 22
156.3288422625
 32
0.0
 13
279.8827061909
 23
156.3288422625
 33
0.0
  0
LINE
  5
19C
330
197
100
AcDbEntity
  8
0
100
AcDbLine
 10
268.4479137818
 20
187.505925562
 30
0.0
 11
268.4479137818
 21
186.5918630723
 31
0.0
  0
LINE
  5
19D
330
197
100
AcDbEntity
  8
0
100
AcDbLine
 10
268.4479137818
 20
186.5918630723
 30
0.0
 11
276.2941639806
 21
186.5918630723
 31
0.0
  0
LINE
  5
19E
330
197
100
AcDbEntity
  8
0
100
AcDbLine
 10
276.2941639806
 20
186.5918630723
 30
0.0
 11
276.2941639806
 21
187.505925562
 31
0.0
  0
LINE
  5
19F
330
197
100
AcDbEntity
  8
0
100
AcDbLine
 10
268.4479137818
 20
197.1517582645
 30
0.0
 11
268.4479137818
 21
198.0658207543
 31
0.0
  0
LINE
  5
1A0
330
197
100
AcDbEntity
  8
0
100
AcDbLine
 10
268.4479137818
 20
198.0658207543
 30
0.0
 11
276.2941639806
 21
198.0658207543
 31
0.0
  0
LINE
  5
1A1
330
197
100
AcDbEntity
  8
0
100
AcDbLine
 10
276.2941639806
 20
198.0658207543
 30
0.0
 11
276.2941639806
 21
197.1517582645
 31
0.0
  0
LINE
  5
1A2
330
197
100
AcDbEntity
  8
0
100
AcDbLine
 10
272.0633304846
 20
190.16217559
 30
0.0
 11
272.0633304846
 21
195.4746756458
 31
0.0
  0
LINE
  5
1A3
330
197
100
AcDbEntity
  8
0
100
AcDbLine
 10
239.2709362952
 20
233.3288422625
 30
0.0
 11
281.7827061909
 21
233.3288422625
 31
0.0
  0
LINE
  5
1A4
330
197
100
AcDbEntity
  8
0
100
AcDbLine
 10
239.2709362952
 20
151.3288422625
 30
0.0
 11
281.7827061909
 21
151.3288422625
 31
0.0
  0
LINE
  5
1A5
330
197
100
AcDbEntity
  8
0
100
AcDbLine
 10
280.7827061909
 20
233.3288422625
 30
0.0
 11
280.7827061909
 21
151.3288422625
 31
0.0
  0
MTEXT
  5
1A6
330
197
100
AcDbEntity
  8
0
100
AcDbMText
 10
276.8696696773
 20
185.6944672305
 30
0.0
 40
3.0
 41
0.0
 71
     1
 72
     1
  1

  7
SLDTEXTSTYLE1
 11
-1.414962237524464E-14
 21
1.0
 31
0.0
 73
     1
 44
1.0
  0
MTEXT
  5
1A7
330
197
100
AcDbEntity
  8
0
100
AcDbMText
 10
270.6517522499
 20
187.505925562
 30
0.0
 40
3.0
 41
0.0
 71
     1
 72
     1
  1
3
  7
SLDTEXTSTYLE1
 11
-1.414962237524464E-14
 21
1.0
 31
0.0
 73
     1
 44
1.0
  0
MTEXT
  5
1A8
330
197
100
AcDbEntity
  8
0
100
AcDbMText
 10
268.4598772364
 20
190.6017589139
 30
0.0
 40
3.0
 41
0.0
 71
     1
 72
     1
  1
15
  7
SLDTEXTSTYLE1
 11
-1.414962237524464E-14
 21
1.0
 31
0.0
 73
     1
 44
1.0
  0
MTEXT
  5
1A9
330
197
100
AcDbEntity
  8
0
100
AcDbMText
 10
272.4269605794
 20
190.6017589139
 30
0.0
 40
3.0
 41
0.0
 71
     1
 72
     1
  1
64
  7
SLDTEXTSTYLE1
 11
-1.414962237524464E-14
 21
1.0
 31
0.0
 73
     1
 44
1.0
  0
MTEXT
  5
1AA
330
197
100
AcDbEntity
  8
0
100
AcDbMText
 10
270.6517522499
 20
195.9142587369
 30
0.0
 40
3.0
 41
0.0
 71
     1
 72
     1
  1
"
  7
SLDTEXTSTYLE1
 11
-1.414962237524464E-14
 21
1.0
 31
0.0
 73
     1
 44
1.0
  0
MTEXT
  5
1AB
330
197
100
AcDbEntity
  8
0
100
AcDbMText
 10
276.9155025059
 20
190.1121754421
 30
0.0
 40
3.0
 41
0.0
 71
     1
 72
     1
  1
82
  7
SLDTEXTSTYLE1
 11
-1.414962237524464E-14
 21
1.0
 31
0.0
 73
     1
 44
1.0
  0
MTEXT
  5
1AC
330
197
100
AcDbEntity
  8
0
100
AcDbMText
 10
276.8696696773
 20
200.1048838261
 30
0.0
 40
3.0
 41
0.0
 71
     1
 72
     1
  1

  7
SLDTEXTSTYLE1
 11
-1.414962237524464E-14
 21
1.0
 31
0.0
 73
     1
 44
1.0
  0
ENDBLK
  5
199
330
197
100
AcDbEntity
  8
0
100
AcDbBlockEnd
  0
BLOCK
  5
1AF
330
1AE
100
AcDbEntity
  8
0
100
AcDbBlockBegin
  2
_D_1
 70
     0
 10
0.0
 20
0.0
 30
0.0
  3
_D_1
  1

  0
SOLID
  5
1B1
330
1AE
100
AcDbEntity
  8
0
100
AcDbTrace
 10
238.2489408656
 20
263.2426265598
 30
0.0
 11
233.2482804527
 21
264.138949847
 31
0.0
 12
233.2496039818
 22
262.3389503335
 32
0.0
 13
233.2496039818
 23
262.3389503335
 33
0.0
  0
SOLID
  5
1B2
330
1AE
100
AcDbEntity
  8
0
100
AcDbTrace
 10
102.2489408656
 20
263.1426265598
 30
0.0
 11
107.2496012785
 21
262.2463032727
 31
0.0
 12
107.2482777494
 22
264.0463027861
 32
0.0
 13
107.2482777494
 23
264.0463027861
 33
0.0
  0
LINE
  5
1B3
330
1AE
100
AcDbEntity
  8
0
100
AcDbLine
 10
165.416955771
 20
275.5238693732
 30
0.0
 11
164.5028935284
 21
275.5231972686
 31
0.0
  0
LINE
  5
1B4
330
1AE
100
AcDbEntity
  8
0
100
AcDbLine
 10
164.5028935284
 20
275.5231972686
 30
0.0
 11
164.5086628284
 21
267.6769491909
 31
0.0
  0
LINE
  5
1B5
330
1AE
100
AcDbEntity
  8
0
100
AcDbLine
 10
164.5086628284
 20
267.6769491909
 30
0.0
 11
165.4227250711
 21
267.6776212955
 31
0.0
  0
LINE
  5
1B6
330
1AE
100
AcDbEntity
  8
0
100
AcDbLine
 10
175.062785866
 20
275.5309618953
 30
0.0
 11
175.9768481087
 21
275.5316339999
 31
0.0
  0
LINE
  5
1B7
330
1AE
100
AcDbEntity
  8
0
100
AcDbLine
 10
175.9768481087
 20
275.5316339999
 30
0.0
 11
175.9826174087
 21
267.6853859222
 31
0.0
  0
LINE
  5
1B8
330
1AE
100
AcDbEntity
  8
0
100
AcDbLine
 10
175.9826174087
 20
267.6853859222
 30
0.0
 11
175.0685551661
 21
267.6847138176
 31
0.0
  0
LINE
  5
1B9
330
1AE
100
AcDbEntity
  8
0
100
AcDbLine
 10
168.0758634748
 20
271.9104067722
 30
0.0
 11
173.3883620946
 21
271.9143130212
 31
0.0
  0
LINE
  5
1BA
330
1AE
100
AcDbEntity
  8
0
100
AcDbLine
 10
238.2702010013
 20
234.3288419922
 30
0.0
 11
238.2482055717
 21
264.2426262895
 31
0.0
  0
LINE
  5
1BB
330
1AE
100
AcDbEntity
  8
0
100
AcDbLine
 10
102.2702010013
 20
234.2288419922
 30
0.0
 11
102.2482055717
 21
264.1426262895
 31
0.0
  0
LINE
  5
1BC
330
1AE
100
AcDbEntity
  8
0
100
AcDbLine
 10
238.2489408656
 20
263.2426265598
 30
0.0
 11
102.2489408656
 21
263.1426265598
 31
0.0
  0
MTEXT
  5
1BD
330
1AE
100
AcDbEntity
  8
0
100
AcDbMText
 10
163.6116903951
 20
267.1007838
 30
0.0
 40
3.0
 41
0.0
 71
     1
 72
     1
  1

  7
SLDTEXTSTYLE1
 11
0.9999997296713898
 21
0.0007352939188895996
 31
0.0
 73
     1
 44
1.0
  0
MTEXT
  5
1BE
330
1AE
100
AcDbEntity
  8
0
100
AcDbMText
 10
165.41857624
 20
273.3200315009
 30
0.0
 40
3.0
 41
0.0
 71
     1
 72
     1
  1
5
  7
SLDTEXTSTYLE1
 11
0.9999997296713898
 21
0.0007352939188895996
 31
0.0
 73
     1
 44
1.0
  0
MTEXT
  5
1BF
330
1AE
100
AcDbEntity
  8
0
100
AcDbMText
 10
168.5127970826
 20
275.5141822693
 30
0.0
 40
3.0
 41
0.0
 71
     1
 72
     1
  1
23
  7
SLDTEXTSTYLE1
 11
0.9999997296713898
 21
0.0007352939188895996
 31
0.0
 73
     1
 44
1.0
  0
MTEXT
  5
1C0
330
1AE
100
AcDbEntity
  8
0
100
AcDbMText
 10
168.5157140549
 20
271.5470999987
 30
0.0
 40
3.0
 41
0.0
 71
     1
 72
     1
  1
64
  7
SLDTEXTSTYLE1
 11
0.9999997296713898
 21
0.0007352939188895996
 31
0.0
 73
     1
 44
1.0
  0
MTEXT
  5
1C1
330
1AE
100
AcDbEntity
  8
0
100
AcDbMText
 10
173.8269071419
 20
273.3262140971
 30
0.0
 40
3.0
 41
0.0
 71
     1
 72
     1
  1
"
  7
SLDTEXTSTYLE1
 11
0.9999997296713898
 21
0.0007352939188895996
 31
0.0
 73
     1
 44
1.0
  0
MTEXT
  5
1C2
330
1AE
100
AcDbEntity
  8
0
100
AcDbMText
 10
166.921098177
 20
267.0573843471
 30
0.0
 40
3.0
 41
0.0
 71
     1
 72
     1
  1
136
  7
SLDTEXTSTYLE1
 11
0.9999997296713898
 21
0.0007352939188895996
 31
0.0
 73
     1
 44
1.0
  0
MTEXT
  5
1C3
330
1AE
100
AcDbEntity
  8
0
100
AcDbMText
 10
178.0221030952
 20
267.1113796917
 30
0.0
 40
3.0
 41
0.0
 71
     1
 72
     1
  1

  7
SLDTEXTSTYLE1
 11
0.9999997296713898
 21
0.0007352939188895996
 31
0.0
 73
     1
 44
1.0
  0
ENDBLK
  5
1B0
330
1AE
100
AcDbEntity
  8
0
100
AcDbBlockEnd
  0
BLOCK
  5
214
330
213
100
AcDbEntity
  8
0
100
AcDbBlockBegin
  2
_D_2
 70
     0
 10
0.0
 20
0.0
 30
0.0
  3
_D_2
  1

  0
SOLID
  5
216
330
213
100
AcDbEntity
  8
0
100
AcDbTrace
 10
93.3209362952
 20
51.6950020724
 30
0.0
 11
88.3209362952
 21
52.5950020724
 31
0.0
 12
88.3209362952
 22
50.7950020724
 32
0.0
 13
88.3209362952
 23
50.7950020724
 33
0.0
  0
SOLID
  5
217
330
213
100
AcDbEntity
  8
0
100
AcDbTrace
 10
111.2209362952
 20
51.6950020724
 30
0.0
 11
116.2209362952
 21
50.7950020724
 31
0.0
 12
116.2209362952
 22
52.5950020724
 32
0.0
 13
116.2209362952
 23
52.5950020724
 33
0.0
  0
LINE
  5
218
330
213
100
AcDbEntity
  8
0
100
AcDbLine
 10
98.5563527139
 20
64.9131278665
 30
0.0
 11
97.6422902242
 21
64.9131278665
 31
0.0
  0
LINE
  5
219
330
213
100
AcDbEntity
  8
0
100
AcDbLine
 10
97.6422902242
 20
64.9131278665
 30
0.0
 11
97.6422902242
 21
57.0668776677
 31
0.0
  0
LINE
  5
21A
330
213
100
AcDbEntity
  8
0
100
AcDbLine
 10
97.6422902242
 20
57.0668776677
 30
0.0
 11
98.5563527139
 21
57.0668776677
 31
0.0
  0
LINE
  5
21B
330
213
100
AcDbEntity
  8
0
100
AcDbLine
 10
105.9855194109
 20
64.9131278665
 30
0.0
 11
106.8995819006
 21
64.9131278665
 31
0.0
  0
LINE
  5
21C
330
213
100
AcDbEntity
  8
0
100
AcDbLine
 10
106.8995819006
 20
64.9131278665
 30
0.0
 11
106.8995819006
 21
57.0668776677
 31
0.0
  0
LINE
  5
21D
330
213
100
AcDbEntity
  8
0
100
AcDbLine
 10
106.8995819006
 20
57.0668776677
 30
0.0
 11
105.9855194109
 21
57.0668776677
 31
0.0
  0
LINE
  5
21E
330
213
100
AcDbEntity
  8
0
100
AcDbLine
 10
98.9959360378
 20
61.2977111637
 30
0.0
 11
104.3084360937
 21
61.2977111637
 31
0.0
  0
LINE
  5
21F
330
213
100
AcDbEntity
  8
0
100
AcDbLine
 10
93.3209362952
 20
74.8355375793
 30
0.0
 11
93.3209362952
 21
50.6950020724
 31
0.0
  0
LINE
  5
220
330
213
100
AcDbEntity
  8
0
100
AcDbLine
 10
111.2209362952
 20
74.8355375793
 30
0.0
 11
111.2209362952
 21
50.6950020724
 31
0.0
  0
LINE
  5
221
330
213
100
AcDbEntity
  8
0
100
AcDbLine
 10
93.3209362952
 20
51.6950020724
 30
0.0
 11
83.3209362952
 21
51.6950020724
 31
0.0
  0
LINE
  5
222
330
213
100
AcDbEntity
  8
0
100
AcDbLine
 10
93.3209362952
 20
51.6950020724
 30
0.0
 11
111.2209362952
 21
51.6950020724
 31
0.0
  0
LINE
  5
223
330
213
100
AcDbEntity
  8
0
100
AcDbLine
 10
111.2209362952
 20
51.6950020724
 30
0.0
 11
121.2209362952
 21
51.6950020724
 31
0.0
  0
MTEXT
  5
224
330
213
100
AcDbEntity
  8
0
100
AcDbMText
 10
99.4355193617
 20
64.901164412
 30
0.0
 40
3.0
 41
0.0
 71
     1
 72
     1
  1
45
  7
SLDTEXTSTYLE1
 73
     1
 44
1.0
  0
MTEXT
  5
225
330
213
100
AcDbEntity
  8
0
100
AcDbMText
 10
99.4355193617
 20
60.934081069
 30
0.0
 40
3.0
 41
0.0
 71
     1
 72
     1
  1
64
  7
SLDTEXTSTYLE1
 73
     1
 44
1.0
  0
MTEXT
  5
226
330
213
100
AcDbEntity
  8
0
100
AcDbMText
 10
104.7480194176
 20
62.7092893984
 30
0.0
 40
3.0
 41
0.0
 71
     1
 72
     1
  1
"
  7
SLDTEXTSTYLE1
 73
     1
 44
1.0
  0
MTEXT
  5
227
330
213
100
AcDbEntity
  8
0
100
AcDbMText
 10
95.0212484969
 20
55.5622057574
 30
0.0
 40
3.0
 41
0.0
 71
     1
 72
     1
  1
%%c
  7
SLDTEXTSTYLE1
 73
     1
 44
1.0
  0
MTEXT
  5
228
330
213
100
AcDbEntity
  8
0
100
AcDbMText
 10
99.5456233433
 20
55.5622057574
 30
0.0
 40
3.0
 41
0.0
 71
     1
 72
     1
  1
17,90
  7
SLDTEXTSTYLE1
 73
     1
 44
1.0
  0
ENDBLK
  5
215
330
213
100
AcDbEntity
  8
0
100
AcDbBlockEnd
  0
BLOCK
  5
22B
330
22A
100
AcDbEntity
  8
0
100
AcDbBlockBegin
  2
_D_3
 70
     0
 10
0.0
 20
0.0
 30
0.0
  3
_D_3
  1

  0
SOLID
  5
22D
330
22A
100
AcDbEntity
  8
0
100
AcDbTrace
 10
229.3209362952
 20
51.6950020724
 30
0.0
 11
224.3209362952
 21
52.5950020724
 31
0.0
 12
224.3209362952
 22
50.7950020724
 32
0.0
 13
224.3209362952
 23
50.7950020724
 33
0.0
  0
SOLID
  5
22E
330
22A
100
AcDbEntity
  8
0
100
AcDbTrace
 10
247.2209362952
 20
51.6950020724
 30
0.0
 11
252.2209362952
 21
50.7950020724
 31
0.0
 12
252.2209362952
 22
52.5950020724
 32
0.0
 13
252.2209362952
 23
52.5950020724
 33
0.0
  0
LINE
  5
22F
330
22A
100
AcDbEntity
  8
0
100
AcDbLine
 10
234.5563527139
 20
64.9131278665
 30
0.0
 11
233.6422902242
 21
64.9131278665
 31
0.0
  0
LINE
  5
230
330
22A
100
AcDbEntity
  8
0
100
AcDbLine
 10
233.6422902242
 20
64.9131278665
 30
0.0
 11
233.6422902242
 21
57.0668776677
 31
0.0
  0
LINE
  5
231
330
22A
100
AcDbEntity
  8
0
100
AcDbLine
 10
233.6422902242
 20
57.0668776677
 30
0.0
 11
234.5563527139
 21
57.0668776677
 31
0.0
  0
LINE
  5
232
330
22A
100
AcDbEntity
  8
0
100
AcDbLine
 10
241.9855194109
 20
64.9131278665
 30
0.0
 11
242.8995819006
 21
64.9131278665
 31
0.0
  0
LINE
  5
233
330
22A
100
AcDbEntity
  8
0
100
AcDbLine
 10
242.8995819006
 20
64.9131278665
 30
0.0
 11
242.8995819006
 21
57.0668776677
 31
0.0
  0
LINE
  5
234
330
22A
100
AcDbEntity
  8
0
100
AcDbLine
 10
242.8995819006
 20
57.0668776677
 30
0.0
 11
241.9855194109
 21
57.0668776677
 31
0.0
  0
LINE
  5
235
330
22A
100
AcDbEntity
  8
0
100
AcDbLine
 10
234.9959360378
 20
61.2977111637
 30
0.0
 11
240.3084360937
 21
61.2977111637
 31
0.0
  0
LINE
  5
236
330
22A
100
AcDbEntity
  8
0
100
AcDbLine
 10
229.3209362952
 20
74.8355375793
 30
0.0
 11
229.3209362952
 21
50.6950020724
 31
0.0
  0
LINE
  5
237
330
22A
100
AcDbEntity
  8
0
100
AcDbLine
 10
247.2209362952
 20
74.8355375793
 30
0.0
 11
247.2209362952
 21
50.6950020724
 31
0.0
  0
LINE
  5
238
330
22A
100
AcDbEntity
  8
0
100
AcDbLine
 10
229.3209362952
 20
51.6950020724
 30
0.0
 11
219.3209362952
 21
51.6950020724
 31
0.0
  0
LINE
  5
239
330
22A
100
AcDbEntity
  8
0
100
AcDbLine
 10
229.3209362952
 20
51.6950020724
 30
0.0
 11
247.2209362952
 21
51.6950020724
 31
0.0
  0
LINE
  5
23A
330
22A
100
AcDbEntity
  8
0
100
AcDbLine
 10
247.2209362952
 20
51.6950020724
 30
0.0
 11
257.2209362952
 21
51.6950020724
 31
0.0
  0
MTEXT
  5
23B
330
22A
100
AcDbEntity
  8
0
100
AcDbMText
 10
235.4355193617
 20
64.901164412
 30
0.0
 40
3.0
 41
0.0
 71
     1
 72
     1
  1
45
  7
SLDTEXTSTYLE1
 73
     1
 44
1.0
  0
MTEXT
  5
23C
330
22A
100
AcDbEntity
  8
0
100
AcDbMText
 10
235.4355193617
 20
60.934081069
 30
0.0
 40
3.0
 41
0.0
 71
     1
 72
     1
  1
64
  7
SLDTEXTSTYLE1
 73
     1
 44
1.0
  0
MTEXT
  5
23D
330
22A
100
AcDbEntity
  8
0
100
AcDbMText
 10
240.7480194176
 20
62.7092893984
 30
0.0
 40
3.0
 41
0.0
 71
     1
 72
     1
  1
"
  7
SLDTEXTSTYLE1
 73
     1
 44
1.0
  0
MTEXT
  5
23E
330
22A
100
AcDbEntity
  8
0
100
AcDbMText
 10
231.0212484969
 20
55.5622057574
 30
0.0
 40
3.0
 41
0.0
 71
     1
 72
     1
  1
%%c
  7
SLDTEXTSTYLE1
 73
     1
 44
1.0
  0
MTEXT
  5
23F
330
22A
100
AcDbEntity
  8
0
100
AcDbMText
 10
235.5456233433
 20
55.5622057574
 30
0.0
 40
3.0
 41
0.0
 71
     1
 72
     1
  1
17,90
  7
SLDTEXTSTYLE1
 73
     1
 44
1.0
  0
ENDBLK
  5
22C
330
22A
100
AcDbEntity
  8
0
100
AcDbBlockEnd
  0
ENDSEC
  0
SECTION
  2
ENTITIES
  0
LINE
  5
16F
330
1F
100
AcDbEntity
  8
0
100
AcDbLine
 10
127.4819306314
 20
27.1626886523
 30
0.0
 11
127.4819306314
 21
7.1626886523
 31
0.0
  0
LINE
  5
170
330
1F
100
AcDbEntity
  8
0
100
AcDbLine
 10
127.4819306314
 20
7.1626886523
 30
0.0
 11
231.2890403829
 21
7.1626886523
 31
0.0
  0
LINE
  5
171
330
1F
100
AcDbEntity
  8
0
100
AcDbLine
 10
231.2890403829
 20
7.1626886523
 30
0.0
 11
231.2890403829
 21
27.1626886523
 31
0.0
  0
LINE
  5
172
330
1F
100
AcDbEntity
  8
0
100
AcDbLine
 10
231.2890403829
 20
27.1626886523
 30
0.0
 11
127.4819306314
 21
27.1626886523
 31
0.0
  0
LINE
  5
173
330
1F
100
AcDbEntity
  8
0
100
AcDbLine
 10
231.2890403829
 20
17.1626886523
 30
0.0
 11
127.4819306314
 21
17.1626886523
 31
0.0
  0
LINE
  5
174
330
1F
100
AcDbEntity
  8
0
100
AcDbLine
 10
188.5336333335
 20
27.1626886523
 30
0.0
 11
188.5336333335
 21
7.1626886523
 31
0.0
  0
INSERT
  5
175
330
1F
100
AcDbEntity
  8
0
100
AcDbBlockReference
  2
Block5
 10
19.561342692
 20
-6.9223244521
 30
0.0
  0
MTEXT
  5
177
330
1F
100
AcDbEntity
  8
0
  6
Continuous
 62
     7
370
     0
100
AcDbMText
 10
402.5
 20
14.7189135832
 30
0.0
 40
6.35
 41
0.0
 71
     1
 72
     1
  1
1:1
  7
SLDTEXTSTYLE1
 73
     1
 44
1.0
  0
MTEXT
  5
178
330
1F
100
AcDbEntity
  8
0
  6
Continuous
 62
     7
370
     0
100
AcDbMText
 10
190.3749692016
 20
25.1056679674
 30
0.0
 40
4.2333333333
 41
0.0
 71
     1
 72
     1
  1
USO275R-EF
  7
SLDTEXTSTYLE1
 73
     1
 44
1.0
  0
INSERT
  5
180
330
1F
100
AcDbEntity
  8
0
  6
Continuous
 62
     7
370
     0
100
AcDbBlockReference
  2
SW_NOTE_0_2
 10
35.4202146835
 20
20.1681939512
 30
0.0
  0
MTEXT
  5
181
330
1F
100
AcDbEntity
  8
0
100
AcDbMText
 10
131.6112989967
 20
25.1056677346
 30
0.0
 40
4.2333333333
 41
0.0
 71
     1
 72
     1
  1
Artikelnummer
  7
SLDTEXTSTYLE1
 73
     1
 44
1.0
  0
MTEXT
  5
182
330
1F
100
AcDbEntity
  8
0
100
AcDbMText
 10
131.6112989967
 20
15.1068467326
 30
0.0
 40
4.2333333333
 41
0.0
 71
     1
 72
     1
  1
Index
  7
SLDTEXTSTYLE1
 73
     1
 44
1.0
  0
MTEXT
  5
183
330
1F
100
AcDbEntity
  8
0
100
AcDbMText
 10
191.3424447454
 20
14.5571014523
 30
0.0
 40
4.2333333333
 41
0.0
 71
     1
 72
     1
  1
0
  7
SLDTEXTSTYLE1
 73
     1
 44
1.0
  0
CIRCLE
  5
184
330
1F
100
AcDbEntity
  8
0
  6
Continuous
 62
     7
370
    25
100
AcDbCircle
 10
238.2709362952
 20
233.3288422625
 30
0.0
 40
18.75000000000029
  0
CIRCLE
  5
185
330
1F
100
AcDbEntity
  8
0
  6
Continuous
 62
     7
370
    25
100
AcDbCircle
 10
238.2709362952
 20
233.3288422625
 30
0.0
 40
18.00000000000027
  0
CIRCLE
  5
186
330
1F
100
AcDbEntity
  8
0
  6
Continuous
 62
     7
370
    25
100
AcDbCircle
 10
238.2709362952
 20
151.3288422625
 30
0.0
 40
18.75000000000029
  0
CIRCLE
  5
187
330
1F
100
AcDbEntity
  8
0
  6
Continuous
 62
     7
370
    25
100
AcDbCircle
 10
238.2709362952
 20
151.3288422625
 30
0.0
 40
18.00000000000027
  0
CIRCLE
  5
188
330
1F
100
AcDbEntity
  8
0
  6
Continuous
 62
     7
370
    25
100
AcDbCircle
 10
102.2709362952
 20
233.2288422625
 30
0.0
 40
18.00000000000028
  0
CIRCLE
  5
189
330
1F
100
AcDbEntity
  8
0
  6
Continuous
 62
     7
370
    25
100
AcDbCircle
 10
102.2709362952
 20
233.2288422625
 30
0.0
 40
18.75000000000029
  0
LINE
  5
18A
330
1F
100
AcDbEntity
  8
0
  6
Continuous
 62
     7
370
    25
100
AcDbLine
 10
257.2709362952
 20
253.3288422625
 30
0.0
 11
79.2709362952
 21
253.3288422625
 31
0.0
  0
LINE
  5
18B
330
1F
100
AcDbEntity
  8
0
  6
Continuous
 62
     7
370
    25
100
AcDbLine
 10
78.2709362952
 20
214.3288422625
 30
0.0
 11
79.2709362952
 21
213.3288422625
 31
0.0
  0
LINE
  5
18C
330
1F
100
AcDbEntity
  8
0
  6
Continuous
 62
     7
370
    25
100
AcDbLine
 10
78.2709362952
 20
252.3288422625
 30
0.0
 11
78.2709362952
 21
214.3288422625
 31
0.0
  0
LINE
  5
18D
330
1F
100
AcDbEntity
  8
0
  6
Continuous
 62
     7
370
    25
100
AcDbLine
 10
258.2709362952
 20
252.3288422625
 30
0.0
 11
257.2709362952
 21
253.3288422625
 31
0.0
  0
LINE
  5
18E
330
1F
100
AcDbEntity
  8
0
  6
Continuous
 62
     7
370
    25
100
AcDbLine
 10
219.2709362952
 20
128.3288422625
 30
0.0
 11
257.2709362952
 21
128.3288422625
 31
0.0
  0
LINE
  5
18F
330
1F
100
AcDbEntity
  8
0
  6
Continuous
 62
     7
370
    25
100
AcDbLine
 10
218.2709362952
 20
129.3288422625
 30
0.0
 11
219.2709362952
 21
128.3288422625
 31
0.0
  0
LINE
  5
190
330
1F
100
AcDbEntity
  8
0
  6
Continuous
 62
     7
370
    25
100
AcDbLine
 10
218.2709362952
 20
213.3288422625
 30
0.0
 11
218.2709362952
 21
129.3288422625
 31
0.0
  0
LINE
  5
191
330
1F
100
AcDbEntity
  8
0
  6
Continuous
 62
     7
370
    25
100
AcDbLine
 10
79.2709362952
 20
213.3288422625
 30
0.0
 11
218.2709362952
 21
213.3288422625
 31
0.0
  0
LINE
  5
192
330
1F
100
AcDbEntity
  8
0
  6
Continuous
 62
     7
370
    25
100
AcDbLine
 10
258.2709362952
 20
129.3288422625
 30
0.0
 11
258.2709362952
 21
252.3288422625
 31
0.0
  0
LINE
  5
193
330
1F
100
AcDbEntity
  8
0
  6
Continuous
 62
     7
370
    25
100
AcDbLine
 10
257.2709362952
 20
128.3288422625
 30
0.0
 11
258.2709362952
 21
129.3288422625
 31
0.0
  0
LINE
  5
194
330
1F
100
AcDbEntity
  8
0
  6
Continuous
 62
     7
370
    25
100
AcDbLine
 10
79.2709362952
 20
253.3288422625
 30
0.0
 11
78.2709362952
 21
252.3288422625
 31
0.0
  0
DIMENSION
  5
195
330
1F
100
AcDbEntity
  8
0
100
AcDbDimension
  2
_D
 10
280.7827061909
 20
151.3288422625
 30
0.0
 11
280.7827061909
 21
192.3288422625
 31
0.0
 70
   160
  1
<>
 71
     2
 42
-1.0
  3
SLDDIMSTYLE0
100
AcDbAlignedDimension
 13
238.2709362952
 23
233.3288422625
 33
0.0
 14
238.2709362952
 24
151.3288422625
 34
0.0
 50
90.0
100
AcDbRotatedDimension
  0
DIMENSION
  5
1AD
330
1F
100
AcDbEntity
  8
0
100
AcDbDimension
  2
_D_1
 10
102.2489408656
 20
263.1426265598
 30
0.0
 11
170.2489408656
 21
263.1926265598
 31
0.0
 70
   160
  1
<>
 71
     2
 42
-1.0
  3
SLDDIMSTYLE0
100
AcDbAlignedDimension
 13
238.2709362952
 23
233.3288422625
 33
0.0
 14
102.2709362952
 24
233.2288422625
 34
0.0
 50
0.042129242
100
AcDbRotatedDimension
  0
LINE
  5
1C4
330
1F
100
AcDbEntity
  8
0
  6
Continuous
 62
     7
370
    25
100
AcDbLine
 10
229.3209362952
 20
83.3355375793
 30
0.0
 11
229.3209362952
 21
75.8355375793
 31
0.0
  0
LINE
  5
1C5
330
1F
100
AcDbEntity
  8
0
  6
Continuous
 62
     7
370
    25
100
AcDbLine
 10
247.2209362952
 20
75.8355375793
 30
0.0
 11
247.2209362952
 21
83.3355375793
 31
0.0
  0
LINE
  5
1C6
330
1F
100
AcDbEntity
  8
0
  6
Continuous
 62
     7
370
    25
100
AcDbLine
 10
93.3209362952
 20
83.3355375793
 30
0.0
 11
93.3209362952
 21
75.8355375793
 31
0.0
  0
LINE
  5
1C7
330
1F
100
AcDbEntity
  8
0
  6
Continuous
 62
     7
370
    25
100
AcDbLine
 10
111.2209362952
 20
75.8355375793
 30
0.0
 11
111.2209362952
 21
83.3355375793
 31
0.0
  0
LINE
  5
1C8
330
1F
100
AcDbEntity
  8
0
  6
Continuous
 62
     7
370
    25
100
AcDbLine
 10
84.7709362952
 20
75.8355375793
 30
0.0
 11
84.7709362952
 21
74.8355375793
 31
0.0
  0
LINE
  5
1C9
330
1F
100
AcDbEntity
  8
0
  6
Continuous
 62
     7
370
    25
100
AcDbLine
 10
119.7709362952
 20
74.8355375793
 30
0.0
 11
119.7709362952
 21
75.8355375793
 31
0.0
  0
LINE
  5
1CA
330
1F
100
AcDbEntity
  8
0
  6
Continuous
 62
     7
370
    25
100
AcDbLine
 10
220.7709362952
 20
84.3355375793
 30
0.0
 11
220.7709362952
 21
83.3355375793
 31
0.0
  0
LINE
  5
1CB
330
1F
100
AcDbEntity
  8
0
  6
Continuous
 62
     7
370
    25
100
AcDbLine
 10
255.7709362952
 20
83.3355375793
 30
0.0
 11
255.7709362952
 21
84.3355375793
 31
0.0
  0
LINE
  5
1CC
330
1F
100
AcDbEntity
  8
0
  6
Continuous
 62
     7
370
    25
100
AcDbLine
 10
84.7709362952
 20
84.3355375793
 30
0.0
 11
84.7709362952
 21
83.3355375793
 31
0.0
  0
LINE
  5
1CD
330
1F
100
AcDbEntity
  8
0
  6
Continuous
 62
     7
370
    25
100
AcDbLine
 10
119.7709362952
 20
83.3355375793
 30
0.0
 11
119.7709362952
 21
84.3355375793
 31
0.0
  0
LINE
  5
1CE
330
1F
100
AcDbEntity
  8
0
  6
Continuous
 62
     7
370
    25
100
AcDbLine
 10
220.7709362952
 20
75.8355375793
 30
0.0
 11
220.7709362952
 21
74.8355375793
 31
0.0
  0
LINE
  5
1CF
330
1F
100
AcDbEntity
  8
0
  6
Continuous
 62
     7
370
    25
100
AcDbLine
 10
255.7709362952
 20
74.8355375793
 30
0.0
 11
255.7709362952
 21
75.8355375793
 31
0.0
  0
LINE
  5
1D0
330
1F
100
AcDbEntity
  8
0
  6
Continuous
 62
     7
370
    25
100
AcDbLine
 10
257.0209362952
 20
69.5855375793
 30
0.0
 11
257.0209362952
 21
74.8355375793
 31
0.0
  0
LINE
  5
1D1
330
1F
100
AcDbEntity
  8
0
  6
Continuous
 62
     7
370
    25
100
AcDbLine
 10
219.5209362952
 20
74.8355375793
 30
0.0
 11
219.5209362952
 21
69.5855375793
 31
0.0
  0
LINE
  5
1D2
330
1F
100
AcDbEntity
  8
0
  6
Continuous
 62
     7
370
    25
100
AcDbLine
 10
219.5209362952
 20
69.5855375793
 30
0.0
 11
220.2709362952
 21
68.8355375793
 31
0.0
  0
LINE
  5
1D3
330
1F
100
AcDbEntity
  8
0
  6
Continuous
 62
     7
370
    25
100
AcDbLine
 10
256.2709362952
 20
68.8355375793
 30
0.0
 11
257.0209362952
 21
69.5855375793
 31
0.0
  0
LINE
  5
1D4
330
1F
100
AcDbEntity
  8
0
  6
Continuous
 62
     7
370
    25
100
AcDbLine
 10
219.5209362952
 20
90.941960129
 30
0.0
 11
219.5209362952
 21
90.3355375793
 31
0.0
  0
LINE
  5
1D5
330
1F
100
AcDbEntity
  8
0
  6
Continuous
 62
     7
370
    25
100
AcDbLine
 10
219.5209362952
 20
95.5855375793
 30
0.0
 11
219.5209362952
 21
95.1355375793
 31
0.0
  0
LINE
  5
1D6
330
1F
100
AcDbEntity
  8
0
  6
Continuous
 62
     7
370
    25
100
AcDbLine
 10
257.0209362952
 20
95.1092684812
 30
0.0
 11
257.0209362952
 21
95.5855375793
 31
0.0
  0
LINE
  5
1D7
330
1F
100
AcDbEntity
  8
0
  6
Continuous
 62
     7
370
    25
100
AcDbLine
 10
257.0209362952
 20
90.3355375793
 30
0.0
 11
257.0209362952
 21
90.9355375793
 31
0.0
  0
LINE
  5
1D8
330
1F
100
AcDbEntity
  8
0
  6
Continuous
 62
     7
370
    25
100
AcDbLine
 10
257.0209362952
 20
95.5855375793
 30
0.0
 11
256.2709362952
 21
96.3355375793
 31
0.0
  0
LINE
  5
1D9
330
1F
100
AcDbEntity
  8
0
  6
Continuous
 62
     7
370
    25
100
AcDbLine
 10
220.2709362952
 20
96.3355375793
 30
0.0
 11
219.5209362952
 21
95.5855375793
 31
0.0
  0
LINE
  5
1DA
330
1F
100
AcDbEntity
  8
0
  6
Continuous
 62
     7
370
    25
100
AcDbLine
 10
121.0209362952
 20
69.5855375793
 30
0.0
 11
121.0209362952
 21
74.8355375793
 31
0.0
  0
LINE
  5
1DB
330
1F
100
AcDbEntity
  8
0
  6
Continuous
 62
     7
370
    25
100
AcDbLine
 10
83.5209362952
 20
74.8355375793
 30
0.0
 11
83.5209362952
 21
69.5855375793
 31
0.0
  0
LINE
  5
1DC
330
1F
100
AcDbEntity
  8
0
  6
Continuous
 62
     7
370
    25
100
AcDbLine
 10
83.5209362952
 20
69.5855375793
 30
0.0
 11
84.2709362952
 21
68.8355375793
 31
0.0
  0
LINE
  5
1DD
330
1F
100
AcDbEntity
  8
0
  6
Continuous
 62
     7
370
    25
100
AcDbLine
 10
120.2709362952
 20
68.8355375793
 30
0.0
 11
121.0209362952
 21
69.5855375793
 31
0.0
  0
LINE
  5
1DE
330
1F
100
AcDbEntity
  8
0
  6
Continuous
 62
     7
370
    25
100
AcDbLine
 10
83.5209362952
 20
90.941960129
 30
0.0
 11
83.5209362952
 21
90.3355375793
 31
0.0
  0
LINE
  5
1DF
330
1F
100
AcDbEntity
  8
0
  6
Continuous
 62
     7
370
    25
100
AcDbLine
 10
83.5209362952
 20
95.5855375793
 30
0.0
 11
83.5209362952
 21
95.1355375793
 31
0.0
  0
LINE
  5
1E0
330
1F
100
AcDbEntity
  8
0
  6
Continuous
 62
     7
370
    25
100
AcDbLine
 10
121.0209362952
 20
95.1092684812
 30
0.0
 11
121.0209362952
 21
95.5855375793
 31
0.0
  0
LINE
  5
1E1
330
1F
100
AcDbEntity
  8
0
  6
Continuous
 62
     7
370
    25
100
AcDbLine
 10
121.0209362952
 20
90.3355375793
 30
0.0
 11
121.0209362952
 21
90.9355375793
 31
0.0
  0
LINE
  5
1E2
330
1F
100
AcDbEntity
  8
0
  6
Continuous
 62
     7
370
    25
100
AcDbLine
 10
121.0209362952
 20
95.5855375793
 30
0.0
 11
120.2709362952
 21
96.3355375793
 31
0.0
  0
LINE
  5
1E3
330
1F
100
AcDbEntity
  8
0
  6
Continuous
 62
     7
370
    25
100
AcDbLine
 10
84.2709362952
 20
96.3355375793
 30
0.0
 11
83.5209362952
 21
95.5855375793
 31
0.0
  0
LINE
  5
1E4
330
1F
100
AcDbEntity
  8
0
  6
Continuous
 62
     7
370
    25
100
AcDbLine
 10
119.7709362952
 20
75.8355375793
 30
0.0
 11
84.7709362952
 21
75.8355375793
 31
0.0
  0
LINE
  5
1E5
330
1F
100
AcDbEntity
  8
0
  6
Continuous
 62
     7
370
    25
100
AcDbLine
 10
255.7709362952
 20
83.3355375793
 30
0.0
 11
220.7709362952
 21
83.3355375793
 31
0.0
  0
LINE
  5
1E6
330
1F
100
AcDbEntity
  8
0
  6
Continuous
 62
     7
370
    25
100
AcDbLine
 10
119.7709362952
 20
83.3355375793
 30
0.0
 11
84.7709362952
 21
83.3355375793
 31
0.0
  0
LINE
  5
1E7
330
1F
100
AcDbEntity
  8
0
  6
Continuous
 62
     7
370
    25
100
AcDbLine
 10
255.7709362952
 20
75.8355375793
 30
0.0
 11
220.7709362952
 21
75.8355375793
 31
0.0
  0
LINE
  5
1E8
330
1F
100
AcDbEntity
  8
0
  6
Continuous
 62
     7
370
    25
100
AcDbLine
 10
251.2762933015
 20
74.8355375793
 30
0.0
 11
257.0209362952
 21
74.8355375793
 31
0.0
  0
LINE
  5
1E9
330
1F
100
AcDbEntity
  8
0
  6
Continuous
 62
     7
370
    25
100
AcDbLine
 10
219.5209362952
 20
74.8355375793
 30
0.0
 11
251.2762933015
 21
74.8355375793
 31
0.0
  0
SPLINE
  5
1EA
330
1F
100
AcDbEntity
  8
0
  6
Continuous
 62
     7
370
    25
100
AcDbSpline
210
0.0
220
0.0
230
1.0
 70
    11
 71
     3
 72
    66
 73
    62
 74
     0
 42
0.000000001
 43
0.00000001
 40
0.0
 40
0.0
 40
0.0
 40
0.0
 40
0.0131332459492517
 40
0.0263581345991571
 40
0.0398717221720208
 40
0.0534848673906347
 40
0.079914559544448
 40
0.0933284383252524
 40
0.1069361305807579
 40
0.1334686058942185
 40
0.1469348667200616
 40
0.1605964210041018
 40
0.1738131448687609
 40
0.1871221037442662
 40
0.2007228223696452
 40
0.2144247576054136
 40
0.2409115859832102
 40
0.2543576239496172
 40
0.2680015752462476
 40
0.2943710462318302
 40
0.3077550236460322
 40
0.3213330260816227
 40
0.3477639758050983
 40
0.3611777688355496
 40
0.3747847819081334
 40
0.4013598094435626
 40
0.4148485612171909
 40
0.4285340085122144
 40
0.4551117498176065
 40
0.4686041127980095
 40
0.4822955609741087
 40
0.5087311207760202
 40
0.5221504413572275
 40
0.5357663917073359
 40
0.5621367392674406
 40
0.5755204030307755
 40
0.5890973019132052
 40
0.6155789279265169
 40
0.6290187463753003
 40
0.6426526424897725
 40
0.6692510497258086
 40
0.6827525823337186
 40
0.6964520326384652
 40
0.7229901052426079
 40
0.7364624642970969
 40
0.750133620236294
 40
0.7765268315484606
 40
0.7899237898332944
 40
0.8035160068443278
 40
0.8299064904970659
 40
0.8432998520887682
 40
0.8568861153234071
 40
0.8834194116339356
 40
0.8968861029383128
 40
0.910548112578402
 40
0.923764702482712
 40
0.9370735301860805
 40
0.9506741195887748
 40
0.9643759212448947
 40
0.9820747863160361
 40
0.9999999999999999
 40
0.9999999999999999
 40
0.9999999999999999
 40
0.9999999999999999
 10
251.2762933015416
 20
70.03553757929389
 30
0.0
 10
251.2345590308595
 20
70.03691653609633
 30
0.0
 10
251.1507992712169
 20
70.03968407194735
 30
0.0
 10
251.02355555975
 20
70.06223947991091
 30
0.0
 10
250.8955438465774
 20
70.0987368474061
 30
0.0
 10
250.7279243192516
 20
70.1669547045113
 30
0.0
 10
250.5655965410305
 20
70.26308157389465
 30
0.0
 10
250.4126311798893
 20
70.38483911763474
 30
0.0
 10
250.2667364328021
 20
70.52339405431505
 30
0.0
 10
250.1332795564068
 20
70.68565939637914
 30
0.0
 10
250.0160725737871
 20
70.8676048686584
 30
0.0
 10
249.936888438911
 20
71.013574396951
 30
0.0
 10
249.8675993342954
 20
71.16693503448623
 30
0.0
 10
249.8084491308548
 20
71.32687578733459
 30
0.0
 10
249.7594345731668
 20
71.4946306866487
 30
0.0
 10
249.7097189753554
 20
71.72298254084446
 30
0.0
 10
249.6831742905935
 20
71.95785571012848
 30
0.0
 10
249.6803691639403
 20
72.19373690411392
 30
0.0
 10
249.6935263132341
 20
72.42855425981136
 30
0.0
 10
249.7302107423116
 20
72.66015094266389
 30
0.0
 10
249.7890627670873
 20
72.88285027211403
 30
0.0
 10
249.862487374421
 20
73.0987044273297
 30
0.0
 10
249.9567481444404
 20
73.3021557043983
 30
0.0
 10
250.068959740394
 20
73.48830511828554
 30
0.0
 10
250.1927227988129
 20
73.66212430840969
 30
0.0
 10
250.332130040235
 20
73.81542888173547
 30
0.0
 10
250.4832108058029
 20
73.94446193644978
 30
0.0
 10
250.6409719726844
 20
74.05622778373214
 30
0.0
 10
250.8070359129732
 20
74.14121868650196
 30
0.0
 10
250.9768769157924
 20
74.19741072265606
 30
0.0
 10
251.1477022642843
 20
74.23374155794679
 30
0.0
 10
251.3187648139879
 20
74.24042667105392
 30
0.0
 10
251.4857793766754
 20
74.21757915923739
 30
0.0
 10
251.6490877439769
 20
74.17502879702997
 30
0.0
 10
251.8056966301633
 20
74.10355334233441
 30
0.0
 10
251.952144890911
 20
74.00515761156369
 30
0.0
 10
252.091426700749
 20
73.88892789948521
 30
0.0
 10
252.218693832843
 20
73.74723251945584
 30
0.0
 10
252.3314213018056
 20
73.58357484022244
 30
0.0
 10
252.4340323708519
 20
73.40577638936709
 30
0.0
 10
252.5206382708506
 20
73.2086962565428
 30
0.0
 10
252.5896486228787
 20
72.99717276126793
 30
0.0
 10
252.646406480657
 20
72.77756378498694
 30
0.0
 10
252.6847093004529
 20
72.54765521570009
 30
0.0
 10
252.7039885466261
 20
72.31321992156006
 30
0.0
 10
252.7103648202095
 20
72.07768901242639
 30
0.0
 10
252.6976436832654
 20
71.8420713336706
 30
0.0
 10
252.6662401868734
 20
71.61220426227663
 30
0.0
 10
252.6223392082779
 20
71.3873362081377
 30
0.0
 10
252.5600571582451
 20
71.17192923171876
 30
0.0
 10
252.4806127839069
 20
70.97117856265474
 30
0.0
 10
252.3896430462167
 20
70.78092768779258
 30
0.0
 10
252.2821137405012
 20
70.60861885489888
 30
0.0
 10
252.1601006151351
 20
70.45845531466294
 30
0.0
 10
252.0614362798428
 20
70.3575298704903
 30
0.0
 10
251.9569192740803
 20
70.26960615892045
 30
0.0
 10
251.84699028017
 20
70.19485716981181
 30
0.0
 10
251.7306851398779
 20
70.13302843178819
 30
0.0
 10
251.5969451491117
 20
70.08104885069282
 30
0.0
 10
251.4454650273989
 20
70.04319576742577
 30
0.0
 10
251.3329222353175
 20
70.03810109885585
 30
0.0
 10
251.2762933015416
 20
70.03553757929389
 30
0.0
  0
SPLINE
  5
1EB
330
1F
100
AcDbEntity
  8
0
  6
Continuous
 62
     7
370
    25
100
AcDbSpline
210
0.0
220
0.0
230
1.0
 70
    11
 71
     3
 72
    44
 73
    40
 74
     0
 42
0.000000001
 43
0.00000001
 40
0.0
 40
0.0
 40
0.0
 40
0.0
 40
0.0263502572266947
 40
0.0534675824120864
 40
0.079817014120176
 40
0.1069249874480429
 40
0.133376737087851
 40
0.1605912854447274
 40
0.1871090242147909
 40
0.2144019329184828
 40
0.2408067569166256
 40
0.2679843844112725
 40
0.2942734632280516
 40
0.3213218846902691
 40
0.3476729092398935
 40
0.3747798402617279
 40
0.4012735626604869
 40
0.4285349241880754
 40
0.4550302635050319
 40
0.482302026014195
 40
0.508656093646553
 40
0.5357786185636045
 40
0.5620689398423162
 40
0.589115681204602
 40
0.6155170625262485
 40
0.6426771491972315
 40
0.6691937264727467
 40
0.6964822548574189
 40
0.7229379970223146
 40
0.75016939950381
 40
0.7764816851758991
 40
0.8035576939199326
 40
0.8298683372419887
 40
0.8569340128220204
 40
0.8833865738313276
 40
0.9106020148702415
 40
0.9371194877304305
 40
0.9644121347956499
 40
1.0
 40
1.0
 40
1.0
 40
1.0
 10
224.7645234058505
 20
70.0355375792939
 30
0.0
 10
224.6845329782193
 20
70.04110759620347
 30
0.0
 10
224.5222235652691
 20
70.05240977574533
 30
0.0
 10
224.2925656941154
 20
70.14331156020486
 30
0.0
 10
224.0779996867233
 20
70.28704528992411
 30
0.0
 10
223.8876767668214
 20
70.48249458053367
 30
0.0
 10
223.7222856827576
 20
70.72647642003234
 30
0.0
 10
223.588243873946
 20
71.00863833208966
 30
0.0
 10
223.4860053672351
 20
71.32590813531317
 30
0.0
 10
223.4195633680073
 20
71.66329077081795
 30
0.0
 10
223.388850866348
 20
72.01689392687243
 30
0.0
 10
223.3948047315494
 20
72.3696605677242
 30
0.0
 10
223.437190425612
 20
72.71837115920628
 30
0.0
 10
223.5143257323827
 20
73.04721448471169
 30
0.0
 10
223.6263589693769
 20
73.35340561817097
 30
0.0
 10
223.7695080821691
 20
73.62339430388461
 30
0.0
 10
223.9436933398703
 20
73.85410446687338
 30
0.0
 10
224.1423134884189
 20
74.03463824353835
 30
0.0
 10
224.3641653783677
 20
74.16265999791342
 30
0.0
 10
224.599356488466
 20
74.23198286070057
 30
0.0
 10
224.8457852138717
 20
74.24215761363388
 30
0.0
 10
225.0917899001772
 20
74.19312034613343
 30
0.0
 10
225.3349217383778
 20
74.08562662423908
 30
0.0
 10
225.5636640369016
 20
73.92467156232088
 30
0.0
 10
225.7749324677028
 20
73.71157705976009
 30
0.0
 10
225.958111800509
 20
73.45551453999218
 30
0.0
 10
226.1097158563162
 20
73.15906605180956
 30
0.0
 10
226.221316061262
 20
72.83590577037128
 30
0.0
 10
226.2906216622154
 20
72.48983578162029
 30
0.0
 10
226.313812777237
 20
72.1376455341558
 30
0.0
 10
226.2907486198415
 20
71.7828587452241
 30
0.0
 10
226.2230350702437
 20
71.44194428132303
 30
0.0
 10
226.1119946393725
 20
71.11771341045441
 30
0.0
 10
225.9634244879948
 20
70.82443287032496
 30
0.0
 10
225.7797266613277
 20
70.56522226057064
 30
0.0
 10
225.5701053994142
 20
70.35156815418125
 30
0.0
 10
225.3381790231658
 20
70.18790555830684
 30
0.0
 10
225.0677548328915
 20
70.06322337690737
 30
0.0
 10
224.8741155351015
 20
70.04554361837792
 30
0.0
 10
224.7645234058505
 20
70.0355375792939
 30
0.0
  0
LINE
  5
1EC
330
1F
100
AcDbEntity
  8
0
  6
Continuous
 62
     7
370
    25
100
AcDbLine
 10
251.2762933015
 20
69.5855375793
 30
0.0
 11
257.0209362952
 21
69.5855375793
 31
0.0
  0
LINE
  5
1ED
330
1F
100
AcDbEntity
  8
0
  6
Continuous
 62
     7
370
    25
100
AcDbLine
 10
219.5209362952
 20
69.5855375793
 30
0.0
 11
251.2762933015
 21
69.5855375793
 31
0.0
  0
LINE
  5
1EE
330
1F
100
AcDbEntity
  8
0
  6
Continuous
 62
     7
370
    25
100
AcDbLine
 10
250.7560790213
 20
68.8355375793
 30
0.0
 11
220.2709362952
 21
68.8355375793
 31
0.0
  0
LINE
  5
1EF
330
1F
100
AcDbEntity
  8
0
  6
Continuous
 62
     7
370
    25
100
AcDbLine
 10
256.2709362952
 20
68.8355375793
 30
0.0
 11
250.7560790213
 21
68.8355375793
 31
0.0
  0
SPLINE
  5
1F0
330
1F
100
AcDbEntity
  8
0
  6
Continuous
 62
     7
370
    25
100
AcDbSpline
210
0.0
220
0.0
230
1.0
 70
     8
 71
     3
 72
    37
 73
    33
 74
     0
 42
0.000000001
 43
0.00000001
 40
0.0
 40
0.0
 40
0.0
 40
0.0
 40
0.0262669638229619
 40
0.0527172163402811
 40
0.0797448770775006
 40
0.1069716566836825
 40
0.1598319907045943
 40
0.186660230274802
 40
0.2138761037588227
 40
0.2669420077923951
 40
0.2938750133349545
 40
0.3211986128114999
 40
0.3476325354649361
 40
0.3742509314543987
 40
0.401452857427579
 40
0.4288572202586124
 40
0.4818318287805997
 40
0.508724387877607
 40
0.5360127807467944
 40
0.5887526702672833
 40
0.6155211060298231
 40
0.6426775988071526
 40
0.6955404480125781
 40
0.7223685160789985
 40
0.7495830311727699
 40
0.8027340411793334
 40
0.8297120294256428
 40
0.8570834157827162
 40
0.9102398534267211
 40
0.9372250642163436
 40
0.964608452551201
 40
1.0
 40
1.0
 40
1.0
 40
1.0
 10
219.5209362952319
 20
95.13553757929353
 30
0.0
 10
219.5210910007459
 20
95.13415862249109
 30
0.0
 10
219.5214014912961
 20
95.13139108664006
 30
0.0
 10
219.5239154915822
 20
95.1088356786765
 30
0.0
 10
219.5279263927171
 20
95.07233831118131
 30
0.0
 10
219.5352634766838
 20
95.00412045407609
 30
0.0
 10
219.5452075128019
 20
94.90799358469276
 30
0.0
 10
219.556924508985
 20
94.78623604095267
 30
0.0
 10
219.5695331631498
 20
94.64768110427238
 30
0.0
 10
219.5829417671868
 20
94.48541576220829
 30
0.0
 10
219.5959957439175
 20
94.30347028992898
 30
0.0
 10
219.6053579725394
 20
94.15750076163643
 30
0.0
 10
219.6139625068784
 20
94.00414012410111
 30
0.0
 10
219.62160694702
 20
93.84419937125304
 30
0.0
 10
219.6281503456455
 20
93.6764444719379
 30
0.0
 10
219.6349588258899
 20
93.44809261774718
 30
0.0
 10
219.6387068450065
 20
93.21321944843328
 30
0.0
 10
219.6391017542222
 20
92.97733825451837
 30
0.0
 10
219.6372460481638
 20
92.74252089853387
 30
0.0
 10
219.6321111865319
 20
92.51092421738996
 30
0.0
 10
219.6241726824955
 20
92.2882248839083
 30
0.0
 10
219.6145590169445
 20
92.07237074515287
 30
0.0
 10
219.6028392335939
 20
91.8689193693987
 30
0.0
 10
219.5900284004401
 20
91.68277018857647
 30
0.0
 10
219.5768035401451
 20
91.50895004550775
 30
0.0
 10
219.5635389423799
 20
91.35565120486876
 30
0.0
 10
219.5513747594475
 20
91.22660460303395
 30
0.0
 10
219.5403027132127
 20
91.11489400411894
 30
0.0
 10
219.5312778771292
 20
91.0295726313334
 30
0.0
 10
219.5252346601451
 20
90.97416104573044
 30
0.0
 10
219.5215615430782
 20
90.94109501940736
 30
0.0
 10
219.5216206474433
 20
90.94164823467189
 30
0.0
 10
219.5216539695793
 20
90.941960128966
 30
0.0
  0
SPLINE
  5
1F1
330
1F
100
AcDbEntity
  8
0
  6
Continuous
 62
     7
370
    25
100
AcDbSpline
210
0.0
220
0.0
230
1.0
 70
    11
 71
     3
 72
    44
 73
    40
 74
     0
 42
0.000000001
 43
0.00000001
 40
0.0
 40
0.0
 40
0.0
 40
0.0
 40
0.0263502572266949
 40
0.0534675824120865
 40
0.0798170141201761
 40
0.106924987448043
 40
0.1333767370878511
 40
0.1605912854447275
 40
0.1871090242147909
 40
0.2144019329184828
 40
0.2408067569166257
 40
0.2679843844112725
 40
0.2942734632280517
 40
0.3213218846902692
 40
0.3476729092398935
 40
0.3747798402617278
 40
0.4012735626604868
 40
0.4285349241880753
 40
0.4550302635050318
 40
0.482302026014195
 40
0.5086560936465528
 40
0.5357786185636045
 40
0.5620689398423161
 40
0.589115681204602
 40
0.6155170625262484
 40
0.6426771491972315
 40
0.6691937264727467
 40
0.6964822548574189
 40
0.7229379970223146
 40
0.75016939950381
 40
0.7764816851758991
 40
0.8035576939199326
 40
0.8298683372419887
 40
0.8569340128220204
 40
0.8833865738313276
 40
0.9106020148702415
 40
0.9371194877304304
 40
0.9644121347956498
 40
0.9999999999999999
 40
0.9999999999999999
 40
0.9999999999999999
 40
0.9999999999999999
 10
238.2709362952323
 20
95.13553757929351
 30
0.0
 10
238.3869117920248
 20
95.12996756238392
 30
0.0
 10
238.6222388850087
 20
95.1186653828421
 30
0.0
 10
238.9637072287578
 20
95.02776359838253
 30
0.0
 10
239.2884866794537
 20
94.8840298686633
 30
0.0
 10
239.5820550844199
 20
94.68858057805375
 30
0.0
 10
239.8414453060433
 20
94.44459873855507
 30
0.0
 10
240.0547890845676
 20
94.16243682649775
 30
0.0
 10
240.2194518752416
 20
93.84516702327424
 30
0.0
 10
240.3274046261805
 20
93.50778438776945
 30
0.0
 10
240.3775558503935
 20
93.154181231715
 30
0.0
 10
240.367820266594
 20
92.80141459086322
 30
0.0
 10
240.2986943639885
 20
92.45270399938111
 30
0.0
 10
240.1736693938248
 20
92.12386067387571
 30
0.0
 10
239.9938400077808
 20
91.81766954041645
 30
0.0
 10
239.766960766883
 20
91.5476808547028
 30
0.0
 10
239.4951074496845
 20
91.31697069171403
 30
0.0
 10
239.190461387074
 20
91.13643691504905
 30
0.0
 10
238.8565550518126
 20
91.00841516067396
 30
0.0
 10
238.5094814969874
 20
90.93909229788686
 30
0.0
 10
238.1530067866033
 20
90.9289175449535
 30
0.0
 10
237.8040484533318
 20
90.97795481245397
 30
0.0
 10
237.4655671690003
 20
91.08544853434833
 30
0.0
 10
237.1526360627605
 20
91.24640359626653
 30
0.0
 10
236.8681361685218
 20
91.45949809882734
 30
0.0
 10
236.6248518695864
 20
91.71556061859523
 30
0.0
 10
236.4257912663912
 20
92.01200910677784
 30
0.0
 10
236.2805576815202
 20
92.33516938821613
 30
0.0
 10
236.1909011521279
 20
92.68123937696713
 30
0.0
 10
236.1609931494036
 20
93.03342962443162
 30
0.0
 10
236.190739204118
 20
93.3882164133633
 30
0.0
 10
236.2783273453139
 20
93.72913087726438
 30
0.0
 10
236.4228232658517
 20
94.05336174813297
 30
0.0
 10
236.6178385944721
 20
94.34664228826244
 30
0.0
 10
236.8617382110122
 20
94.60585289801676
 30
0.0
 10
237.1438614974002
 20
94.81950700440616
 30
0.0
 10
237.4611537713933
 20
94.98316960028056
 30
0.0
 10
237.8370264374333
 20
95.10785178168004
 30
0.0
 10
238.1141151316635
 20
95.12553154020951
 30
0.0
 10
238.2709362952323
 20
95.13553757929351
 30
0.0
  0
SPLINE
  5
1F2
330
1F
100
AcDbEntity
  8
0
  6
Continuous
 62
     7
370
    25
100
AcDbSpline
210
0.0
220
0.0
230
1.0
 70
     8
 71
     3
 72
    17
 73
    13
 74
     0
 42
0.000000001
 43
0.00000001
 40
0.0
 40
0.0
 40
0.0
 40
0.0
 40
0.1069146075545908
 40
0.2138131957824918
 40
0.3211284641090224
 40
0.4287268938277937
 40
0.5358688264108841
 40
0.6425263570340773
 40
0.7494272702455275
 40
0.8569181333416159
 40
0.9644285773322453
 40
1.0
 40
1.0
 40
1.0
 40
1.0
 10
257.0209362952324
 20
90.93553757929371
 30
0.0
 10
257.018279926561
 20
90.95860773163662
 30
0.0
 10
257.0129675872296
 20
91.0047445796544
 30
0.0
 10
256.9759816212476
 20
91.36421614078941
 30
0.0
 10
256.9346036985684
 20
91.89477882025561
 30
0.0
 10
256.9045887651321
 20
92.55944801842651
 30
0.0
 10
256.8999748609074
 20
93.2760663302168
 30
0.0
 10
256.9222658243182
 20
93.96278756446928
 30
0.0
 10
256.9622501479344
 20
94.55018617234927
 30
0.0
 10
257.0004946819939
 20
94.95301077488352
 30
0.0
 10
257.0220803593864
 20
95.14589192129209
 30
0.0
 10
257.0188297483783
 20
95.1165605264621
 30
0.0
 10
257.0180216176151
 20
95.10926848123442
 30
0.0
  0
LINE
  5
1F3
330
1F
100
AcDbEntity
  8
0
  6
Continuous
 62
     7
370
    25
100
AcDbLine
 10
257.0209362952
 20
95.5855375793
 30
0.0
 11
219.5209362952
 21
95.5855375793
 31
0.0
  0
LINE
  5
1F4
330
1F
100
AcDbEntity
  8
0
  6
Continuous
 62
     7
370
    25
100
AcDbLine
 10
220.2709362952
 20
96.3355375793
 30
0.0
 11
256.2709362952
 21
96.3355375793
 31
0.0
  0
LINE
  5
1F5
330
1F
100
AcDbEntity
  8
0
  6
Continuous
 62
     7
370
    25
100
AcDbLine
 10
115.2762933015
 20
74.8355375793
 30
0.0
 11
121.0209362952
 21
74.8355375793
 31
0.0
  0
LINE
  5
1F6
330
1F
100
AcDbEntity
  8
0
  6
Continuous
 62
     7
370
    25
100
AcDbLine
 10
83.5209362952
 20
74.8355375793
 30
0.0
 11
115.2762933015
 21
74.8355375793
 31
0.0
  0
SPLINE
  5
1F7
330
1F
100
AcDbEntity
  8
0
  6
Continuous
 62
     7
370
    25
100
AcDbSpline
210
0.0
220
0.0
230
1.0
 70
    11
 71
     3
 72
    66
 73
    62
 74
     0
 42
0.000000001
 43
0.00000001
 40
0.0
 40
0.0
 40
0.0
 40
0.0
 40
0.0131332459492515
 40
0.0263581345991569
 40
0.0398717221720206
 40
0.0534848673906343
 40
0.079914559544448
 40
0.0933284383252523
 40
0.106936130580758
 40
0.1334686058942186
 40
0.1469348667200616
 40
0.1605964210041017
 40
0.1738131448687608
 40
0.1871221037442659
 40
0.200722822369645
 40
0.2144247576054134
 40
0.2409115859832101
 40
0.254357623949617
 40
0.2680015752462474
 40
0.2943710462318302
 40
0.3077550236460317
 40
0.3213330260816225
 40
0.3477639758050984
 40
0.3611777688355499
 40
0.3747847819081331
 40
0.4013598094435626
 40
0.4148485612171908
 40
0.4285340085122143
 40
0.4551117498176069
 40
0.4686041127980097
 40
0.4822955609741089
 40
0.5087311207760203
 40
0.5221504413572275
 40
0.5357663917073361
 40
0.5621367392674405
 40
0.5755204030307757
 40
0.5890973019132055
 40
0.615578927926517
 40
0.6290187463753
 40
0.6426526424897724
 40
0.6692510497258086
 40
0.6827525823337186
 40
0.6964520326384653
 40
0.7229901052426079
 40
0.7364624642970969
 40
0.7501336202362942
 40
0.7765268315484605
 40
0.7899237898332945
 40
0.8035160068443277
 40
0.8299064904970659
 40
0.843299852088768
 40
0.8568861153234074
 40
0.8834194116339356
 40
0.8968861029383128
 40
0.9105481125784021
 40
0.9237647024827116
 40
0.9370735301860803
 40
0.9506741195887746
 40
0.9643759212448946
 40
0.9820747863160355
 40
1.0
 40
1.0
 40
1.0
 40
1.0
 10
115.2762933015417
 20
70.0355375792937
 30
0.0
 10
115.2345590308596
 20
70.03691653609613
 30
0.0
 10
115.150799271217
 20
70.03968407194718
 30
0.0
 10
115.02355555975
 20
70.06223947991072
 30
0.0
 10
114.8955438465775
 20
70.09873684740592
 30
0.0
 10
114.7279243192517
 20
70.16695470451111
 30
0.0
 10
114.5655965410307
 20
70.26308157389447
 30
0.0
 10
114.4126311798895
 20
70.38483911763456
 30
0.0
 10
114.2667364328023
 20
70.52339405431485
 30
0.0
 10
114.133279556407
 20
70.68565939637895
 30
0.0
 10
114.0160725737871
 20
70.86760486865823
 30
0.0
 10
113.9368884389112
 20
71.01357439695083
 30
0.0
 10
113.8675993342955
 20
71.16693503448606
 30
0.0
 10
113.808449130855
 20
71.3268757873344
 30
0.0
 10
113.7594345731669
 20
71.4946306866485
 30
0.0
 10
113.7097189753556
 20
71.72298254084428
 30
0.0
 10
113.6831742905937
 20
71.95785571012829
 30
0.0
 10
113.6803691639404
 20
72.19373690411373
 30
0.0
 10
113.6935263132341
 20
72.42855425981116
 30
0.0
 10
113.7302107423117
 20
72.66015094266369
 30
0.0
 10
113.7890627670875
 20
72.88285027211384
 30
0.0
 10
113.8624873744211
 20
73.09870442732952
 30
0.0
 10
113.9567481444406
 20
73.30215570439812
 30
0.0
 10
114.0689597403941
 20
73.48830511828534
 30
0.0
 10
114.192722798813
 20
73.6621243084095
 30
0.0
 10
114.3321300402351
 20
73.81542888173527
 30
0.0
 10
114.4832108058031
 20
73.9444619364496
 30
0.0
 10
114.6409719726845
 20
74.05622778373194
 30
0.0
 10
114.8070359129733
 20
74.14121868650179
 30
0.0
 10
114.9768769157926
 20
74.19741072265587
 30
0.0
 10
115.1477022642844
 20
74.23374155794662
 30
0.0
 10
115.318764813988
 20
74.24042667105374
 30
0.0
 10
115.4857793766755
 20
74.21757915923722
 30
0.0
 10
115.649087743977
 20
74.1750287970298
 30
0.0
 10
115.8056966301633
 20
74.10355334233422
 30
0.0
 10
115.9521448909111
 20
74.0051576115635
 30
0.0
 10
116.091426700749
 20
73.88892789948503
 30
0.0
 10
116.2186938328432
 20
73.74723251945568
 30
0.0
 10
116.3314213018057
 20
73.58357484022225
 30
0.0
 10
116.4340323708521
 20
73.40577638936692
 30
0.0
 10
116.5206382708506
 20
73.20869625654261
 30
0.0
 10
116.5896486228788
 20
72.99717276126775
 30
0.0
 10
116.6464064806571
 20
72.77756378498675
 30
0.0
 10
116.684709300453
 20
72.54765521569989
 30
0.0
 10
116.7039885466263
 20
72.31321992155989
 30
0.0
 10
116.7103648202096
 20
72.07768901242622
 30
0.0
 10
116.6976436832656
 20
71.8420713336704
 30
0.0
 10
116.6662401868736
 20
71.61220426227645
 30
0.0
 10
116.622339208278
 20
71.38733620813751
 30
0.0
 10
116.5600571582452
 20
71.17192923171858
 30
0.0
 10
116.480612783907
 20
70.97117856265454
 30
0.0
 10
116.3896430462168
 20
70.7809276877924
 30
0.0
 10
116.2821137405014
 20
70.6086188548987
 30
0.0
 10
116.1601006151352
 20
70.45845531466276
 30
0.0
 10
116.0614362798429
 20
70.35752987049013
 30
0.0
 10
115.9569192740804
 20
70.26960615892027
 30
0.0
 10
115.8469902801701
 20
70.19485716981163
 30
0.0
 10
115.7306851398781
 20
70.13302843178802
 30
0.0
 10
115.5969451491117
 20
70.08104885069264
 30
0.0
 10
115.4454650273991
 20
70.04319576742562
 30
0.0
 10
115.3329222353176
 20
70.03810109885565
 30
0.0
 10
115.2762933015417
 20
70.0355375792937
 30
0.0
  0
SPLINE
  5
1F8
330
1F
100
AcDbEntity
  8
0
  6
Continuous
 62
     7
370
    25
100
AcDbSpline
210
0.0
220
0.0
230
1.0
 70
    11
 71
     3
 72
    44
 73
    40
 74
     0
 42
0.000000001
 43
0.00000001
 40
0.0
 40
0.0
 40
0.0
 40
0.0
 40
0.0263502572266947
 40
0.0534675824120858
 40
0.0798170141201757
 40
0.1069249874480423
 40
0.1333767370878506
 40
0.1605912854447269
 40
0.1871090242147904
 40
0.2144019329184823
 40
0.2408067569166252
 40
0.267984384411272
 40
0.2942734632280512
 40
0.3213218846902688
 40
0.3476729092398928
 40
0.3747798402617276
 40
0.4012735626604863
 40
0.4285349241880754
 40
0.4550302635050316
 40
0.482302026014195
 40
0.5086560936465531
 40
0.5357786185636043
 40
0.5620689398423157
 40
0.5891156812046014
 40
0.6155170625262482
 40
0.6426771491972314
 40
0.6691937264727467
 40
0.6964822548574185
 40
0.7229379970223145
 40
0.7501693995038099
 40
0.776481685175899
 40
0.8035576939199326
 40
0.8298683372419885
 40
0.8569340128220206
 40
0.8833865738313276
 40
0.9106020148702408
 40
0.9371194877304306
 40
0.9644121347956491
 40
1.0
 40
1.0
 40
1.0
 40
1.0
 10
88.76452340585062
 20
70.03553757929372
 30
0.0
 10
88.68453297821937
 20
70.0411075962033
 30
0.0
 10
88.52222356526916
 20
70.05240977574513
 30
0.0
 10
88.2925656941155
 20
70.1433115602047
 30
0.0
 10
88.07799968672349
 20
70.28704528992392
 30
0.0
 10
87.88767676682143
 20
70.48249458053347
 30
0.0
 10
87.72228568275779
 20
70.72647642003216
 30
0.0
 10
87.58824387394615
 20
71.00863833208948
 30
0.0
 10
87.48600536723521
 20
71.32590813531297
 30
0.0
 10
87.41956336800747
 20
71.66329077081778
 30
0.0
 10
87.38885086634811
 20
72.01689392687223
 30
0.0
 10
87.3948047315495
 20
72.36966056772403
 30
0.0
 10
87.43719042561212
 20
72.71837115920611
 30
0.0
 10
87.51432573238284
 20
73.0472144847115
 30
0.0
 10
87.62635896937702
 20
73.35340561817078
 30
0.0
 10
87.76950808216922
 20
73.62339430388442
 30
0.0
 10
87.94369333987038
 20
73.8541044668732
 30
0.0
 10
88.14231348841896
 20
74.03463824353817
 30
0.0
 10
88.36416537836784
 20
74.16265999791325
 30
0.0
 10
88.59935648846604
 20
74.23198286070037
 30
0.0
 10
88.8457852138718
 20
74.24215761363372
 30
0.0
 10
89.09178990017729
 20
74.19312034613324
 30
0.0
 10
89.33492173837789
 20
74.0856266242389
 30
0.0
 10
89.5636640369017
 20
73.9246715623207
 30
0.0
 10
89.77493246770295
 20
73.71157705975989
 30
0.0
 10
89.9581118005091
 20
73.455514539992
 30
0.0
 10
90.10971585631634
 20
73.15906605180939
 30
0.0
 10
90.22131606126212
 20
72.8359057703711
 30
0.0
 10
90.2906216622155
 20
72.4898357816201
 30
0.0
 10
90.31381277723715
 20
72.13764553415561
 30
0.0
 10
90.29074861984164
 20
71.78285874522393
 30
0.0
 10
90.22303507024378
 20
71.44194428132285
 30
0.0
 10
90.11199463937268
 20
71.11771341045424
 30
0.0
 10
89.96342448799493
 20
70.82443287032477
 30
0.0
 10
89.77972666132781
 20
70.56522226057047
 30
0.0
 10
89.57010539941436
 20
70.35156815418107
 30
0.0
 10
89.33817902316595
 20
70.18790555830665
 30
0.0
 10
89.06775483289161
 20
70.06322337690719
 30
0.0
 10
88.87411553510165
 20
70.04554361837774
 30
0.0
 10
88.76452340585062
 20
70.03553757929372
 30
0.0
  0
LINE
  5
1F9
330
1F
100
AcDbEntity
  8
0
  6
Continuous
 62
     7
370
    25
100
AcDbLine
 10
115.2762933015
 20
69.5855375793
 30
0.0
 11
121.0209362952
 21
69.5855375793
 31
0.0
  0
LINE
  5
1FA
330
1F
100
AcDbEntity
  8
0
  6
Continuous
 62
     7
370
    25
100
AcDbLine
 10
83.5209362952
 20
69.5855375793
 30
0.0
 11
115.2762933015
 21
69.5855375793
 31
0.0
  0
LINE
  5
1FB
330
1F
100
AcDbEntity
  8
0
  6
Continuous
 62
     7
370
    25
100
AcDbLine
 10
114.7560790213
 20
68.8355375793
 30
0.0
 11
84.2709362952
 21
68.8355375793
 31
0.0
  0
LINE
  5
1FC
330
1F
100
AcDbEntity
  8
0
  6
Continuous
 62
     7
370
    25
100
AcDbLine
 10
120.2709362952
 20
68.8355375793
 30
0.0
 11
114.7560790213
 21
68.8355375793
 31
0.0
  0
SPLINE
  5
1FD
330
1F
100
AcDbEntity
  8
0
  6
Continuous
 62
     7
370
    25
100
AcDbSpline
210
0.0
220
0.0
230
1.0
 70
     8
 71
     3
 72
    37
 73
    33
 74
     0
 42
0.000000001
 43
0.00000001
 40
0.0
 40
0.0
 40
0.0
 40
0.0
 40
0.0262669638229618
 40
0.0527172163402811
 40
0.0797448770775005
 40
0.1069716566836825
 40
0.1598319907045943
 40
0.1866602302748019
 40
0.2138761037588227
 40
0.2669420077923951
 40
0.2938750133349545
 40
0.3211986128114999
 40
0.347632535464936
 40
0.3742509314543986
 40
0.4014528574275788
 40
0.4288572202586123
 40
0.4818318287805995
 40
0.5087243878776069
 40
0.5360127807467943
 40
0.5887526702672832
 40
0.615521106029823
 40
0.6426775988071525
 40
0.695540448012578
 40
0.7223685160789983
 40
0.7495830311727699
 40
0.8027340411793333
 40
0.8297120294256427
 40
0.8570834157827162
 40
0.9102398534267211
 40
0.9372250642163436
 40
0.964608452551201
 40
1.0
 40
1.0
 40
1.0
 40
1.0
 10
83.52093629523203
 20
95.13553757929324
 30
0.0
 10
83.521091000746
 20
95.1341586224908
 30
0.0
 10
83.52140149129626
 20
95.13139108663978
 30
0.0
 10
83.52391549158237
 20
95.1088356786762
 30
0.0
 10
83.52792639271718
 20
95.07233831118103
 30
0.0
 10
83.53526347668395
 20
95.00412045407582
 30
0.0
 10
83.54520751280208
 20
94.90799358469248
 30
0.0
 10
83.55692450898515
 20
94.78623604095239
 30
0.0
 10
83.56953316314998
 20
94.6476811042721
 30
0.0
 10
83.58294176718694
 20
94.48541576220799
 30
0.0
 10
83.59599574391775
 20
94.30347028992871
 30
0.0
 10
83.60535797253952
 20
94.15750076163614
 30
0.0
 10
83.61396250687851
 20
94.00414012410083
 30
0.0
 10
83.62160694702015
 20
93.84419937125276
 30
0.0
 10
83.62815034564571
 20
93.67644447193763
 30
0.0
 10
83.63495882589002
 20
93.44809261774691
 30
0.0
 10
83.63870684500667
 20
93.213219448433
 30
0.0
 10
83.63910175422235
 20
92.97733825451809
 30
0.0
 10
83.63724604816396
 20
92.74252089853358
 30
0.0
 10
83.63211118653206
 20
92.51092421738969
 30
0.0
 10
83.62417268249568
 20
92.288224883908
 30
0.0
 10
83.61455901694465
 20
92.0723707451526
 30
0.0
 10
83.60283923359403
 20
91.86891936939843
 30
0.0
 10
83.5900284004402
 20
91.68277018857619
 30
0.0
 10
83.57680354014514
 20
91.50895004550746
 30
0.0
 10
83.5635389423802
 20
91.35565120486847
 30
0.0
 10
83.55137475944761
 20
91.22660460303366
 30
0.0
 10
83.54030271321292
 20
91.11489400411865
 30
0.0
 10
83.53127787712943
 20
91.0295726313331
 30
0.0
 10
83.52523466014526
 20
90.97416104573017
 30
0.0
 10
83.52156154307842
 20
90.94109501940706
 30
0.0
 10
83.52162064744354
 20
90.9416482346716
 30
0.0
 10
83.52165396957943
 20
90.94196012896573
 30
0.0
  0
SPLINE
  5
1FE
330
1F
100
AcDbEntity
  8
0
  6
Continuous
 62
     7
370
    25
100
AcDbSpline
210
0.0
220
0.0
230
1.0
 70
    11
 71
     3
 72
    44
 73
    40
 74
     0
 42
0.000000001
 43
0.00000001
 40
0.0
 40
0.0
 40
0.0
 40
0.0
 40
0.0263502572266938
 40
0.0534675824120854
 40
0.079817014120175
 40
0.1069249874480421
 40
0.1333767370878493
 40
0.1605912854447265
 40
0.1871090242147898
 40
0.2144019329184816
 40
0.2408067569166244
 40
0.2679843844112712
 40
0.2942734632280502
 40
0.321321884690268
 40
0.3476729092398924
 40
0.3747798402617267
 40
0.4012735626604854
 40
0.4285349241880733
 40
0.4550302635050308
 40
0.4823020260141937
 40
0.5086560936465518
 40
0.5357786185636035
 40
0.5620689398423161
 40
0.589115681204601
 40
0.6155170625262465
 40
0.6426771491972302
 40
0.669193726472746
 40
0.6964822548574177
 40
0.7229379970223134
 40
0.750169399503809
 40
0.776481685175898
 40
0.8035576939199317
 40
0.8298683372419877
 40
0.8569340128220188
 40
0.8833865738313273
 40
0.9106020148702404
 40
0.9371194877304293
 40
0.9644121347956487
 40
0.9999999999999999
 40
0.9999999999999999
 40
0.9999999999999999
 40
0.9999999999999999
 10
102.2709362952325
 20
95.13553757929323
 30
0.0
 10
102.386911792025
 20
95.12996756238365
 30
0.0
 10
102.6222388850089
 20
95.11866538284181
 30
0.0
 10
102.963707228758
 20
95.02776359838225
 30
0.0
 10
103.2884866794539
 20
94.88402986866302
 30
0.0
 10
103.5820550844201
 20
94.68858057805348
 30
0.0
 10
103.8414453060435
 20
94.44459873855477
 30
0.0
 10
104.0547890845678
 20
94.16243682649747
 30
0.0
 10
104.2194518752417
 20
93.84516702327394
 30
0.0
 10
104.3274046261806
 20
93.50778438776918
 30
0.0
 10
104.3775558503936
 20
93.15418123171472
 30
0.0
 10
104.3678202665942
 20
92.80141459086293
 30
0.0
 10
104.2986943639886
 20
92.45270399938083
 30
0.0
 10
104.173669393825
 20
92.12386067387543
 30
0.0
 10
103.993840007781
 20
91.81766954041618
 30
0.0
 10
103.7669607668832
 20
91.54768085470252
 30
0.0
 10
103.4951074496847
 20
91.31697069171375
 30
0.0
 10
103.1904613870742
 20
91.13643691504878
 30
0.0
 10
102.8565550518127
 20
91.00841516067369
 30
0.0
 10
102.5094814969876
 20
90.93909229788656
 30
0.0
 10
102.1530067866035
 20
90.92891754495324
 30
0.0
 10
101.804048453332
 20
90.9779548124537
 30
0.0
 10
101.4655671690005
 20
91.08544853434803
 30
0.0
 10
101.1526360627607
 20
91.24640359626623
 30
0.0
 10
100.8681361685219
 20
91.45949809882705
 30
0.0
 10
100.6248518695866
 20
91.71556061859495
 30
0.0
 10
100.4257912663914
 20
92.01200910677755
 30
0.0
 10
100.2805576815204
 20
92.33516938821586
 30
0.0
 10
100.1909011521281
 20
92.68123937696684
 30
0.0
 10
100.1609931494038
 20
93.03342962443132
 30
0.0
 10
100.1907392041181
 20
93.38821641336303
 30
0.0
 10
100.2783273453141
 20
93.72913087726408
 30
0.0
 10
100.4228232658518
 20
94.0533617481327
 30
0.0
 10
100.6178385944722
 20
94.34664228826219
 30
0.0
 10
100.8617382110124
 20
94.60585289801647
 30
0.0
 10
101.1438614974004
 20
94.81950700440589
 30
0.0
 10
101.4611537713934
 20
94.98316960028028
 30
0.0
 10
101.8370264374335
 20
95.10785178167976
 30
0.0
 10
102.1141151316637
 20
95.12553154020921
 30
0.0
 10
102.2709362952325
 20
95.13553757929323
 30
0.0
  0
SPLINE
  5
1FF
330
1F
100
AcDbEntity
  8
0
  6
Continuous
 62
     7
370
    25
100
AcDbSpline
210
0.0
220
0.0
230
1.0
 70
     8
 71
     3
 72
    17
 73
    13
 74
     0
 42
0.000000001
 43
0.00000001
 40
0.0
 40
0.0
 40
0.0
 40
0.0
 40
0.1069146075545908
 40
0.2138131957824918
 40
0.3211284641090222
 40
0.4287268938277937
 40
0.535868826410884
 40
0.6425263570340772
 40
0.7494272702455274
 40
0.8569181333416158
 40
0.9644285773322453
 40
1.0
 40
1.0
 40
1.0
 40
1.0
 10
121.0209362952325
 20
90.93553757929342
 30
0.0
 10
121.0182799265611
 20
90.95860773163633
 30
0.0
 10
121.0129675872298
 20
91.00474457965412
 30
0.0
 10
120.9759816212477
 20
91.36421614078911
 30
0.0
 10
120.9346036985686
 20
91.89477882025531
 30
0.0
 10
120.9045887651323
 20
92.55944801842622
 30
0.0
 10
120.8999748609075
 20
93.27606633021652
 30
0.0
 10
120.9222658243184
 20
93.96278756446901
 30
0.0
 10
120.9622501479345
 20
94.55018617234899
 30
0.0
 10
121.0004946819941
 20
94.95301077488324
 30
0.0
 10
121.0220803593866
 20
95.14589192129182
 30
0.0
 10
121.0188297483784
 20
95.11656052646181
 30
0.0
 10
121.0180216176152
 20
95.10926848123415
 30
0.0
  0
LINE
  5
200
330
1F
100
AcDbEntity
  8
0
  6
Continuous
 62
     7
370
    25
100
AcDbLine
 10
121.0209362952
 20
95.5855375793
 30
0.0
 11
83.5209362952
 21
95.5855375793
 31
0.0
  0
LINE
  5
201
330
1F
100
AcDbEntity
  8
0
  6
Continuous
 62
     7
370
    25
100
AcDbLine
 10
84.2709362952
 20
96.3355375793
 30
0.0
 11
120.2709362952
 21
96.3355375793
 31
0.0
  0
LINE
  5
202
330
1F
100
AcDbEntity
  8
0
  6
Continuous
 62
     7
370
    25
100
AcDbLine
 10
257.2709362952
 20
84.3355375793
 30
0.0
 11
257.2709362952
 21
89.3355375793
 31
0.0
  0
LINE
  5
203
330
1F
100
AcDbEntity
  8
0
  6
Continuous
 62
     7
370
    25
100
AcDbLine
 10
257.2709362952
 20
89.3355375793
 30
0.0
 11
258.2709362952
 21
89.3355375793
 31
0.0
  0
LINE
  5
204
330
1F
100
AcDbEntity
  8
0
  6
Continuous
 62
     7
370
    25
100
AcDbLine
 10
258.2709362952
 20
89.3355375793
 30
0.0
 11
258.2709362952
 21
84.3355375793
 31
0.0
  0
LINE
  5
205
330
1F
100
AcDbEntity
  8
0
  6
Continuous
 62
     7
370
    25
100
AcDbLine
 10
258.2709362952
 20
84.3355375793
 30
0.0
 11
257.2709362952
 21
84.3355375793
 31
0.0
  0
LINE
  5
206
330
1F
100
AcDbEntity
  8
0
  6
Continuous
 62
     7
370
    25
100
AcDbLine
 10
257.2709362952
 20
89.3355375793
 30
0.0
 11
257.2709362952
 21
90.3355375793
 31
0.0
  0
LINE
  5
207
330
1F
100
AcDbEntity
  8
0
  6
Continuous
 62
     7
370
    25
100
AcDbLine
 10
258.2709362952
 20
89.3355375793
 30
0.0
 11
257.2709362952
 21
90.3355375793
 31
0.0
  0
LINE
  5
208
330
1F
100
AcDbEntity
  8
0
  6
Continuous
 62
     7
370
    25
100
AcDbLine
 10
257.2709362952
 20
84.3355375793
 30
0.0
 11
79.2709362952
 21
84.3355375793
 31
0.0
  0
LINE
  5
209
330
1F
100
AcDbEntity
  8
0
  6
Continuous
 62
     7
370
    25
100
AcDbLine
 10
79.2709362952
 20
89.3355375793
 30
0.0
 11
79.2709362952
 21
84.3355375793
 31
0.0
  0
LINE
  5
20A
330
1F
100
AcDbEntity
  8
0
  6
Continuous
 62
     7
370
    25
100
AcDbLine
 10
257.2709362952
 20
89.3355375793
 30
0.0
 11
79.2709362952
 21
89.3355375793
 31
0.0
  0
LINE
  5
20B
330
1F
100
AcDbEntity
  8
0
  6
Continuous
 62
     7
370
    25
100
AcDbLine
 10
79.2709362952
 20
89.3355375793
 30
0.0
 11
79.2709362952
 21
90.3355375793
 31
0.0
  0
LINE
  5
20C
330
1F
100
AcDbEntity
  8
0
  6
Continuous
 62
     7
370
    25
100
AcDbLine
 10
79.2709362952
 20
90.3355375793
 30
0.0
 11
257.2709362952
 21
90.3355375793
 31
0.0
  0
LINE
  5
20D
330
1F
100
AcDbEntity
  8
0
  6
Continuous
 62
     7
370
    25
100
AcDbLine
 10
78.2709362952
 20
89.3355375793
 30
0.0
 11
79.2709362952
 21
90.3355375793
 31
0.0
  0
LINE
  5
20E
330
1F
100
AcDbEntity
  8
0
  6
Continuous
 62
     7
370
    25
100
AcDbLine
 10
78.2709362952
 20
89.3355375793
 30
0.0
 11
79.2709362952
 21
89.3355375793
 31
0.0
  0
LINE
  5
20F
330
1F
100
AcDbEntity
  8
0
  6
Continuous
 62
     7
370
    25
100
AcDbLine
 10
78.2709362952
 20
84.3355375793
 30
0.0
 11
78.2709362952
 21
89.3355375793
 31
0.0
  0
LINE
  5
210
330
1F
100
AcDbEntity
  8
0
  6
Continuous
 62
     7
370
    25
100
AcDbLine
 10
79.2709362952
 20
84.3355375793
 30
0.0
 11
78.2709362952
 21
84.3355375793
 31
0.0
  0
DIMENSION
  5
211
330
1F
100
AcDbEntity
  8
0
100
AcDbDimension
  2
_D_2
 10
111.2209362952
 20
51.6950020724
 30
0.0
 11
102.2709362952
 21
51.6950020724
 31
0.0
 70
   160
  1
%%c<>
 71
     2
 42
-1.0
  3
SLDDIMSTYLE1
100
AcDbAlignedDimension
 13
93.3209362952
 23
75.8355375793
 33
0.0
 14
111.2209362952
 24
75.8355375793
 34
0.0
100
AcDbRotatedDimension
  0
DIMENSION
  5
229
330
1F
100
AcDbEntity
  8
0
100
AcDbDimension
  2
_D_3
 10
247.2209362952
 20
51.6950020724
 30
0.0
 11
238.2709362952
 21
51.6950020724
 31
0.0
 70
   160
  1
%%c<>
 71
     2
 42
-1.0
  3
SLDDIMSTYLE1
100
AcDbAlignedDimension
 13
229.3209362952
 23
75.8355375793
 33
0.0
 14
247.2209362952
 24
75.8355375793
 34
0.0
100
AcDbRotatedDimension
  0
ENDSEC
  0
SECTION
  2
OBJECTS
  0
DICTIONARY
  5
C
330
0
100
AcDbDictionary
281
     1
  3
ACAD_GROUP
350
D
  3
ACAD_LAYOUT
350
1A
  3
ACAD_MLINESTYLE
350
17
  3
ACAD_PLOTSETTINGS
350
19
  3
ACAD_PLOTSTYLENAME
350
E
  3
ACAD_SCALELIST
350
47
  0
DICTIONARY
  5
D
102
{ACAD_REACTORS
330
C
102
}
330
C
100
AcDbDictionary
281
     1
  0
DICTIONARY
  5
1A
102
{ACAD_REACTORS
330
C
102
}
330
C
100
AcDbDictionary
281
     1
  3
Layout1
350
1E
  3
Layout2
350
26
  3
Model
350
22
  0
DICTIONARY
  5
17
102
{ACAD_REACTORS
330
C
102
}
330
C
100
AcDbDictionary
281
     1
  3
Standard
350
18
  0
DICTIONARY
  5
19
102
{ACAD_REACTORS
330
C
102
}
330
C
100
AcDbDictionary
281
     1
  0
ACDBDICTIONARYWDFLT
  5
E
102
{ACAD_REACTORS
330
C
102
}
330
C
100
AcDbDictionary
281
     1
  3
Normal
350
F
100
AcDbDictionaryWithDefault
340
F
  0
DICTIONARY
  5
47
102
{ACAD_REACTORS
330
C
102
}
330
C
100
AcDbDictionary
281
     1
  3
A0
350
48
  3
A1
350
49
  3
A2
350
4A
  3
A3
350
4B
  3
A4
350
4C
  3
A5
350
4D
  3
A6
350
4E
  3
A7
350
4F
  3
A8
350
50
  3
A9
350
51
  3
B0
350
52
  3
B1
350
53
  3
B2
350
54
  3
B3
350
55
  3
B4
350
56
  3
B5
350
57
  3
B6
350
58
  3
B7
350
59
  3
B8
350
5A
  3
B9
350
5B
  3
C0
350
5C
  3
C1
350
5D
  3
C2
350
5E
  3
C3
350
5F
  3
C4
350
60
  3
C5
350
61
  3
C6
350
62
  3
C7
350
63
  3
C8
350
64
  3
C9
350
65
  3
D0
350
66
  3
D1
350
67
  3
D2
350
68
  0
LAYOUT
  5
1E
102
{ACAD_REACTORS
330
1A
102
}
330
1A
100
AcDbPlotSettings
  1

  2
none_device
  4

  6

 40
0.0
 41
0.0
 42
0.0
 43
0.0
 44
0.0
 45
0.0
 46
0.0
 47
0.0
 48
0.0
 49
0.0
140
0.0
141
0.0
142
1.0
143
1.0
 70
   688
 72
     1
 73
     0
 74
     5
  7

 75
    16
147
1.0
148
0.0
149
0.0
100
AcDbLayout
  1
Layout1
 70
     1
 71
     1
 10
0.0
 20
0.0
 11
420.0
 21
297.0
 12
0.0
 22
0.0
 32
0.0
 14
1.0000000000E+20
 24
1.0000000000E+20
 34
1.0000000000E+20
 15
-1.0000000000E+20
 25
-1.0000000000E+20
 35
-1.0000000000E+20
146
0.0
 13
0.0
 23
0.0
 33
0.0
 16
1.0
 26
0.0
 36
0.0
 17
0.0
 27
1.0
 37
0.0
 76
     0
330
1B
  0
LAYOUT
  5
26
102
{ACAD_REACTORS
330
1A
102
}
330
1A
100
AcDbPlotSettings
  1

  2
none_device
  4

  6

 40
0.0
 41
0.0
 42
0.0
 43
0.0
 44
0.0
 45
0.0
 46
0.0
 47
0.0
 48
0.0
 49
0.0
140
0.0
141
0.0
142
1.0
143
1.0
 70
   688
 72
     1
 73
     0
 74
     5
  7

 75
    16
147
1.0
148
0.0
149
0.0
100
AcDbLayout
  1
Layout2
 70
     1
 71
     2
 10
0.0
 20
0.0
 11
0.0
 21
0.0
 12
0.0
 22
0.0
 32
0.0
 14
0.0
 24
0.0
 34
0.0
 15
0.0
 25
0.0
 35
0.0
146
0.0
 13
0.0
 23
0.0
 33
0.0
 16
1.0
 26
0.0
 36
0.0
 17
0.0
 27
1.0
 37
0.0
 76
     0
330
23
  0
LAYOUT
  5
22
102
{ACAD_REACTORS
330
1A
102
}
330
1A
100
AcDbPlotSettings
  1

  2
none_device
  4
Letter_(8.50_x_11.00_Inches)
  6

 40
6.35
 41
6.35
 42
6.35000508
 43
6.35000508
 44
215.9
 45
279.4
 46
0.0
 47
0.0
 48
0.0
 49
0.0
140
0.0
141
0.0
142
1.0
143
1.0
 70
  1712
 72
     1
 73
     0
 74
     0
  7

 75
     0
147
1.0
148
0.0
149
0.0
100
AcDbLayout
  1
Model
 70
     1
 71
     0
 10
0.0
 20
0.0
 11
431.8
 21
279.4
 12
0.0
 22
0.0
 32
0.0
 14
0.0
 24
0.0
 34
0.0
 15
431.8
 25
279.4
 35
0.0
146
0.0
 13
0.0
 23
0.0
 33
0.0
 16
1.0
 26
0.0
 36
0.0
 17
0.0
 27
1.0
 37
0.0
 76
     0
330
1F
331
29
  0
MLINESTYLE
  5
18
102
{ACAD_REACTORS
330
17
102
}
330
17
100
AcDbMlineStyle
  2
Standard
 70
     0
  3

 62
   256
 51
90.0
 52
90.0
 71
     2
 49
0.5
 62
   256
  6
BYLAYER
 49
-0.5
 62
   256
  6
BYLAYER
  0
ACDBPLACEHOLDER
  5
F
102
{ACAD_REACTORS
330
E
102
}
330
E
  0
SCALE
  5
48
102
{ACAD_REACTORS
330
47
102
}
330
47
100
AcDbScale
 70
     0
300
1:1
140
1.0
141
1.0
290
     1
  0
SCALE
  5
49
102
{ACAD_REACTORS
330
47
102
}
330
47
100
AcDbScale
 70
     0
300
1:2
140
1.0
141
2.0
290
     0
  0
SCALE
  5
4A
102
{ACAD_REACTORS
330
47
102
}
330
47
100
AcDbScale
 70
     0
300
1:4
140
1.0
141
4.0
290
     0
  0
SCALE
  5
4B
102
{ACAD_REACTORS
330
47
102
}
330
47
100
AcDbScale
 70
     0
300
1:5
140
1.0
141
5.0
290
     0
  0
SCALE
  5
4C
102
{ACAD_REACTORS
330
47
102
}
330
47
100
AcDbScale
 70
     0
300
1:8
140
1.0
141
8.0
290
     0
  0
SCALE
  5
4D
102
{ACAD_REACTORS
330
47
102
}
330
47
100
AcDbScale
 70
     0
300
1:10
140
1.0
141
10.0
290
     0
  0
SCALE
  5
4E
102
{ACAD_REACTORS
330
47
102
}
330
47
100
AcDbScale
 70
     0
300
1:16
140
1.0
141
16.0
290
     0
  0
SCALE
  5
4F
102
{ACAD_REACTORS
330
47
102
}
330
47
100
AcDbScale
 70
     0
300
1:20
140
1.0
141
20.0
290
     0
  0
SCALE
  5
50
102
{ACAD_REACTORS
330
47
102
}
330
47
100
AcDbScale
 70
     0
300
1:30
140
1.0
141
30.0
290
     0
  0
SCALE
  5
51
102
{ACAD_REACTORS
330
47
102
}
330
47
100
AcDbScale
 70
     0
300
1:40
140
1.0
141
40.0
290
     0
  0
SCALE
  5
52
102
{ACAD_REACTORS
330
47
102
}
330
47
100
AcDbScale
 70
     0
300
1:50
140
1.0
141
50.0
290
     0
  0
SCALE
  5
53
102
{ACAD_REACTORS
330
47
102
}
330
47
100
AcDbScale
 70
     0
300
1:100
140
1.0
141
100.0
290
     0
  0
SCALE
  5
54
102
{ACAD_REACTORS
330
47
102
}
330
47
100
AcDbScale
 70
     0
300
2:1
140
2.0
141
1.0
290
     0
  0
SCALE
  5
55
102
{ACAD_REACTORS
330
47
102
}
330
47
100
AcDbScale
 70
     0
300
4:1
140
4.0
141
1.0
290
     0
  0
SCALE
  5
56
102
{ACAD_REACTORS
330
47
102
}
330
47
100
AcDbScale
 70
     0
300
8:1
140
8.0
141
1.0
290
     0
  0
SCALE
  5
57
102
{ACAD_REACTORS
330
47
102
}
330
47
100
AcDbScale
 70
     0
300
10:1
140
10.0
141
1.0
290
     0
  0
SCALE
  5
58
102
{ACAD_REACTORS
330
47
102
}
330
47
100
AcDbScale
 70
     0
300
100:1
140
100.0
141
1.0
290
     0
  0
SCALE
  5
59
102
{ACAD_REACTORS
330
47
102
}
330
47
100
AcDbScale
 70
     0
300
1/128" = 1'-0"
140
0.0078125
141
12.0
290
     0
  0
SCALE
  5
5A
102
{ACAD_REACTORS
330
47
102
}
330
47
100
AcDbScale
 70
     0
300
1/64" = 1'-0"
140
0.015625
141
12.0
290
     0
  0
SCALE
  5
5B
102
{ACAD_REACTORS
330
47
102
}
330
47
100
AcDbScale
 70
     0
300
1/32" = 1'-0"
140
0.03125
141
12.0
290
     0
  0
SCALE
  5
5C
102
{ACAD_REACTORS
330
47
102
}
330
47
100
AcDbScale
 70
     0
300
1/16" = 1'-0"
140
0.0625
141
12.0
290
     0
  0
SCALE
  5
5D
102
{ACAD_REACTORS
330
47
102
}
330
47
100
AcDbScale
 70
     0
300
3/32" = 1'-0"
140
0.09375
141
12.0
290
     0
  0
SCALE
  5
5E
102
{ACAD_REACTORS
330
47
102
}
330
47
100
AcDbScale
 70
     0
300
1/8" = 1'-0"
140
0.125
141
12.0
290
     0
  0
SCALE
  5
5F
102
{ACAD_REACTORS
330
47
102
}
330
47
100
AcDbScale
 70
     0
300
3/16" = 1'-0"
140
0.1875
141
12.0
290
     0
  0
SCALE
  5
60
102
{ACAD_REACTORS
330
47
102
}
330
47
100
AcDbScale
 70
     0
300
1/4" = 1'-0"
140
0.25
141
12.0
290
     0
  0
SCALE
  5
61
102
{ACAD_REACTORS
330
47
102
}
330
47
100
AcDbScale
 70
     0
300
3/8" = 1'-0"
140
0.375
141
12.0
290
     0
  0
SCALE
  5
62
102
{ACAD_REACTORS
330
47
102
}
330
47
100
AcDbScale
 70
     0
300
1/2" = 1'-0"
140
0.5
141
12.0
290
     0
  0
SCALE
  5
63
102
{ACAD_REACTORS
330
47
102
}
330
47
100
AcDbScale
 70
     0
300
3/4" = 1'-0"
140
0.75
141
12.0
290
     0
  0
SCALE
  5
64
102
{ACAD_REACTORS
330
47
102
}
330
47
100
AcDbScale
 70
     0
300
1" = 1'-0"
140
1.0
141
12.0
290
     0
  0
SCALE
  5
65
102
{ACAD_REACTORS
330
47
102
}
330
47
100
AcDbScale
 70
     0
300
1-1/2" = 1'-0"
140
1.5
141
12.0
290
     0
  0
SCALE
  5
66
102
{ACAD_REACTORS
330
47
102
}
330
47
100
AcDbScale
 70
     0
300
3" = 1'-0"
140
3.0
141
12.0
290
     0
  0
SCALE
  5
67
102
{ACAD_REACTORS
330
47
102
}
330
47
100
AcDbScale
 70
     0
300
6" = 1'-0"
140
6.0
141
12.0
290
     0
  0
SCALE
  5
68
102
{ACAD_REACTORS
330
47
102
}
330
47
100
AcDbScale
 70
     0
300
1'-0" = 1'-0"
140
12.0
141
12.0
290
     0
  0
ENDSEC
  0
EOF
