  0
SECTION
  2
HEADER
  9
$ACADVER
  1
AC1015
  9
$ACADMAINTVER
 70
     6
  9
$DWGCODEPAGE
  3
ANSI_1252
  9
$INSBASE
 10
0.0
 20
0.0
 30
0.0
  9
$EXTMIN
 10
0.0
 20
0.0
 30
0.0
  9
$EXTMAX
 10
431.8
 20
279.4
 30
0.0
  9
$LIMMIN
 10
0.0
 20
0.0
  9
$LIMMAX
 10
431.8
 20
279.4
  9
$ORTHOMODE
 70
     0
  9
$REGENMODE
 70
     1
  9
$FILLMODE
 70
     1
  9
$QTEXTMODE
 70
     0
  9
$MIRRTEXT
 70
     1
  9
$LTSCALE
 40
1.0
  9
$ATTMODE
 70
     1
  9
$TEXTSIZE
 40
4.9388888889
  9
$TRACEWID
 40
1.0
  9
$TEXTSTYLE
  7
Standard
  9
$CLAYER
  8
0
  9
$CELTYPE
  6
ByLayer
  9
$CECOLOR
 62
   256
  9
$CELTSCALE
 40
1.0
  9
$DISPSILH
 70
     0
  9
$DIMSCALE
 40
1.0
  9
$DIMASZ
 40
5.1366373698
  9
$DIMEXO
 40
2.0
  9
$DIMDLI
 40
3.75
  9
$DIMRND
 40
0.0
  9
$DIMDLE
 40
0.0
  9
$DIMEXE
 40
2.0
  9
$DIMTP
 40
0.0
  9
$DIMTM
 40
0.0
  9
$DIMTXT
 40
7.0555555556
  9
$DIMCEN
 40
2.5
  9
$DIMTSZ
 40
0.0
  9
$DIMTOL
 70
     0
  9
$DIMLIM
 70
     0
  9
$DIMTIH
 70
     1
  9
$DIMTOH
 70
     1
  9
$DIMSE1
 70
     0
  9
$DIMSE2
 70
     0
  9
$DIMTAD
 70
     1
  9
$DIMZIN
 70
     0
  9
$DIMBLK
  1

  9
$DIMASO
 70
     1
  9
$DIMSHO
 70
     1
  9
$DIMPOST
  1

  9
$DIMAPOST
  1

  9
$DIMALT
 70
     0
  9
$DIMALTD
 70
     3
  9
$DIMALTF
 40
0.0393700787
  9
$DIMLFAC
 40
1.0
  9
$DIMTOFL
 70
     1
  9
$DIMTVP
 40
0.0
  9
$DIMTIX
 70
     0
  9
$DIMSOXD
 70
     0
  9
$DIMSAH
 70
     0
  9
$DIMBLK1
  1

  9
$DIMBLK2
  1

  9
$DIMSTYLE
  2
ISO-25
  9
$DIMCLRD
 70
     0
  9
$DIMCLRE
 70
     0
  9
$DIMCLRT
 70
     0
  9
$DIMTFAC
 40
1.0
  9
$DIMGAP
 40
2.0
  9
$DIMJUST
 70
     0
  9
$DIMSD1
 70
     0
  9
$DIMSD2
 70
     0
  9
$DIMTOLJ
 70
     0
  9
$DIMTZIN
 70
     0
  9
$DIMALTZ
 70
     0
  9
$DIMALTTZ
 70
     0
  9
$DIMUPT
 70
     0
  9
$DIMDEC
 70
     2
  9
$DIMTDEC
 70
     2
  9
$DIMALTU
 70
     2
  9
$DIMALTTD
 70
     3
  9
$DIMTXSTY
  7
Standard
  9
$DIMAUNIT
 70
     0
  9
$DIMADEC
 70
     2
  9
$DIMALTRND
 40
0.0
  9
$DIMAZIN
 70
     0
  9
$DIMDSEP
 70
    44
  9
$DIMATFIT
 70
     3
  9
$DIMFRAC
 70
     0
  9
$DIMLDRBLK
  1

  9
$DIMLUNIT
 70
     2
  9
$DIMLWD
 70
    -2
  9
$DIMLWE
 70
    -2
  9
$DIMTMOVE
 70
     0
  9
$LUNITS
 70
     2
  9
$LUPREC
 70
     2
  9
$SKETCHINC
 40
1.0
  9
$FILLETRAD
 40
10.0
  9
$AUNITS
 70
     0
  9
$AUPREC
 70
     2
  9
$MENU
  1
.
  9
$ELEVATION
 40
0.0
  9
$PELEVATION
 40
0.0
  9
$THICKNESS
 40
0.0
  9
$LIMCHECK
 70
     0
  9
$CHAMFERA
 40
10.0
  9
$CHAMFERB
 40
10.0
  9
$CHAMFERC
 40
20.0
  9
$CHAMFERD
 40
0.0
  9
$SKPOLY
 70
     0
  9
$TDCREATE
 40
2457294.448775128
  9
$TDUCREATE
 40
2457294.365441794
  9
$TDUPDATE
 40
2457294.448775139
  9
$TDUUPDATE
 40
2457294.365441806
  9
$TDINDWG
 40
0.0000000116
  9
$TDUSRTIMER
 40
0.0000000116
  9
$USRTIMER
 70
     1
  9
$ANGBASE
 50
0.0
  9
$ANGDIR
 70
     0
  9
$PDMODE
 70
     0
  9
$PDSIZE
 40
-1.0
  9
$PLINEWID
 40
0.0
  9
$SPLFRAME
 70
     0
  9
$SPLINETYPE
 70
     6
  9
$SPLINESEGS
 70
     8
  9
$HANDSEED
  5
256
  9
$SURFTAB1
 70
     6
  9
$SURFTAB2
 70
     6
  9
$SURFTYPE
 70
     6
  9
$SURFU
 70
     6
  9
$SURFV
 70
     6
  9
$UCSBASE
  2

  9
$UCSNAME
  2

  9
$UCSORG
 10
0.0
 20
0.0
 30
0.0
  9
$UCSXDIR
 10
1.0
 20
0.0
 30
0.0
  9
$UCSYDIR
 10
0.0
 20
1.0
 30
0.0
  9
$UCSORTHOREF
  2

  9
$UCSORTHOVIEW
 70
     0
  9
$UCSORGTOP
 10
0.0
 20
0.0
 30
0.0
  9
$UCSORGBOTTOM
 10
0.0
 20
0.0
 30
0.0
  9
$UCSORGLEFT
 10
0.0
 20
0.0
 30
0.0
  9
$UCSORGRIGHT
 10
0.0
 20
0.0
 30
0.0
  9
$UCSORGFRONT
 10
0.0
 20
0.0
 30
0.0
  9
$UCSORGBACK
 10
0.0
 20
0.0
 30
0.0
  9
$PUCSBASE
  2

  9
$PUCSNAME
  2

  9
$PUCSORG
 10
0.0
 20
0.0
 30
0.0
  9
$PUCSXDIR
 10
1.0
 20
0.0
 30
0.0
  9
$PUCSYDIR
 10
0.0
 20
1.0
 30
0.0
  9
$PUCSORTHOREF
  2

  9
$PUCSORTHOVIEW
 70
     0
  9
$PUCSORGTOP
 10
0.0
 20
0.0
 30
0.0
  9
$PUCSORGBOTTOM
 10
0.0
 20
0.0
 30
0.0
  9
$PUCSORGLEFT
 10
0.0
 20
0.0
 30
0.0
  9
$PUCSORGRIGHT
 10
0.0
 20
0.0
 30
0.0
  9
$PUCSORGFRONT
 10
0.0
 20
0.0
 30
0.0
  9
$PUCSORGBACK
 10
0.0
 20
0.0
 30
0.0
  9
$USERI1
 70
     0
  9
$USERI2
 70
     0
  9
$USERI3
 70
     0
  9
$USERI4
 70
     0
  9
$USERI5
 70
     0
  9
$USERR1
 40
0.0
  9
$USERR2
 40
0.0
  9
$USERR3
 40
0.0
  9
$USERR4
 40
0.0
  9
$USERR5
 40
0.0
  9
$WORLDVIEW
 70
     1
  9
$SHADEDGE
 70
     3
  9
$SHADEDIF
 70
    70
  9
$TILEMODE
 70
     1
  9
$MAXACTVP
 70
    64
  9
$PINSBASE
 10
0.0
 20
0.0
 30
0.0
  9
$PLIMCHECK
 70
     0
  9
$PEXTMIN
 10
1.0000000000E+20
 20
1.0000000000E+20
 30
1.0000000000E+20
  9
$PEXTMAX
 10
-1.0000000000E+20
 20
-1.0000000000E+20
 30
-1.0000000000E+20
  9
$PLIMMIN
 10
0.0
 20
0.0
  9
$PLIMMAX
 10
420.0
 20
297.0
  9
$UNITMODE
 70
     0
  9
$VISRETAIN
 70
     1
  9
$PLINEGEN
 70
     0
  9
$PSLTSCALE
 70
     1
  9
$TREEDEPTH
 70
  3020
  9
$CMLSTYLE
  2
Standard
  9
$CMLJUST
 70
     0
  9
$CMLSCALE
 40
20.0
  9
$PROXYGRAPHICS
 70
     1
  9
$MEASUREMENT
 70
     1
  9
$CELWEIGHT
370
    -1
  9
$ENDCAPS
280
     0
  9
$JOINSTYLE
280
     0
  9
$LWDISPLAY
290
     1
  9
$INSUNITS
 70
     4
  9
$HYPERLINKBASE
  1

  9
$STYLESHEET
  1

  9
$XEDIT
290
     1
  9
$CEPSNTYPE
380
     0
  9
$PSTYLEMODE
290
     1
  9
$FINGERPRINTGUID
  2
{DC53E5C3-7AE7-44AB-8496-ED31E76316F4}
  9
$VERSIONGUID
  2
{FAEB1C32-E019-11D5-929B-00C0DF256EC4}
  9
$EXTNAMES
290
     1
  9
$PSVPSCALE
 40
0.0
  9
$OLESTARTUP
290
     0
  0
ENDSEC
  0
SECTION
  2
CLASSES
  0
CLASS
  1
ACDBDICTIONARYWDFLT
  2
AcDbDictionaryWithDefault
  3
ObjectDBX Classes
 90
        0
280
     0
281
     0
  0
CLASS
  1
VISUALSTYLE
  2
AcDbVisualStyle
  3
ObjectDBX Classes
 90
     4095
280
     0
281
     0
  0
CLASS
  1
MATERIAL
  2
AcDbMaterial
  3
ObjectDBX Classes
 90
     1153
280
     0
281
     0
  0
CLASS
  1
SCALE
  2
AcDbScale
  3
ObjectDBX Classes
 90
     1153
280
     0
281
     0
  0
CLASS
  1
DICTIONARYVAR
  2
AcDbDictionaryVar
  3
ObjectDBX Classes
 90
        0
280
     0
281
     0
  0
CLASS
  1
ACDBPLACEHOLDER
  2
AcDbPlaceHolder
  3
ObjectDBX Classes
 90
        0
280
     0
281
     0
  0
CLASS
  1
LAYOUT
  2
AcDbLayout
  3
ObjectDBX Classes
 90
        0
280
     0
281
     0
  0
ENDSEC
  0
SECTION
  2
TABLES
  0
TABLE
  2
VPORT
  5
8
330
0
100
AcDbSymbolTable
 70
     1
  0
VPORT
  5
29
330
8
100
AcDbSymbolTableRecord
100
AcDbViewportTableRecord
  2
*Active
 70
     0
 10
0.0
 20
0.0
 11
1.0
 21
1.0
 12
215.9
 22
139.7
 13
0.0
 23
0.0
 14
10.0
 24
10.0
 15
10.0
 25
10.0
 16
0.0
 26
0.0
 36
1.0
 17
0.0
 27
0.0
 37
0.0
 40
279.4
 41
1.5454545455
 42
50.0
 43
0.0
 44
0.0
 50
0.0
 51
0.0
 71
     0
 72
  2000
 73
     1
 74
     3
 75
     0
 76
     0
 77
     0
 78
     0
281
     0
 65
     1
110
0.0
120
0.0
130
0.0
111
1.0
121
0.0
131
0.0
112
0.0
122
1.0
132
0.0
 79
     0
146
0.0
  0
ENDTAB
  0
TABLE
  2
LTYPE
  5
5
330
0
100
AcDbSymbolTable
 70
     6
  0
LTYPE
  5
14
330
5
100
AcDbSymbolTableRecord
100
AcDbLinetypeTableRecord
  2
ByBlock
 70
     0
  3

 72
    65
 73
     0
 40
0.0
  0
LTYPE
  5
15
330
5
100
AcDbSymbolTableRecord
100
AcDbLinetypeTableRecord
  2
ByLayer
 70
     0
  3

 72
    65
 73
     0
 40
0.0
  0
LTYPE
  5
16
330
5
100
AcDbSymbolTableRecord
100
AcDbLinetypeTableRecord
  2
Continuous
 70
     0
  3
Solid line
 72
    65
 73
     0
 40
0.0
  0
LTYPE
  5
3F
330
5
100
AcDbSymbolTableRecord
100
AcDbLinetypeTableRecord
  2
HIDDEN
 70
     0
  3
Hidden __ __ __ __ __ __ __ __ __ __ __ __ __ __
 72
    65
 73
     2
 40
1.905
 49
1.27
 74
     0
 49
-0.635
 74
     0
  0
LTYPE
  5
40
330
5
100
AcDbSymbolTableRecord
100
AcDbLinetypeTableRecord
  2
PHANTOM
 70
     0
  3
Phantom ______  __  __  ______  __  __  ______
 72
    65
 73
     6
 40
12.7
 49
6.35
 74
     0
 49
-1.27
 74
     0
 49
1.27
 74
     0
 49
-1.27
 74
     0
 49
1.27
 74
     0
 49
-1.27
 74
     0
  0
LTYPE
  5
41
330
5
100
AcDbSymbolTableRecord
100
AcDbLinetypeTableRecord
  2
CENTER
 70
     0
  3
Center ____ _ ____ _ ____ _ ____ _ ____ _ ____
 72
    65
 73
     4
 40
10.16
 49
6.35
 74
     0
 49
-1.27
 74
     0
 49
1.27
 74
     0
 49
-1.27
 74
     0
  0
LTYPE
  5
42
330
5
100
AcDbSymbolTableRecord
100
AcDbLinetypeTableRecord
  2
CENTERX2
 70
     0
  3
Center (2x) ________  __  ________  __  _____
 72
    65
 73
     4
 40
20.32
 49
12.7
 74
     0
 49
-2.54
 74
     0
 49
2.54
 74
     0
 49
-2.54
 74
     0
  0
LTYPE
  5
43
330
5
100
AcDbSymbolTableRecord
100
AcDbLinetypeTableRecord
  2
DOT2
 70
     0
  3
Dot (.5x) ........................................
 72
    65
 73
     2
 40
0.635
 49
0.0
 74
     0
 49
-0.635
 74
     0
  0
ENDTAB
  0
TABLE
  2
LAYER
  5
2
330
0
100
AcDbSymbolTable
 70
     1
  0
LAYER
  5
10
330
2
100
AcDbSymbolTableRecord
100
AcDbLayerTableRecord
  2
0
 70
     0
 62
     7
  6
Continuous
370
    -3
390
F
  0
ENDTAB
  0
TABLE
  2
STYLE
  5
3
330
0
100
AcDbSymbolTable
 70
     3
  0
STYLE
  5
11
330
3
100
AcDbSymbolTableRecord
100
AcDbTextStyleTableRecord
  2
Standard
 70
     0
 40
0.0
 41
1.0
 50
0.0
 71
     0
 42
2.5
  3
txt
  4

  0
STYLE
  5
44
330
3
100
AcDbSymbolTableRecord
100
AcDbTextStyleTableRecord
  2
SLDTEXTSTYLE0
 70
     0
 40
0.0
 41
0.75
 50
0.0
 71
     0
 42
0.2
  3
TXT
  4

  0
STYLE
  5
6C
330
3
100
AcDbSymbolTableRecord
100
AcDbTextStyleTableRecord
  2
SLDTEXTSTYLE1
 70
     0
 40
0.0
 41
0.605
 50
0.0
 71
     0
 42
0.2
  3
TXT
  4

  0
ENDTAB
  0
TABLE
  2
VIEW
  5
6
330
0
100
AcDbSymbolTable
 70
     0
  0
ENDTAB
  0
TABLE
  2
UCS
  5
7
330
0
100
AcDbSymbolTable
 70
     0
  0
ENDTAB
  0
TABLE
  2
APPID
  5
9
330
0
100
AcDbSymbolTable
 70
     1
  0
APPID
  5
12
330
9
100
AcDbSymbolTableRecord
100
AcDbRegAppTableRecord
  2
ACAD
 70
     0
  0
ENDTAB
  0
TABLE
  2
DIMSTYLE
  5
A
330
0
100
AcDbSymbolTable
 70
     3
100
AcDbDimStyleTable
  0
DIMSTYLE
105
27
330
A
100
AcDbSymbolTableRecord
100
AcDbDimStyleTableRecord
  2
ISO-25
 70
     0
 41
2.5
 42
0.625
 43
3.75
 44
1.25
 73
     0
 74
     0
 77
     1
 78
     8
140
2.5
141
2.5
143
0.0393700787
147
0.625
171
     3
172
     1
271
     2
272
     2
274
     3
278
    44
283
     0
284
     8
340
11
  0
DIMSTYLE
105
DD
102
{ACAD_REACTORS
330
DC
330
1F0
330
203
102
}
330
A
100
AcDbSymbolTableRecord
100
AcDbDimStyleTableRecord
  2
SLDDIMSTYLE0
 70
     0
 41
5.1366373698
 44
0.0
 45
0.000000001
 78
    12
140
5.1366373698
143
0.0393700787
147
1.2841593424
148
0.000000001
170
     1
171
     4
173
     1
271
     2
272
     2
274
     4
284
    12
340
6C
  0
DIMSTYLE
105
1BC
102
{ACAD_REACTORS
330
1BB
330
216
102
}
330
A
100
AcDbSymbolTableRecord
100
AcDbDimStyleTableRecord
  2
SLDDIMSTYLE1
 70
     0
 41
5.1366373698
 44
0.0
 45
0.000000001
 78
    12
140
5.1366373698
143
0.0393700787
147
1.2841593424
148
0.000000001
170
     1
171
     4
173
     1
271
     2
272
     2
274
     4
284
    12
340
6C
  0
ENDTAB
  0
TABLE
  2
BLOCK_RECORD
  5
1
330
0
100
AcDbSymbolTable
 70
     7
  0
BLOCK_RECORD
  5
1F
330
1
100
AcDbSymbolTableRecord
100
AcDbBlockTableRecord
  2
*Model_Space
340
22
  0
BLOCK_RECORD
  5
1B
330
1
100
AcDbSymbolTableRecord
100
AcDbBlockTableRecord
  2
*Paper_Space
340
1E
  0
BLOCK_RECORD
  5
23
330
1
100
AcDbSymbolTableRecord
100
AcDbBlockTableRecord
  2
*Paper_Space0
340
26
  0
BLOCK_RECORD
  5
69
330
1
100
AcDbSymbolTableRecord
100
AcDbBlockTableRecord
  2
SW_NOTE_0
340
0
102
{BLKREFS
331
71
102
}
  0
BLOCK_RECORD
  5
DE
330
1
100
AcDbSymbolTableRecord
100
AcDbBlockTableRecord
  2
*D2
340
0
  0
BLOCK_RECORD
  5
1BD
330
1
100
AcDbSymbolTableRecord
100
AcDbBlockTableRecord
  2
*D3
340
0
  0
BLOCK_RECORD
  5
1F1
330
1
100
AcDbSymbolTableRecord
100
AcDbBlockTableRecord
  2
*D4
340
0
  0
BLOCK_RECORD
  5
204
330
1
100
AcDbSymbolTableRecord
100
AcDbBlockTableRecord
  2
*D5
340
0
  0
BLOCK_RECORD
  5
217
330
1
100
AcDbSymbolTableRecord
100
AcDbBlockTableRecord
  2
*D6
340
0
  0
ENDTAB
  0
ENDSEC
  0
SECTION
  2
BLOCKS
  0
BLOCK
  5
20
330
1F
100
AcDbEntity
  8
0
100
AcDbBlockBegin
  2
*Model_Space
 70
     0
 10
0.0
 20
0.0
 30
0.0
  3
*Model_Space
  1

  0
ENDBLK
  5
21
330
1F
100
AcDbEntity
  8
0
100
AcDbBlockEnd
  0
BLOCK
  5
1C
330
1B
100
AcDbEntity
 67
     1
  8
0
100
AcDbBlockBegin
  2
*Paper_Space
 70
     0
 10
0.0
 20
0.0
 30
0.0
  3
*Paper_Space
  1

  0
ENDBLK
  5
1D
330
1B
100
AcDbEntity
 67
     1
  8
0
100
AcDbBlockEnd
  0
BLOCK
  5
24
330
23
100
AcDbEntity
  8
0
100
AcDbBlockBegin
  2
*Paper_Space0
 70
     0
 10
0.0
 20
0.0
 30
0.0
  3
*Paper_Space0
  1

  0
ENDBLK
  5
25
330
23
100
AcDbEntity
  8
0
100
AcDbBlockEnd
  0
BLOCK
  5
6A
330
69
100
AcDbEntity
  8
0
100
AcDbBlockBegin
  2
SW_NOTE_0
 70
     0
 10
0.0
 20
0.0
 30
0.0
  3
SW_NOTE_0
  1

  0
MTEXT
  5
6D
330
69
100
AcDbEntity
  8
0
  6
Continuous
 62
     0
370
     0
100
AcDbMText
 10
0.0
 20
4.0927900738
 30
0.0
 40
3.175
 41
0.0
 71
     1
 72
     1
  1
ABP-Beyerle GmbH 
  7
SLDTEXTSTYLE1
 73
     1
 44
1.0
  0
MTEXT
  5
6E
330
69
100
AcDbEntity
  8
0
  6
Continuous
 62
     0
370
     0
100
AcDbMText
 10
-18.9323928207
 20
-0.1405432084
 30
0.0
 40
3.175
 41
0.0
 71
     1
 72
     1
  1
Im Schollengarten 24b, 76646 Bruchsal
  7
SLDTEXTSTYLE1
 73
     1
 44
1.0
  0
MTEXT
  5
6F
330
69
100
AcDbEntity
  8
0
  6
Continuous
 62
     0
370
     0
100
AcDbMText
 10
-28.5749789327
 20
-4.3738764906
 30
0.0
 40
3.175
 41
0.0
 71
     1
 72
     1
  1
Tel. +49 (0)7251-9127-0, Fax. +49 (0)7251-9127-29
  7
SLDTEXTSTYLE1
 73
     1
 44
1.0
  0
MTEXT
  5
70
330
69
100
AcDbEntity
  8
0
  6
Continuous
 62
     0
370
     0
100
AcDbMText
 10
-22.1720766276
 20
-8.6072097727
 30
0.0
 40
3.175
 41
0.0
 71
     1
 72
     1
  1
info@abp-beyerle.de, www.abp-beyerle.de
  7
SLDTEXTSTYLE1
 73
     1
 44
1.0
  0
ENDBLK
  5
6B
330
69
100
AcDbEntity
  8
0
100
AcDbBlockEnd
  0
BLOCK
  5
DF
330
DE
100
AcDbEntity
  8
0
100
AcDbBlockBegin
  2
*D2
 70
     1
 10
0.0
 20
0.0
 30
0.0
  3
*D2
  1

  0
SOLID
  5
E1
330
DE
100
AcDbEntity
  8
0
  6
Continuous
 62
     7
370
     0
100
AcDbTrace
 10
202.5260444003
 20
248.6175182882
 30
0.0
 11
197.3894070305
 21
249.4077701912
 31
0.0
 12
197.3894070305
 22
247.8272663851
 32
0.0
 13
197.3894070305
 23
247.8272663851
 33
0.0
  0
SOLID
  5
E2
330
DE
100
AcDbEntity
  8
0
  6
Continuous
 62
     7
370
     0
100
AcDbTrace
 10
242.5260444003
 20
248.6175182882
 30
0.0
 11
247.6626817701
 21
247.8272663851
 31
0.0
 12
247.6626817701
 22
249.4077701912
 32
0.0
 13
247.6626817701
 23
249.4077701912
 33
0.0
  0
LINE
  5
E3
330
DE
100
AcDbEntity
  8
0
  6
Continuous
 62
     7
370
     0
100
AcDbLine
 10
206.0402908378
 20
263.7961117208
 30
0.0
 11
206.0402908378
 21
257.0938756596
 31
0.0
  0
LINE
  5
E4
330
DE
100
AcDbEntity
  8
0
  6
Continuous
 62
     7
370
     0
100
AcDbLine
 10
206.0402908378
 20
257.0938756596
 30
0.0
 11
207.2152745854
 21
257.0938756596
 31
0.0
  0
LINE
  5
E5
330
DE
100
AcDbEntity
  8
0
  6
Continuous
 62
     7
370
     0
100
AcDbLine
 10
206.0402908378
 20
263.7961117208
 30
0.0
 11
207.2152745854
 21
263.7961117208
 31
0.0
  0
LINE
  5
E6
330
DE
100
AcDbEntity
  8
0
  6
Continuous
 62
     7
370
     0
100
AcDbLine
 10
238.5686886053
 20
263.7961117208
 30
0.0
 11
238.5686886053
 21
257.0938756596
 31
0.0
  0
LINE
  5
E7
330
DE
100
AcDbEntity
  8
0
  6
Continuous
 62
     7
370
     0
100
AcDbLine
 10
238.5686886053
 20
257.0938756596
 30
0.0
 11
237.3937048578
 21
257.0938756596
 31
0.0
  0
LINE
  5
E8
330
DE
100
AcDbEntity
  8
0
  6
Continuous
 62
     7
370
     0
100
AcDbLine
 10
238.5686886053
 20
263.7961117208
 30
0.0
 11
237.3937048578
 21
263.7961117208
 31
0.0
  0
LINE
  5
E9
330
DE
100
AcDbEntity
  8
0
  6
Continuous
 62
     7
370
     0
100
AcDbLine
 10
202.5260444003
 20
215.7716318937
 30
0.0
 11
202.5260444003
 21
250.6175182882
 31
0.0
  0
LINE
  5
EA
330
DE
100
AcDbEntity
  8
0
  6
Continuous
 62
     7
370
     0
100
AcDbLine
 10
242.5260444003
 20
215.7716318937
 30
0.0
 11
242.5260444003
 21
250.6175182882
 31
0.0
  0
LINE
  5
EB
330
DE
100
AcDbEntity
  8
0
  6
Continuous
 62
     7
370
     0
100
AcDbLine
 10
202.5260444003
 20
248.6175182882
 30
0.0
 11
192.6478956123
 21
248.6175182882
 31
0.0
  0
LINE
  5
EC
330
DE
100
AcDbEntity
  8
0
  6
Continuous
 62
     7
370
     0
100
AcDbLine
 10
202.5260444003
 20
248.6175182882
 30
0.0
 11
242.5260444003
 21
248.6175182882
 31
0.0
  0
LINE
  5
ED
330
DE
100
AcDbEntity
  8
0
  6
Continuous
 62
     7
370
     0
100
AcDbLine
 10
242.5260444003
 20
248.6175182882
 30
0.0
 11
252.4041931884
 21
248.6175182882
 31
0.0
  0
MTEXT
  5
EE
330
DE
100
AcDbEntity
  8
0
  6
Continuous
 62
     7
370
     0
100
AcDbMText
 10
208.566742596
 20
255.4388351942
 30
0.0
 40
5.2916666667
 41
0.0
 71
     1
 72
     1
  1
%%c
  7
SLDTEXTSTYLE1
 73
     1
 44
1.0
  0
MTEXT
  5
EF
330
DE
100
AcDbEntity
  8
0
  6
Continuous
 62
     7
370
     0
100
AcDbMText
 10
215.6632278372
 20
255.4388349614
 30
0.0
 40
5.2916666667
 41
0.0
 71
     1
 72
     1
  1
40mm
  7
SLDTEXTSTYLE1
 73
     1
 44
1.0
  0
MTEXT
  5
F0
330
DE
100
AcDbEntity
  8
0
  6
Continuous
 62
     7
370
     0
100
AcDbMText
 10
208.3902583329
 20
263.3238185627
 30
0.0
 40
5.2916666667
 41
0.0
 71
     1
 72
     1
  1
1,5748in
  7
SLDTEXTSTYLE1
 73
     1
 44
1.0
  0
ENDBLK
  5
E0
330
DE
100
AcDbEntity
  8
0
100
AcDbBlockEnd
  0
BLOCK
  5
1BE
330
1BD
100
AcDbEntity
  8
0
100
AcDbBlockBegin
  2
*D3
 70
     1
 10
0.0
 20
0.0
 30
0.0
  3
*D3
  1

  0
SOLID
  5
1C0
330
1BD
100
AcDbEntity
  8
0
  6
Continuous
 62
     7
370
     0
100
AcDbTrace
 10
202.5260444003
 20
39.6946443056
 30
0.0
 11
207.6626817701
 21
38.9043924026
 31
0.0
 12
207.6626817701
 22
40.4848962087
 32
0.0
 13
207.6626817701
 23
40.4848962087
 33
0.0
  0
SOLID
  5
1C1
330
1BD
100
AcDbEntity
  8
0
  6
Continuous
 62
     7
370
     0
100
AcDbTrace
 10
289.0260444003
 20
39.6946443056
 30
0.0
 11
283.8894070305
 21
40.4848962087
 31
0.0
 12
283.8894070305
 22
38.9043924026
 32
0.0
 13
283.8894070305
 23
38.9043924026
 33
0.0
  0
LINE
  5
1C2
330
1BD
100
AcDbEntity
  8
0
  6
Continuous
 62
     7
370
     0
100
AcDbLine
 10
224.52704977
 20
54.8732377382
 30
0.0
 11
224.52704977
 21
48.1710016771
 31
0.0
  0
LINE
  5
1C3
330
1BD
100
AcDbEntity
  8
0
  6
Continuous
 62
     7
370
     0
100
AcDbLine
 10
224.52704977
 20
48.1710016771
 30
0.0
 11
225.7020335175
 21
48.1710016771
 31
0.0
  0
LINE
  5
1C4
330
1BD
100
AcDbEntity
  8
0
  6
Continuous
 62
     7
370
     0
100
AcDbLine
 10
224.52704977
 20
54.8732377382
 30
0.0
 11
225.7020335175
 21
54.8732377382
 31
0.0
  0
LINE
  5
1C5
330
1BD
100
AcDbEntity
  8
0
  6
Continuous
 62
     7
370
     0
100
AcDbLine
 10
257.0554475374
 20
54.8732377382
 30
0.0
 11
257.0554475374
 21
48.1710016771
 31
0.0
  0
LINE
  5
1C6
330
1BD
100
AcDbEntity
  8
0
  6
Continuous
 62
     7
370
     0
100
AcDbLine
 10
257.0554475374
 20
48.1710016771
 30
0.0
 11
255.8804637899
 21
48.1710016771
 31
0.0
  0
LINE
  5
1C7
330
1BD
100
AcDbEntity
  8
0
  6
Continuous
 62
     7
370
     0
100
AcDbLine
 10
257.0554475374
 20
54.8732377382
 30
0.0
 11
255.8804637899
 21
54.8732377382
 31
0.0
  0
LINE
  5
1C8
330
1BD
100
AcDbEntity
  8
0
  6
Continuous
 62
     7
370
     0
100
AcDbLine
 10
202.5260444003
 20
72.579627907
 30
0.0
 11
202.5260444003
 21
37.6946443056
 31
0.0
  0
LINE
  5
1C9
330
1BD
100
AcDbEntity
  8
0
  6
Continuous
 62
     7
370
     0
100
AcDbLine
 10
289.0260444003
 20
99.257436463
 30
0.0
 11
289.0260444003
 21
37.6946443056
 31
0.0
  0
LINE
  5
1CA
330
1BD
100
AcDbEntity
  8
0
  6
Continuous
 62
     7
370
     0
100
AcDbLine
 10
202.5260444003
 20
39.6946443056
 30
0.0
 11
289.0260444003
 21
39.6946443056
 31
0.0
  0
MTEXT
  5
1CB
330
1BD
100
AcDbEntity
  8
0
  6
Continuous
 62
     7
370
     0
100
AcDbMText
 10
225.7010867135
 20
46.5159609789
 30
0.0
 40
5.2916666667
 41
0.0
 71
     1
 72
     1
  1
86,50mm
  7
SLDTEXTSTYLE1
 73
     1
 44
1.0
  0
MTEXT
  5
1CC
330
1BD
100
AcDbEntity
  8
0
  6
Continuous
 62
     7
370
     0
100
AcDbMText
 10
226.877017265
 20
54.4009445802
 30
0.0
 40
5.2916666667
 41
0.0
 71
     1
 72
     1
  1
3,4055in
  7
SLDTEXTSTYLE1
 73
     1
 44
1.0
  0
ENDBLK
  5
1BF
330
1BD
100
AcDbEntity
  8
0
100
AcDbBlockEnd
  0
BLOCK
  5
1F2
330
1F1
100
AcDbEntity
  8
0
100
AcDbBlockBegin
  2
*D4
 70
     1
 10
0.0
 20
0.0
 30
0.0
  3
*D4
  1

  0
SOLID
  5
1F4
330
1F1
100
AcDbEntity
  8
0
  6
Continuous
 62
     7
370
     0
100
AcDbTrace
 10
59.7169328904
 20
259.5165747626
 30
0.0
 11
54.5802955206
 21
260.3068266656
 31
0.0
 12
54.5802955206
 22
258.7263228596
 32
0.0
 13
54.5802955206
 23
258.7263228596
 33
0.0
  0
SOLID
  5
1F5
330
1F1
100
AcDbEntity
  8
0
  6
Continuous
 62
     7
370
     0
100
AcDbTrace
 10
112.2169328904
 20
259.5165747626
 30
0.0
 11
117.3535702602
 21
258.7263228596
 31
0.0
 12
117.3535702602
 22
260.3068266656
 32
0.0
 13
117.3535702602
 23
260.3068266656
 33
0.0
  0
LINE
  5
1F6
330
1F1
100
AcDbEntity
  8
0
  6
Continuous
 62
     7
370
     0
100
AcDbLine
 10
73.4874880368
 20
274.6951681952
 30
0.0
 11
73.4874880368
 21
267.992932134
 31
0.0
  0
LINE
  5
1F7
330
1F1
100
AcDbEntity
  8
0
  6
Continuous
 62
     7
370
     0
100
AcDbLine
 10
73.4874880368
 20
267.992932134
 30
0.0
 11
74.6624717843
 21
267.992932134
 31
0.0
  0
LINE
  5
1F8
330
1F1
100
AcDbEntity
  8
0
  6
Continuous
 62
     7
370
     0
100
AcDbLine
 10
73.4874880368
 20
274.6951681952
 30
0.0
 11
74.6624717843
 21
274.6951681952
 31
0.0
  0
LINE
  5
1F9
330
1F1
100
AcDbEntity
  8
0
  6
Continuous
 62
     7
370
     0
100
AcDbLine
 10
106.0158858043
 20
274.6951681952
 30
0.0
 11
106.0158858043
 21
267.992932134
 31
0.0
  0
LINE
  5
1FA
330
1F1
100
AcDbEntity
  8
0
  6
Continuous
 62
     7
370
     0
100
AcDbLine
 10
106.0158858043
 20
267.992932134
 30
0.0
 11
104.8409020567
 21
267.992932134
 31
0.0
  0
LINE
  5
1FB
330
1F1
100
AcDbEntity
  8
0
  6
Continuous
 62
     7
370
     0
100
AcDbLine
 10
106.0158858043
 20
274.6951681952
 30
0.0
 11
104.8409020567
 21
274.6951681952
 31
0.0
  0
LINE
  5
1FC
330
1F1
100
AcDbEntity
  8
0
  6
Continuous
 62
     7
370
     0
100
AcDbLine
 10
59.7169328904
 20
223.1557205692
 30
0.0
 11
59.7169328904
 21
261.5165747626
 31
0.0
  0
LINE
  5
1FD
330
1F1
100
AcDbEntity
  8
0
  6
Continuous
 62
     7
370
     0
100
AcDbLine
 10
112.2169328904
 20
235.4716318937
 30
0.0
 11
112.2169328904
 21
261.5165747626
 31
0.0
  0
LINE
  5
1FE
330
1F1
100
AcDbEntity
  8
0
  6
Continuous
 62
     7
370
     0
100
AcDbLine
 10
59.7169328904
 20
259.5165747626
 30
0.0
 11
49.8387841023
 21
259.5165747626
 31
0.0
  0
LINE
  5
1FF
330
1F1
100
AcDbEntity
  8
0
  6
Continuous
 62
     7
370
     0
100
AcDbLine
 10
59.7169328904
 20
259.5165747626
 30
0.0
 11
112.2169328904
 21
259.5165747626
 31
0.0
  0
LINE
  5
200
330
1F1
100
AcDbEntity
  8
0
  6
Continuous
 62
     7
370
     0
100
AcDbLine
 10
112.2169328904
 20
259.5165747626
 30
0.0
 11
122.0950816784
 21
259.5165747626
 31
0.0
  0
MTEXT
  5
201
330
1F1
100
AcDbEntity
  8
0
  6
Continuous
 62
     7
370
     0
100
AcDbMText
 10
74.6615249803
 20
266.3378914358
 30
0.0
 40
5.2916666667
 41
0.0
 71
     1
 72
     1
  1
52,50mm
  7
SLDTEXTSTYLE1
 73
     1
 44
1.0
  0
MTEXT
  5
202
330
1F1
100
AcDbEntity
  8
0
  6
Continuous
 62
     7
370
     0
100
AcDbMText
 10
75.8374555318
 20
274.2228750371
 30
0.0
 40
5.2916666667
 41
0.0
 71
     1
 72
     1
  1
2,0669in
  7
SLDTEXTSTYLE1
 73
     1
 44
1.0
  0
ENDBLK
  5
1F3
330
1F1
100
AcDbEntity
  8
0
100
AcDbBlockEnd
  0
BLOCK
  5
205
330
204
100
AcDbEntity
  8
0
100
AcDbBlockBegin
  2
*D5
 70
     1
 10
0.0
 20
0.0
 30
0.0
  3
*D5
  1

  0
SOLID
  5
207
330
204
100
AcDbEntity
  8
0
  6
Continuous
 62
     7
370
     0
100
AcDbTrace
 10
134.7558394275
 20
231.3716318937
 30
0.0
 11
135.5460913305
 21
236.5082692635
 31
0.0
 12
133.9655875244
 22
236.5082692635
 32
0.0
 13
133.9655875244
 23
236.5082692635
 33
0.0
  0
SOLID
  5
208
330
204
100
AcDbEntity
  8
0
  6
Continuous
 62
     7
370
     0
100
AcDbTrace
 10
134.7558394275
 20
206.1716318937
 30
0.0
 11
133.9655875244
 21
201.0349945239
 31
0.0
 12
135.5460913305
 22
201.0349945239
 32
0.0
 13
135.5460913305
 23
201.0349945239
 33
0.0
  0
LINE
  5
209
330
204
100
AcDbEntity
  8
0
  6
Continuous
 62
     7
370
     0
100
AcDbLine
 10
118.8908131045
 20
226.6907388544
 30
0.0
 11
118.8908131045
 21
219.9885027933
 31
0.0
  0
LINE
  5
20A
330
204
100
AcDbEntity
  8
0
  6
Continuous
 62
     7
370
     0
100
AcDbLine
 10
118.8908131045
 20
219.9885027933
 30
0.0
 11
120.0657968521
 21
219.9885027933
 31
0.0
  0
LINE
  5
20B
330
204
100
AcDbEntity
  8
0
  6
Continuous
 62
     7
370
     0
100
AcDbLine
 10
118.8908131045
 20
226.6907388544
 30
0.0
 11
120.0657968521
 21
226.6907388544
 31
0.0
  0
LINE
  5
20C
330
204
100
AcDbEntity
  8
0
  6
Continuous
 62
     7
370
     0
100
AcDbLine
 10
151.419210872
 20
226.6907388544
 30
0.0
 11
151.419210872
 21
219.9885027933
 31
0.0
  0
LINE
  5
20D
330
204
100
AcDbEntity
  8
0
  6
Continuous
 62
     7
370
     0
100
AcDbLine
 10
151.419210872
 20
219.9885027933
 30
0.0
 11
150.2442271245
 21
219.9885027933
 31
0.0
  0
LINE
  5
20E
330
204
100
AcDbEntity
  8
0
  6
Continuous
 62
     7
370
     0
100
AcDbLine
 10
151.419210872
 20
226.6907388544
 30
0.0
 11
150.2442271245
 21
226.6907388544
 31
0.0
  0
LINE
  5
20F
330
204
100
AcDbEntity
  8
0
  6
Continuous
 62
     7
370
     0
100
AcDbLine
 10
99.2169328904
 20
231.3716318937
 30
0.0
 11
136.7558394275
 21
231.3716318937
 31
0.0
  0
LINE
  5
210
330
204
100
AcDbEntity
  8
0
  6
Continuous
 62
     7
370
     0
100
AcDbLine
 10
99.2169328904
 20
206.1716318937
 30
0.0
 11
136.7558394275
 21
206.1716318937
 31
0.0
  0
LINE
  5
211
330
204
100
AcDbEntity
  8
0
  6
Continuous
 62
     7
370
     0
100
AcDbLine
 10
134.7558394275
 20
231.3716318937
 30
0.0
 11
134.7558394275
 21
241.2497806817
 31
0.0
  0
LINE
  5
212
330
204
100
AcDbEntity
  8
0
  6
Continuous
 62
     7
370
     0
100
AcDbLine
 10
134.7558394275
 20
206.1716318937
 30
0.0
 11
134.7558394275
 21
196.2934831056
 31
0.0
  0
MTEXT
  5
213
330
204
100
AcDbEntity
  8
0
  6
Continuous
 62
     7
370
     0
100
AcDbMText
 10
116.5166074275
 20
218.3334623279
 30
0.0
 40
5.2916666667
 41
0.0
 71
     1
 72
     1
  1
%%c
  7
SLDTEXTSTYLE1
 73
     1
 44
1.0
  0
MTEXT
  5
214
330
204
100
AcDbEntity
  8
0
  6
Continuous
 62
     7
370
     0
100
AcDbMText
 10
123.6130926687
 20
218.3334620951
 30
0.0
 40
5.2916666667
 41
0.0
 71
     1
 72
     1
  1
25,20mm
  7
SLDTEXTSTYLE1
 73
     1
 44
1.0
  0
MTEXT
  5
215
330
204
100
AcDbEntity
  8
0
  6
Continuous
 62
     7
370
     0
100
AcDbMText
 10
121.2407805996
 20
226.2184456964
 30
0.0
 40
5.2916666667
 41
0.0
 71
     1
 72
     1
  1
0,9921in
  7
SLDTEXTSTYLE1
 73
     1
 44
1.0
  0
ENDBLK
  5
206
330
204
100
AcDbEntity
  8
0
100
AcDbBlockEnd
  0
BLOCK
  5
218
330
217
100
AcDbEntity
  8
0
100
AcDbBlockBegin
  2
*D6
 70
     1
 10
0.0
 20
0.0
 30
0.0
  3
*D6
  1

  0
SOLID
  5
21A
330
217
100
AcDbEntity
  8
0
  6
Continuous
 62
     7
370
     0
100
AcDbTrace
 10
97.2169328904
 20
168.7401988793
 30
0.0
 11
92.0802955206
 21
169.5304507823
 31
0.0
 12
92.0802955206
 22
167.9499469762
 32
0.0
 13
92.0802955206
 23
167.9499469762
 33
0.0
  0
SOLID
  5
21B
330
217
100
AcDbEntity
  8
0
  6
Continuous
 62
     7
370
     0
100
AcDbTrace
 10
75.2169328904
 20
168.7401988793
 30
0.0
 11
80.3535702602
 21
167.9499469762
 31
0.0
 12
80.3535702602
 22
169.5304507823
 32
0.0
 13
80.3535702602
 23
169.5304507823
 33
0.0
  0
LINE
  5
21C
330
217
100
AcDbEntity
  8
0
  6
Continuous
 62
     7
370
     0
100
AcDbLine
 10
33.2968796728
 20
183.9187923118
 30
0.0
 11
33.2968796728
 21
177.2165562507
 31
0.0
  0
LINE
  5
21D
330
217
100
AcDbEntity
  8
0
  6
Continuous
 62
     7
370
     0
100
AcDbLine
 10
33.2968796728
 20
177.2165562507
 30
0.0
 11
34.4718634203
 21
177.2165562507
 31
0.0
  0
LINE
  5
21E
330
217
100
AcDbEntity
  8
0
  6
Continuous
 62
     7
370
     0
100
AcDbLine
 10
33.2968796728
 20
183.9187923118
 30
0.0
 11
34.4718634203
 21
183.9187923118
 31
0.0
  0
LINE
  5
21F
330
217
100
AcDbEntity
  8
0
  6
Continuous
 62
     7
370
     0
100
AcDbLine
 10
65.8252774402
 20
183.9187923118
 30
0.0
 11
65.8252774402
 21
177.2165562507
 31
0.0
  0
LINE
  5
220
330
217
100
AcDbEntity
  8
0
  6
Continuous
 62
     7
370
     0
100
AcDbLine
 10
65.8252774402
 20
177.2165562507
 30
0.0
 11
64.6502936927
 21
177.2165562507
 31
0.0
  0
LINE
  5
221
330
217
100
AcDbEntity
  8
0
  6
Continuous
 62
     7
370
     0
100
AcDbLine
 10
65.8252774402
 20
183.9187923118
 30
0.0
 11
64.6502936927
 21
183.9187923118
 31
0.0
  0
LINE
  5
222
330
217
100
AcDbEntity
  8
0
  6
Continuous
 62
     7
370
     0
100
AcDbLine
 10
97.2169328904
 20
216.7716318937
 30
0.0
 11
97.2169328904
 21
166.7401988793
 31
0.0
  0
LINE
  5
223
330
217
100
AcDbEntity
  8
0
  6
Continuous
 62
     7
370
     0
100
AcDbLine
 10
75.2169328904
 20
202.7716318937
 30
0.0
 11
75.2169328904
 21
166.7401988793
 31
0.0
  0
LINE
  5
224
330
217
100
AcDbEntity
  8
0
  6
Continuous
 62
     7
370
     0
100
AcDbLine
 10
97.2169328904
 20
168.7401988793
 30
0.0
 11
75.2169328904
 21
168.7401988793
 31
0.0
  0
LINE
  5
225
330
217
100
AcDbEntity
  8
0
  6
Continuous
 62
     7
370
     0
100
AcDbLine
 10
75.2169328904
 20
168.7401988793
 30
0.0
 11
29.3594121778
 21
168.7401988793
 31
0.0
  0
MTEXT
  5
226
330
217
100
AcDbEntity
  8
0
  6
Continuous
 62
     7
370
     0
100
AcDbMText
 10
39.3715740515
 20
175.5615155525
 30
0.0
 40
5.2916666667
 41
0.0
 71
     1
 72
     1
  1
22mm
  7
SLDTEXTSTYLE1
 73
     1
 44
1.0
  0
MTEXT
  5
227
330
217
100
AcDbEntity
  8
0
  6
Continuous
 62
     7
370
     0
100
AcDbMText
 10
35.6468471678
 20
183.4464991538
 30
0.0
 40
5.2916666667
 41
0.0
 71
     1
 72
     1
  1
0,8661in
  7
SLDTEXTSTYLE1
 73
     1
 44
1.0
  0
ENDBLK
  5
219
330
217
100
AcDbEntity
  8
0
100
AcDbBlockEnd
  0
ENDSEC
  0
SECTION
  2
ENTITIES
  0
MTEXT
  5
67
330
1F
100
AcDbEntity
  8
0
  6
Continuous
 62
     7
370
     0
100
AcDbMText
 10
402.5
 20
14.7189135832
 30
0.0
 40
6.35
 41
0.0
 71
     1
 72
     1
  1
1:1
  7
SLDTEXTSTYLE0
 73
     1
 44
1.0
  0
MTEXT
  5
68
330
1F
100
AcDbEntity
  8
0
  6
Continuous
 62
     7
370
     0
100
AcDbMText
 10
168.4090458961
 20
14.7189131175
 30
0.0
 40
6.35
 41
0.0
 71
     1
 72
     1
  1
110.00192
  7
SLDTEXTSTYLE0
 73
     1
 44
1.0
  0
INSERT
  5
71
330
1F
100
AcDbEntity
  8
0
  6
Continuous
 62
     7
370
     0
100
AcDbBlockReference
  2
SW_NOTE_0
 10
35.4202146835
 20
20.1681939512
 30
0.0
  0
LINE
  5
72
330
1F
100
AcDbEntity
  8
0
  6
Continuous
 62
     7
370
    15
100
AcDbLine
 10
347.2024805862
 20
213.8716318912
 30
0.0
 11
347.0024772006
 21
213.6716318962
 31
0.0
  0
LINE
  5
73
330
1F
100
AcDbEntity
  8
0
  6
Continuous
 62
     7
370
    15
100
AcDbLine
 10
347.0024772006
 20
195.8716324987
 30
0.0
 11
347.2024805862
 21
195.6716309758
 31
0.0
  0
LINE
  5
74
330
1F
100
AcDbEntity
  8
0
  6
Continuous
 62
     7
370
    15
100
AcDbLine
 10
352.3024775106
 20
213.8716318912
 30
0.0
 11
347.2024805862
 21
213.8716318912
 31
0.0
  0
LINE
  5
75
330
1F
100
AcDbEntity
  8
0
  6
Continuous
 62
     7
370
    15
100
AcDbLine
 10
347.2024805862
 20
195.6716309758
 30
0.0
 11
352.3024775106
 21
195.6716309758
 31
0.0
  0
LINE
  5
76
330
1F
100
AcDbEntity
  8
0
  6
Continuous
 62
     7
370
    15
100
AcDbLine
 10
352.3024775106
 20
195.6716309758
 30
0.0
 11
352.5024808961
 21
195.8716324987
 31
0.0
  0
LINE
  5
77
330
1F
100
AcDbEntity
  8
0
  6
Continuous
 62
     7
370
    15
100
AcDbLine
 10
352.5024808961
 20
213.6716318962
 30
0.0
 11
352.3024775106
 21
213.8716318912
 31
0.0
  0
LINE
  5
78
330
1F
100
AcDbEntity
  8
0
  6
Continuous
 62
     7
370
    15
100
AcDbLine
 10
247.8496123123
 20
195.6716309758
 30
0.0
 11
248.0496119726
 21
195.8716324987
 31
0.0
  0
LINE
  5
79
330
1F
100
AcDbEntity
  8
0
  6
Continuous
 62
     7
370
    15
100
AcDbLine
 10
248.0496119726
 20
213.6716318962
 30
0.0
 11
247.8496123123
 21
213.8716318912
 31
0.0
  0
LINE
  5
7A
330
1F
100
AcDbEntity
  8
0
  6
Continuous
 62
     7
370
    15
100
AcDbLine
 10
242.7496116626
 20
213.8716318912
 30
0.0
 11
242.5496120024
 21
213.6716318962
 31
0.0
  0
LINE
  5
7B
330
1F
100
AcDbEntity
  8
0
  6
Continuous
 62
     7
370
    15
100
AcDbLine
 10
242.5496120024
 20
195.8716324987
 30
0.0
 11
242.7496116626
 21
195.6716309758
 31
0.0
  0
LINE
  5
7C
330
1F
100
AcDbEntity
  8
0
  6
Continuous
 62
     7
370
    15
100
AcDbLine
 10
242.7496116626
 20
195.6716309758
 30
0.0
 11
247.8496123123
 21
195.6716309758
 31
0.0
  0
LINE
  5
7D
330
1F
100
AcDbEntity
  8
0
  6
Continuous
 62
     7
370
    15
100
AcDbLine
 10
247.8496123123
 20
213.8716318912
 30
0.0
 11
242.7496116626
 21
213.8716318912
 31
0.0
  0
ARC
  5
7E
330
1F
100
AcDbEntity
  8
0
  6
Continuous
 62
     7
370
    15
100
AcDbCircle
 10
322.3024769061
 20
199.1216318937
 30
0.0
 40
0.3000000000000114
100
AcDbArc
 50
180.0
 51
270.0
  0
ARC
  5
7F
330
1F
100
AcDbEntity
  8
0
  6
Continuous
 62
     7
370
    15
100
AcDbCircle
 10
322.3024769061
 20
210.4216318937
 30
0.0
 40
0.3000000000000114
100
AcDbArc
 50
90.0
 51
180.0
  0
LINE
  5
80
330
1F
100
AcDbEntity
  8
0
  6
Continuous
 62
     7
370
    15
100
AcDbLine
 10
347.0024772006
 20
210.7216319525
 30
0.0
 11
322.3024763185
 21
210.7216319525
 31
0.0
  0
LINE
  5
81
330
1F
100
AcDbEntity
  8
0
  6
Continuous
 62
     7
370
    15
100
AcDbLine
 10
322.3024763185
 20
198.821632144
 30
0.0
 11
347.0024772006
 21
198.821632144
 31
0.0
  0
ARC
  5
82
330
1F
100
AcDbEntity
  8
0
  6
Continuous
 62
     7
370
    15
100
AcDbCircle
 10
272.7496118946
 20
210.4216318937
 30
0.0
 40
0.2999999999999829
100
AcDbArc
 50
0.0
 51
90.0
  0
ARC
  5
83
330
1F
100
AcDbEntity
  8
0
  6
Continuous
 62
     7
370
    15
100
AcDbCircle
 10
272.7496118946
 20
199.1216318937
 30
0.0
 40
0.2999999999999829
100
AcDbArc
 50
270.0
 51
0.0
  0
LINE
  5
84
330
1F
100
AcDbEntity
  8
0
  6
Continuous
 62
     7
370
    15
100
AcDbLine
 10
248.0496119726
 20
198.821632144
 30
0.0
 11
272.7496109921
 21
198.821632144
 31
0.0
  0
LINE
  5
85
330
1F
100
AcDbEntity
  8
0
  6
Continuous
 62
     7
370
    15
100
AcDbLine
 10
272.7496109921
 20
210.7216319525
 30
0.0
 11
248.0496119726
 21
210.7216319525
 31
0.0
  0
LINE
  5
86
330
1F
100
AcDbEntity
  8
0
  6
Continuous
 62
     7
370
    15
100
AcDbLine
 10
275.0496126729
 20
209.7716317037
 30
0.0
 11
273.0496123451
 21
209.7716317037
 31
0.0
  0
LINE
  5
87
330
1F
100
AcDbEntity
  8
0
  6
Continuous
 62
     7
370
    15
100
AcDbLine
 10
273.0496123451
 20
199.7716314616
 30
0.0
 11
275.0496126729
 21
199.7716314616
 31
0.0
  0
LINE
  5
88
330
1F
100
AcDbEntity
  8
0
  6
Continuous
 62
     7
370
    15
100
AcDbLine
 10
320.0024746376
 20
199.7716314616
 30
0.0
 11
322.0024786907
 21
199.7716314616
 31
0.0
  0
LINE
  5
89
330
1F
100
AcDbEntity
  8
0
  6
Continuous
 62
     7
370
    15
100
AcDbLine
 10
322.0024786907
 20
209.7716317037
 30
0.0
 11
320.0024746376
 21
209.7716317037
 31
0.0
  0
LINE
  5
8A
330
1F
100
AcDbEntity
  8
0
  6
Continuous
 62
     7
370
    15
100
AcDbLine
 10
382.2535432893
 20
196.2966322424
 30
0.0
 11
392.702475937
 21
196.2966322424
 31
0.0
  0
LINE
  5
8B
330
1F
100
AcDbEntity
  8
0
  6
Continuous
 62
     7
370
    15
100
AcDbLine
 10
392.702475937
 20
213.2466319124
 30
0.0
 11
392.5191469508
 21
213.2466319124
 31
0.0
  0
LINE
  5
8C
330
1F
100
AcDbEntity
  8
0
  6
Continuous
 62
     7
370
    15
100
AcDbLine
 10
392.702475937
 20
196.2966322424
 30
0.0
 11
393.0024810153
 21
196.5966317328
 31
0.0
  0
LINE
  5
8D
330
1F
100
AcDbEntity
  8
0
  6
Continuous
 62
     7
370
    15
100
AcDbLine
 10
393.0024810153
 20
212.9466318982
 30
0.0
 11
392.702475937
 21
213.2466319124
 31
0.0
  0
LINE
  5
8E
330
1F
100
AcDbEntity
  8
0
  6
Continuous
 62
     7
370
    15
100
AcDbLine
 10
352.5024808961
 20
196.2966322424
 30
0.0
 11
362.7985425311
 21
196.2966322424
 31
0.0
  0
LINE
  5
8F
330
1F
100
AcDbEntity
  8
0
  6
Continuous
 62
     7
370
    15
100
AcDbLine
 10
352.5329388696
 20
213.2466319124
 30
0.0
 11
352.5024808961
 21
213.2466319124
 31
0.0
  0
LINE
  5
90
330
1F
100
AcDbEntity
  8
0
  6
Continuous
 62
     7
370
    15
100
AcDbLine
 10
202.3496113735
 20
213.2466319124
 30
0.0
 11
202.0496118831
 21
212.9466318982
 31
0.0
  0
LINE
  5
91
330
1F
100
AcDbEntity
  8
0
  6
Continuous
 62
     7
370
    15
100
AcDbLine
 10
202.0496118831
 20
196.5966317328
 30
0.0
 11
202.3496113735
 21
196.2966322424
 31
0.0
  0
LINE
  5
92
330
1F
100
AcDbEntity
  8
0
  6
Continuous
 62
     7
370
    15
100
AcDbLine
 10
242.5496120024
 20
213.2466319124
 30
0.0
 11
242.5191521662
 21
213.2466319124
 31
0.0
  0
LINE
  5
93
330
1F
100
AcDbEntity
  8
0
  6
Continuous
 62
     7
370
    15
100
AcDbLine
 10
232.2535503673
 20
196.2966322424
 30
0.0
 11
242.5496120024
 21
196.2966322424
 31
0.0
  0
LINE
  5
94
330
1F
100
AcDbEntity
  8
0
  6
Continuous
 62
     7
370
    15
100
AcDbLine
 10
202.5329366344
 20
213.2466319124
 30
0.0
 11
202.3496113735
 21
213.2466319124
 31
0.0
  0
LINE
  5
95
330
1F
100
AcDbEntity
  8
0
  6
Continuous
 62
     7
370
    15
100
AcDbLine
 10
202.3496113735
 20
196.2966322424
 30
0.0
 11
212.7985384333
 21
196.2966322424
 31
0.0
  0
ARC
  5
96
330
1F
100
AcDbEntity
  8
0
  6
Continuous
 62
     7
370
    15
100
AcDbCircle
 10
313.9154454964
 20
205.9439695915
 30
0.0
 40
4.999999999999993
100
AcDbArc
 50
265.7108466712
 51
299.125466729
  0
ARC
  5
97
330
1F
100
AcDbEntity
  8
0
  6
Continuous
 62
     7
370
    15
100
AcDbCircle
 10
313.9154454964
 20
201.5992941959
 30
0.0
 40
5.000000000000007
100
AcDbArc
 50
60.874533271
 51
94.2891533288
  0
LINE
  5
98
330
1F
100
AcDbEntity
  8
0
  6
Continuous
 62
     7
370
    15
100
AcDbLine
 10
313.5414950567
 20
206.5852907942
 30
0.0
 11
306.9512553531
 21
206.0910225371
 31
0.0
  0
LINE
  5
99
330
1F
100
AcDbEntity
  8
0
  6
Continuous
 62
     7
370
    15
100
AcDbLine
 10
306.9512553531
 20
201.4522412317
 30
0.0
 11
313.5414950567
 21
200.9579734402
 31
0.0
  0
ARC
  5
9A
330
1F
100
AcDbEntity
  8
0
  6
Continuous
 62
     7
370
    15
100
AcDbCircle
 10
307.0260444003
 20
205.0938233377
 30
0.0
 40
1.000000000000001
100
AcDbArc
 50
94.2891533288
 51
180.0
  0
ARC
  5
9B
330
1F
100
AcDbEntity
  8
0
  6
Continuous
 62
     7
370
    15
100
AcDbCircle
 10
307.0260444003
 20
202.4494404497
 30
0.0
 40
1.000000000000001
100
AcDbArc
 50
180.0
 51
265.7108466712
  0
ARC
  5
9C
330
1F
100
AcDbEntity
  8
0
  6
Continuous
 62
     7
370
    15
100
AcDbCircle
 10
319.0260444003
 20
210.7716318937
 30
0.0
 40
5.5
100
AcDbArc
 50
240.874533271
 51
270.0
  0
ARC
  5
9D
330
1F
100
AcDbEntity
  8
0
  6
Continuous
 62
     7
370
    15
100
AcDbCircle
 10
319.0260444003
 20
196.7716318937
 30
0.0
 40
5.500000000000028
100
AcDbArc
 50
90.0
 51
119.125466729
  0
LINE
  5
9E
330
1F
100
AcDbEntity
  8
0
  6
Continuous
 62
     7
370
    15
100
AcDbLine
 10
320.0024746376
 20
205.2716314318
 30
0.0
 11
319.0260462481
 21
205.2716314318
 31
0.0
  0
LINE
  5
9F
330
1F
100
AcDbEntity
  8
0
  6
Continuous
 62
     7
370
    15
100
AcDbLine
 10
319.0260462481
 20
202.2716318713
 30
0.0
 11
320.0024746376
 21
202.2716318713
 31
0.0
  0
ARC
  5
A0
330
1F
100
AcDbEntity
  8
0
  6
Continuous
 62
     7
370
    15
100
AcDbCircle
 10
281.1366433043
 20
201.5992941959
 30
0.0
 40
5.000000000000012
100
AcDbArc
 50
85.7108466712
 51
119.125466729
  0
ARC
  5
A1
330
1F
100
AcDbEntity
  8
0
  6
Continuous
 62
     7
370
    15
100
AcDbCircle
 10
281.1366433043
 20
205.9439695915
 30
0.0
 40
5.000000000000018
100
AcDbArc
 50
240.874533271
 51
274.2891533288
  0
LINE
  5
A2
330
1F
100
AcDbEntity
  8
0
  6
Continuous
 62
     7
370
    15
100
AcDbLine
 10
281.5105922538
 20
200.9579734402
 30
0.0
 11
288.1008319574
 21
201.4522412317
 31
0.0
  0
LINE
  5
A3
330
1F
100
AcDbEntity
  8
0
  6
Continuous
 62
     7
370
    15
100
AcDbLine
 10
288.1008319574
 20
206.0910225371
 30
0.0
 11
281.5105922538
 21
206.5852907942
 31
0.0
  0
ARC
  5
A4
330
1F
100
AcDbEntity
  8
0
  6
Continuous
 62
     7
370
    15
100
AcDbCircle
 10
288.0260444003
 20
202.4494404497
 30
0.0
 40
1.000000000000001
100
AcDbArc
 50
274.2891533288
 51
0.0
  0
ARC
  5
A5
330
1F
100
AcDbEntity
  8
0
  6
Continuous
 62
     7
370
    15
100
AcDbCircle
 10
288.0260444003
 20
205.0938233377
 30
0.0
 40
1.00000000000003
100
AcDbArc
 50
0.0
 51
85.7108466712
  0
ARC
  5
A6
330
1F
100
AcDbEntity
  8
0
  6
Continuous
 62
     7
370
    15
100
AcDbCircle
 10
276.0260444003
 20
196.7716318937
 30
0.0
 40
5.500000000000028
100
AcDbArc
 50
60.874533271
 51
90.0
  0
ARC
  5
A7
330
1F
100
AcDbEntity
  8
0
  6
Continuous
 62
     7
370
    15
100
AcDbCircle
 10
276.0260444003
 20
210.7716318937
 30
0.0
 40
5.5
100
AcDbArc
 50
270.0
 51
299.125466729
  0
LINE
  5
A8
330
1F
100
AcDbEntity
  8
0
  6
Continuous
 62
     7
370
    15
100
AcDbLine
 10
275.0496126729
 20
202.2716318713
 30
0.0
 11
276.0260447877
 21
202.2716318713
 31
0.0
  0
LINE
  5
A9
330
1F
100
AcDbEntity
  8
0
  6
Continuous
 62
     7
370
    15
100
AcDbLine
 10
276.0260447877
 20
205.2716314318
 30
0.0
 11
275.0496126729
 21
205.2716314318
 31
0.0
  0
LINE
  5
AA
330
1F
100
AcDbEntity
  8
0
  6
Continuous
 62
     7
370
    15
100
AcDbLine
 10
347.0024772006
 20
195.8716324987
 30
0.0
 11
347.0024772006
 21
213.6716318962
 31
0.0
  0
LINE
  5
AB
330
1F
100
AcDbEntity
  8
0
  6
Continuous
 62
     7
370
    15
100
AcDbLine
 10
347.2024805862
 20
213.8716318912
 30
0.0
 11
347.2024805862
 21
195.6716309758
 31
0.0
  0
LINE
  5
AC
330
1F
100
AcDbEntity
  8
0
  6
Continuous
 62
     7
370
    15
100
AcDbLine
 10
352.3024775106
 20
195.6716309758
 30
0.0
 11
352.3024775106
 21
213.8716318912
 31
0.0
  0
LINE
  5
AD
330
1F
100
AcDbEntity
  8
0
  6
Continuous
 62
     7
370
    15
100
AcDbLine
 10
352.5024808961
 20
213.6716318962
 30
0.0
 11
352.5024808961
 21
195.8716324987
 31
0.0
  0
LINE
  5
AE
330
1F
100
AcDbEntity
  8
0
  6
Continuous
 62
     7
370
    15
100
AcDbLine
 10
248.0496119726
 20
210.6185454866
 30
0.0
 11
248.0496119726
 21
195.8716324987
 31
0.0
  0
LINE
  5
AF
330
1F
100
AcDbEntity
  8
0
  6
Continuous
 62
     7
370
    15
100
AcDbLine
 10
248.0496119726
 20
213.6716318962
 30
0.0
 11
248.0496119726
 21
210.6185454866
 31
0.0
  0
LINE
  5
B0
330
1F
100
AcDbEntity
  8
0
  6
Continuous
 62
     7
370
    15
100
AcDbLine
 10
247.8496123123
 20
210.7499367082
 30
0.0
 11
247.8496123123
 21
213.8716318912
 31
0.0
  0
LINE
  5
B1
330
1F
100
AcDbEntity
  8
0
  6
Continuous
 62
     7
370
    15
100
AcDbLine
 10
247.8496123123
 20
195.6716309758
 30
0.0
 11
247.8496123123
 21
210.7499367082
 31
0.0
  0
LINE
  5
B2
330
1F
100
AcDbEntity
  8
0
  6
Continuous
 62
     7
370
    15
100
AcDbLine
 10
242.7496116626
 20
210.7499367082
 30
0.0
 11
242.7496116626
 21
195.6716309758
 31
0.0
  0
LINE
  5
B3
330
1F
100
AcDbEntity
  8
0
  6
Continuous
 62
     7
370
    15
100
AcDbLine
 10
242.7496116626
 20
213.8716318912
 30
0.0
 11
242.7496116626
 21
210.7499367082
 31
0.0
  0
LINE
  5
B4
330
1F
100
AcDbEntity
  8
0
  6
Continuous
 62
     7
370
    15
100
AcDbLine
 10
242.5496120024
 20
210.6185454866
 30
0.0
 11
242.5496120024
 21
213.6716318962
 31
0.0
  0
LINE
  5
B5
330
1F
100
AcDbEntity
  8
0
  6
Continuous
 62
     7
370
    15
100
AcDbLine
 10
242.5496120024
 20
195.8716324987
 30
0.0
 11
242.5496120024
 21
210.6185454866
 31
0.0
  0
LINE
  5
B6
330
1F
100
AcDbEntity
  8
0
  6
Continuous
 62
     7
370
    15
100
AcDbLine
 10
322.0024786907
 20
207.2126050005
 30
0.0
 11
322.0024786907
 21
210.4216319965
 31
0.0
  0
LINE
  5
B7
330
1F
100
AcDbEntity
  8
0
  6
Continuous
 62
     7
370
    15
100
AcDbLine
 10
322.0024786907
 20
199.1216316344
 30
0.0
 11
322.0024786907
 21
207.2126050005
 31
0.0
  0
LINE
  5
B8
330
1F
100
AcDbEntity
  8
0
  6
Continuous
 62
     7
370
    15
100
AcDbLine
 10
273.0496123451
 20
210.4216319965
 30
0.0
 11
273.0496123451
 21
199.1216316344
 31
0.0
  0
LINE
  5
B9
330
1F
100
AcDbEntity
  8
0
  6
Continuous
 62
     7
370
    15
100
AcDbLine
 10
275.0496126729
 20
203.9022407951
 30
0.0
 11
275.0496126729
 21
209.7716317037
 31
0.0
  0
LINE
  5
BA
330
1F
100
AcDbEntity
  8
0
  6
Continuous
 62
     7
370
    15
100
AcDbLine
 10
275.0496126729
 20
199.7716314616
 30
0.0
 11
275.0496126729
 21
203.9022407951
 31
0.0
  0
LINE
  5
BB
330
1F
100
AcDbEntity
  8
0
  6
Continuous
 62
     7
370
    15
100
AcDbLine
 10
320.0024746376
 20
209.7716317037
 30
0.0
 11
320.0024746376
 21
199.7716314616
 31
0.0
  0
LINE
  5
BC
330
1F
100
AcDbEntity
  8
0
  6
Continuous
 62
     7
370
    15
100
AcDbLine
 10
392.702475937
 20
203.2980136098
 30
0.0
 11
392.702475937
 21
213.2466319124
 31
0.0
  0
LINE
  5
BD
330
1F
100
AcDbEntity
  8
0
  6
Continuous
 62
     7
370
    15
100
AcDbLine
 10
392.702475937
 20
196.2966322424
 30
0.0
 11
392.702475937
 21
203.2980136098
 31
0.0
  0
LINE
  5
BE
330
1F
100
AcDbEntity
  8
0
  6
Continuous
 62
     7
370
    15
100
AcDbLine
 10
393.0024810153
 20
203.3501769872
 30
0.0
 11
393.0024810153
 21
196.5966317328
 31
0.0
  0
LINE
  5
BF
330
1F
100
AcDbEntity
  8
0
  6
Continuous
 62
     7
370
    15
100
AcDbLine
 10
393.0024810153
 20
212.9466318982
 30
0.0
 11
393.0024810153
 21
203.3501769872
 31
0.0
  0
LINE
  5
C0
330
1F
100
AcDbEntity
  8
0
  6
Continuous
 62
     7
370
    15
100
AcDbLine
 10
202.3496113735
 20
213.2466319124
 30
0.0
 11
202.3496113735
 21
196.2966322424
 31
0.0
  0
LINE
  5
C1
330
1F
100
AcDbEntity
  8
0
  6
Continuous
 62
     7
370
    15
100
AcDbLine
 10
202.0496118831
 20
196.5966317328
 30
0.0
 11
202.0496118831
 21
212.9466318982
 31
0.0
  0
CIRCLE
  5
C2
330
1F
100
AcDbEntity
  8
0
  6
Continuous
 62
     7
370
    15
100
AcDbCircle
 10
381.2101330758
 20
211.4080321229
 30
0.0
 40
1.300000000000047
  0
CIRCLE
  5
C3
330
1F
100
AcDbEntity
  8
0
  6
Continuous
 62
     7
370
    15
100
AcDbCircle
 10
372.5260444003
 20
213.7716318937
 30
0.0
 40
18.00000000000008
  0
CIRCLE
  5
C4
330
1F
100
AcDbEntity
  8
0
  6
Continuous
 62
     7
370
    15
100
AcDbCircle
 10
363.8419557248
 20
216.1352316645
 30
0.0
 40
1.299999999999985
  0
CIRCLE
  5
C5
330
1F
100
AcDbEntity
  8
0
  6
Continuous
 62
     7
370
    15
100
AcDbCircle
 10
374.8896441711
 20
222.4557205692
 30
0.0
 40
1.300000000000047
  0
CIRCLE
  5
C6
330
1F
100
AcDbEntity
  8
0
  6
Continuous
 62
     7
370
    15
100
AcDbCircle
 10
370.1624446295
 20
205.0875432182
 30
0.0
 40
1.300000000000047
  0
CIRCLE
  5
C7
330
1F
100
AcDbEntity
  8
0
  6
Continuous
 62
     7
370
    15
100
AcDbCircle
 10
372.5260444003
 20
213.7716318937
 30
0.0
 40
20.00000000000002
  0
CIRCLE
  5
C8
330
1F
100
AcDbEntity
  8
0
  6
Continuous
 62
     7
370
    15
100
AcDbCircle
 10
222.5260444003
 20
213.7716318937
 30
0.0
 40
18.00000000000002
  0
CIRCLE
  5
C9
330
1F
100
AcDbEntity
  8
0
  6
Continuous
 62
     7
370
    15
100
AcDbCircle
 10
222.5260444003
 20
213.7716318937
 30
0.0
 40
20.00000000000004
  0
CIRCLE
  5
CA
330
1F
100
AcDbEntity
  8
0
  6
Continuous
 62
     7
370
    15
100
AcDbCircle
 10
231.5147716844
 20
214.2219449099
 30
0.0
 40
1.300000000000027
  0
CIRCLE
  5
CB
330
1F
100
AcDbEntity
  8
0
  6
Continuous
 62
     7
370
    15
100
AcDbCircle
 10
222.9763574165
 20
204.7829046096
 30
0.0
 40
1.299999999999971
  0
CIRCLE
  5
CC
330
1F
100
AcDbEntity
  8
0
  6
Continuous
 62
     7
370
    15
100
AcDbCircle
 10
213.5373171162
 20
213.3213188775
 30
0.0
 40
1.300000000000027
  0
CIRCLE
  5
CD
330
1F
100
AcDbEntity
  8
0
  6
Continuous
 62
     7
370
    15
100
AcDbCircle
 10
222.0757313841
 20
222.7603591778
 30
0.0
 40
1.299999999999971
  0
LINE
  5
CE
330
1F
100
AcDbEntity
  8
0
  6
Continuous
 62
     7
370
    15
100
AcDbLine
 10
306.0260422546
 20
202.4494409086
 30
0.0
 11
306.0260422546
 21
205.0938233258
 31
0.0
  0
LINE
  5
CF
330
1F
100
AcDbEntity
  8
0
  6
Continuous
 62
     7
370
    15
100
AcDbLine
 10
289.026045056
 20
205.0938233258
 30
0.0
 11
289.026045056
 21
202.4494409086
 31
0.0
  0
LINE
  5
D0
330
1F
100
AcDbEntity
  8
0
  6
Continuous
 62
     8
370
    15
100
AcDbLine
 10
322.3024763185
 20
207.3422139035
 30
0.0
 11
322.3024763185
 21
198.821632144
 31
0.0
  0
LINE
  5
D1
330
1F
100
AcDbEntity
  8
0
  6
Continuous
 62
     8
370
    15
100
AcDbLine
 10
322.3024763185
 20
210.7216319525
 30
0.0
 11
322.3024763185
 21
207.3422139035
 31
0.0
  0
LINE
  5
D2
330
1F
100
AcDbEntity
  8
0
  6
Continuous
 62
     8
370
    15
100
AcDbLine
 10
272.7496109921
 20
198.821632144
 30
0.0
 11
272.7496109921
 21
210.7216319525
 31
0.0
  0
LINE
  5
D3
330
1F
100
AcDbEntity
  8
0
  6
Continuous
 62
     8
370
    15
100
AcDbLine
 10
313.5414950567
 20
200.9579734402
 30
0.0
 11
313.5414950567
 21
206.5852907942
 31
0.0
  0
LINE
  5
D4
330
1F
100
AcDbEntity
  8
0
  6
Continuous
 62
     8
370
    15
100
AcDbLine
 10
316.3490675407
 20
205.9670742126
 30
0.0
 11
316.3490675407
 21
201.5761900218
 31
0.0
  0
LINE
  5
D5
330
1F
100
AcDbEntity
  8
0
  6
Continuous
 62
     8
370
    15
100
AcDbLine
 10
306.9512553531
 20
206.0910225371
 30
0.0
 11
306.9512553531
 21
201.4522412317
 31
0.0
  0
LINE
  5
D6
330
1F
100
AcDbEntity
  8
0
  6
Continuous
 62
     8
370
    15
100
AcDbLine
 10
319.0260462481
 20
205.2716314318
 30
0.0
 11
319.0260462481
 21
202.2716318713
 31
0.0
  0
LINE
  5
D7
330
1F
100
AcDbEntity
  8
0
  6
Continuous
 62
     8
370
    15
100
AcDbLine
 10
281.5105922538
 20
202.337533188
 30
0.0
 11
281.5105922538
 21
200.9579734402
 31
0.0
  0
LINE
  5
D8
330
1F
100
AcDbEntity
  8
0
  6
Continuous
 62
     8
370
    15
100
AcDbLine
 10
281.5105922538
 20
206.5852907942
 30
0.0
 11
281.5105922538
 21
202.337533188
 31
0.0
  0
LINE
  5
D9
330
1F
100
AcDbEntity
  8
0
  6
Continuous
 62
     8
370
    15
100
AcDbLine
 10
278.7030234951
 20
201.5761900218
 30
0.0
 11
278.7030234951
 21
205.9670742126
 31
0.0
  0
LINE
  5
DA
330
1F
100
AcDbEntity
  8
0
  6
Continuous
 62
     8
370
    15
100
AcDbLine
 10
288.1008319574
 20
201.4522412317
 30
0.0
 11
288.1008319574
 21
206.0910225371
 31
0.0
  0
LINE
  5
DB
330
1F
100
AcDbEntity
  8
0
  6
Continuous
 62
     8
370
    15
100
AcDbLine
 10
276.0260447877
 20
202.2716318713
 30
0.0
 11
276.0260447877
 21
205.2716314318
 31
0.0
  0
DIMENSION
  5
DC
330
1F
100
AcDbEntity
  8
0
  6
Continuous
 62
     7
370
     0
100
AcDbDimension
  2
*D2
 10
242.5260444003
 20
256.5025018895
 30
0.0
 11
221.9068320471
 21
256.5025018895
 31
0.0
 70
   160
  1
%%c<>
 71
     2
 42
-1.0
  3
SLDDIMSTYLE0
100
AcDbAlignedDimension
 13
202.5260444003
 23
213.7716318937
 33
0.0
 14
242.5260444003
 24
213.7716318937
 34
0.0
100
AcDbRotatedDimension
  0
MTEXT
  5
F1
330
1F
100
AcDbEntity
  8
0
  6
Continuous
 62
     7
370
     0
100
AcDbMText
 10
211.8918631229
 20
189.9375651495
 30
0.0
 40
3.7041666667
 41
0.0
 71
     1
 72
     1
  1
left  side
  7
SLDTEXTSTYLE1
 73
     1
 44
1.0
  0
MTEXT
  5
F2
330
1F
100
AcDbEntity
  8
0
  6
Continuous
 62
     7
370
     0
100
AcDbMText
 10
362.1180956811
 20
189.9375651495
 30
0.0
 40
3.7041666667
 41
0.0
 71
     1
 72
     1
  1
right side
  7
SLDTEXTSTYLE1
 73
     1
 44
1.0
  0
LINE
  5
F3
330
1F
100
AcDbEntity
  8
0
  6
Continuous
 62
     7
370
    15
100
AcDbLine
 10
347.2024805862
 20
97.1796287355
 30
0.0
 11
347.0024772006
 21
96.9796272126
 31
0.0
  0
LINE
  5
F4
330
1F
100
AcDbEntity
  8
0
  6
Continuous
 62
     7
370
    15
100
AcDbLine
 10
347.0024772006
 20
79.1796295103
 30
0.0
 11
347.2024805862
 21
78.9796261248
 31
0.0
  0
LINE
  5
F5
330
1F
100
AcDbEntity
  8
0
  6
Continuous
 62
     7
370
    15
100
AcDbLine
 10
352.3024775106
 20
97.1796287355
 30
0.0
 11
347.2024805862
 21
97.1796287355
 31
0.0
  0
LINE
  5
F6
330
1F
100
AcDbEntity
  8
0
  6
Continuous
 62
     7
370
    15
100
AcDbLine
 10
347.2024805862
 20
78.9796261248
 30
0.0
 11
352.3024775106
 21
78.9796261248
 31
0.0
  0
LINE
  5
F7
330
1F
100
AcDbEntity
  8
0
  6
Continuous
 62
     7
370
    15
100
AcDbLine
 10
352.3024775106
 20
78.9796261248
 30
0.0
 11
352.5024808961
 21
79.1796295103
 31
0.0
  0
LINE
  5
F8
330
1F
100
AcDbEntity
  8
0
  6
Continuous
 62
     7
370
    15
100
AcDbLine
 10
352.5024808961
 20
96.9796272126
 30
0.0
 11
352.3024775106
 21
97.1796287355
 31
0.0
  0
LINE
  5
F9
330
1F
100
AcDbEntity
  8
0
  6
Continuous
 62
     7
370
    15
100
AcDbLine
 10
247.8496123123
 20
78.9796261248
 30
0.0
 11
248.0496119726
 21
79.1796295103
 31
0.0
  0
LINE
  5
FA
330
1F
100
AcDbEntity
  8
0
  6
Continuous
 62
     7
370
    15
100
AcDbLine
 10
248.0496119726
 20
96.9796272126
 30
0.0
 11
247.8496123123
 21
97.1796287355
 31
0.0
  0
LINE
  5
FB
330
1F
100
AcDbEntity
  8
0
  6
Continuous
 62
     7
370
    15
100
AcDbLine
 10
242.7496116626
 20
78.9796261248
 30
0.0
 11
247.8496123123
 21
78.9796261248
 31
0.0
  0
LINE
  5
FC
330
1F
100
AcDbEntity
  8
0
  6
Continuous
 62
     7
370
    15
100
AcDbLine
 10
247.8496123123
 20
97.1796287355
 30
0.0
 11
242.7496116626
 21
97.1796287355
 31
0.0
  0
LINE
  5
FD
330
1F
100
AcDbEntity
  8
0
  6
Continuous
 62
     7
370
    15
100
AcDbLine
 10
242.7496116626
 20
97.1796287355
 30
0.0
 11
242.5496120024
 21
96.9796272126
 31
0.0
  0
LINE
  5
FE
330
1F
100
AcDbEntity
  8
0
  6
Continuous
 62
     7
370
    15
100
AcDbLine
 10
242.5496120024
 20
79.1796295103
 30
0.0
 11
242.7496116626
 21
78.9796261248
 31
0.0
  0
ARC
  5
FF
330
1F
100
AcDbEntity
  8
0
  6
Continuous
 62
     7
370
    15
100
AcDbCircle
 10
322.3024769061
 20
82.429627907
 30
0.0
 40
0.3000000000000114
100
AcDbArc
 50
180.0
 51
270.0
  0
ARC
  5
100
330
1F
100
AcDbEntity
  8
0
  6
Continuous
 62
     7
370
    15
100
AcDbCircle
 10
322.3024769061
 20
93.729627907
 30
0.0
 40
0.3000000000000114
100
AcDbArc
 50
90.0
 51
180.0
  0
LINE
  5
101
330
1F
100
AcDbEntity
  8
0
  6
Continuous
 62
     7
370
    15
100
AcDbLine
 10
347.0024772006
 20
94.0296275672
 30
0.0
 11
322.3024763185
 21
94.0296275672
 31
0.0
  0
LINE
  5
102
330
1F
100
AcDbEntity
  8
0
  6
Continuous
 62
     7
370
    15
100
AcDbLine
 10
322.3024763185
 20
82.129627293
 30
0.0
 11
347.0024772006
 21
82.129627293
 31
0.0
  0
LINE
  5
103
330
1F
100
AcDbEntity
  8
0
  6
Continuous
 62
     7
370
    15
100
AcDbLine
 10
248.0496119726
 20
82.129627293
 30
0.0
 11
272.7496109921
 21
82.129627293
 31
0.0
  0
LINE
  5
104
330
1F
100
AcDbEntity
  8
0
  6
Continuous
 62
     7
370
    15
100
AcDbLine
 10
272.7496109921
 20
94.0296275672
 30
0.0
 11
248.0496119726
 21
94.0296275672
 31
0.0
  0
ARC
  5
105
330
1F
100
AcDbEntity
  8
0
  6
Continuous
 62
     7
370
    15
100
AcDbCircle
 10
272.7496118946
 20
93.729627907
 30
0.0
 40
0.3000000000000114
100
AcDbArc
 50
0.0
 51
90.0
  0
ARC
  5
106
330
1F
100
AcDbEntity
  8
0
  6
Continuous
 62
     7
370
    15
100
AcDbCircle
 10
272.7496118946
 20
82.429627907
 30
0.0
 40
0.2999999999999972
100
AcDbArc
 50
270.0
 51
0.0
  0
LINE
  5
107
330
1F
100
AcDbEntity
  8
0
  6
Continuous
 62
     7
370
    15
100
AcDbLine
 10
275.0496126729
 20
93.0796263871
 30
0.0
 11
273.0496123451
 21
93.0796263871
 31
0.0
  0
LINE
  5
108
330
1F
100
AcDbEntity
  8
0
  6
Continuous
 62
     7
370
    15
100
AcDbLine
 10
273.0496123451
 20
83.0796284732
 30
0.0
 11
275.0496126729
 21
83.0796284732
 31
0.0
  0
LINE
  5
109
330
1F
100
AcDbEntity
  8
0
  6
Continuous
 62
     7
370
    15
100
AcDbLine
 10
320.0024746376
 20
83.0796284732
 30
0.0
 11
322.0024786907
 21
83.0796284732
 31
0.0
  0
LINE
  5
10A
330
1F
100
AcDbEntity
  8
0
  6
Continuous
 62
     7
370
    15
100
AcDbLine
 10
322.0024786907
 20
93.0796263871
 30
0.0
 11
320.0024746376
 21
93.0796263871
 31
0.0
  0
LINE
  5
10B
330
1F
100
AcDbEntity
  8
0
  6
Continuous
 62
     7
370
    15
100
AcDbLine
 10
392.5260461885
 20
79.604629254
 30
0.0
 11
392.702475937
 21
79.604629254
 31
0.0
  0
LINE
  5
10C
330
1F
100
AcDbEntity
  8
0
  6
Continuous
 62
     7
370
    15
100
AcDbLine
 10
392.702475937
 20
96.5546274689
 30
0.0
 11
392.5260461885
 21
96.5546274689
 31
0.0
  0
LINE
  5
10D
330
1F
100
AcDbEntity
  8
0
  6
Continuous
 62
     7
370
    15
100
AcDbLine
 10
352.5024808961
 20
79.604629254
 30
0.0
 11
352.5260396319
 21
79.604629254
 31
0.0
  0
LINE
  5
10E
330
1F
100
AcDbEntity
  8
0
  6
Continuous
 62
     7
370
    15
100
AcDbLine
 10
352.5260396319
 20
96.5546274689
 30
0.0
 11
352.5024808961
 21
96.5546274689
 31
0.0
  0
LINE
  5
10F
330
1F
100
AcDbEntity
  8
0
  6
Continuous
 62
     7
370
    15
100
AcDbLine
 10
392.702475937
 20
79.604629254
 30
0.0
 11
393.0024810153
 21
79.9046268818
 31
0.0
  0
LINE
  5
110
330
1F
100
AcDbEntity
  8
0
  6
Continuous
 62
     7
370
    15
100
AcDbLine
 10
393.0024810153
 20
96.2546279785
 30
0.0
 11
392.702475937
 21
96.5546274689
 31
0.0
  0
LINE
  5
111
330
1F
100
AcDbEntity
  8
0
  6
Continuous
 62
     7
370
    15
100
AcDbLine
 10
202.5260448474
 20
96.5546274689
 30
0.0
 11
202.3496113735
 21
96.5546274689
 31
0.0
  0
LINE
  5
112
330
1F
100
AcDbEntity
  8
0
  6
Continuous
 62
     7
370
    15
100
AcDbLine
 10
202.3496113735
 20
79.604629254
 30
0.0
 11
202.5260448474
 21
79.604629254
 31
0.0
  0
LINE
  5
113
330
1F
100
AcDbEntity
  8
0
  6
Continuous
 62
     7
370
    15
100
AcDbLine
 10
202.3496113735
 20
96.5546274689
 30
0.0
 11
202.0496118831
 21
96.2546279785
 31
0.0
  0
LINE
  5
114
330
1F
100
AcDbEntity
  8
0
  6
Continuous
 62
     7
370
    15
100
AcDbLine
 10
202.0496118831
 20
79.9046268818
 30
0.0
 11
202.3496113735
 21
79.604629254
 31
0.0
  0
LINE
  5
115
330
1F
100
AcDbEntity
  8
0
  6
Continuous
 62
     7
370
    15
100
AcDbLine
 10
242.5496120024
 20
96.5546274689
 30
0.0
 11
242.5260439533
 21
96.5546274689
 31
0.0
  0
LINE
  5
116
330
1F
100
AcDbEntity
  8
0
  6
Continuous
 62
     7
370
    15
100
AcDbLine
 10
242.5260439533
 20
79.604629254
 30
0.0
 11
242.5496120024
 21
79.604629254
 31
0.0
  0
LINE
  5
117
330
1F
100
AcDbEntity
  8
0
  6
Continuous
 62
     7
370
    15
100
AcDbLine
 10
392.5260461885
 20
77.3796288428
 30
0.0
 11
392.3260428029
 21
77.579628503
 31
0.0
  0
LINE
  5
118
330
1F
100
AcDbEntity
  8
0
  6
Continuous
 62
     7
370
    15
100
AcDbLine
 10
352.7260430175
 20
77.579628503
 30
0.0
 11
352.5260396319
 21
77.3796288428
 31
0.0
  0
LINE
  5
119
330
1F
100
AcDbEntity
  8
0
  6
Continuous
 62
     7
370
    15
100
AcDbLine
 10
352.5260396319
 20
77.3796288428
 30
0.0
 11
352.5260396319
 21
74.5796261486
 31
0.0
  0
LINE
  5
11A
330
1F
100
AcDbEntity
  8
0
  6
Continuous
 62
     7
370
    15
100
AcDbLine
 10
392.5260461885
 20
74.5796261486
 30
0.0
 11
392.5260461885
 21
77.3796288428
 31
0.0
  0
LINE
  5
11B
330
1F
100
AcDbEntity
  8
0
  6
Continuous
 62
     7
370
    15
100
AcDbLine
 10
352.5260396319
 20
74.5796261486
 30
0.0
 11
354.5260436851
 21
72.5796295461
 31
0.0
  0
LINE
  5
11C
330
1F
100
AcDbEntity
  8
0
  6
Continuous
 62
     7
370
    15
100
AcDbLine
 10
390.5260421353
 20
72.5796295461
 30
0.0
 11
392.5260461885
 21
74.5796261486
 31
0.0
  0
LINE
  5
11D
330
1F
100
AcDbEntity
  8
0
  6
Continuous
 62
     7
370
    15
100
AcDbLine
 10
242.5260439533
 20
77.3796288428
 30
0.0
 11
242.326044293
 21
77.579628503
 31
0.0
  0
LINE
  5
11E
330
1F
100
AcDbEntity
  8
0
  6
Continuous
 62
     7
370
    15
100
AcDbLine
 10
202.7260445076
 20
77.579628503
 30
0.0
 11
202.5260448474
 21
77.3796288428
 31
0.0
  0
LINE
  5
11F
330
1F
100
AcDbEntity
  8
0
  6
Continuous
 62
     7
370
    15
100
AcDbLine
 10
202.5260448474
 20
77.3796288428
 30
0.0
 11
202.5260448474
 21
74.5796261486
 31
0.0
  0
LINE
  5
120
330
1F
100
AcDbEntity
  8
0
  6
Continuous
 62
     7
370
    15
100
AcDbLine
 10
242.5260439533
 20
74.5796261486
 30
0.0
 11
242.5260439533
 21
77.3796288428
 31
0.0
  0
LINE
  5
121
330
1F
100
AcDbEntity
  8
0
  6
Continuous
 62
     7
370
    15
100
AcDbLine
 10
202.5260448474
 20
74.5796261486
 30
0.0
 11
204.5260451752
 21
72.5796295461
 31
0.0
  0
LINE
  5
122
330
1F
100
AcDbEntity
  8
0
  6
Continuous
 62
     7
370
    15
100
AcDbLine
 10
240.5260436255
 20
72.5796295461
 30
0.0
 11
242.5260439533
 21
74.5796261486
 31
0.0
  0
LINE
  5
123
330
1F
100
AcDbEntity
  8
0
  6
Continuous
 62
     7
370
    15
100
AcDbLine
 10
329.4343732315
 20
99.5796283838
 30
0.0
 11
352.6261903363
 21
99.5796283838
 31
0.0
  0
LINE
  5
124
330
1F
100
AcDbEntity
  8
0
  6
Continuous
 62
     7
370
    15
100
AcDbLine
 10
353.326038273
 20
105.5796275046
 30
0.0
 11
329.4343732315
 21
105.5796275046
 31
0.0
  0
ARC
  5
125
330
1F
100
AcDbEntity
  8
0
  6
Continuous
 62
     7
370
    15
100
AcDbCircle
 10
353.3260444003
 20
105.479627907
 30
0.0
 40
0.1000000000000796
100
AcDbArc
 50
0.0
 51
90.0
  0
ARC
  5
126
330
1F
100
AcDbEntity
  8
0
  6
Continuous
 62
     7
370
    15
100
AcDbCircle
 10
329.4343713135
 20
104.579627907
 30
0.0
 40
5.000000000000014
100
AcDbArc
 50
238.9972808661
 51
270.0
  0
ARC
  5
127
330
1F
100
AcDbEntity
  8
0
  6
Continuous
 62
     7
370
    15
100
AcDbCircle
 10
329.4343713135
 20
100.579627907
 30
0.0
 40
5.000000000000014
100
AcDbArc
 50
90.0
 51
121.0027191339
  0
ARC
  5
128
330
1F
100
AcDbEntity
  8
0
  6
Continuous
 62
     7
370
    15
100
AcDbCircle
 10
313.9154454964
 20
104.7519656048
 30
0.0
 40
4.999999999999993
100
AcDbArc
 50
265.7108466712
 51
299.125466729
  0
ARC
  5
129
330
1F
100
AcDbEntity
  8
0
  6
Continuous
 62
     7
370
    15
100
AcDbCircle
 10
313.9154454964
 20
100.4072902091
 30
0.0
 40
4.999999999999993
100
AcDbArc
 50
60.874533271
 51
94.2891533288
  0
LINE
  5
12A
330
1F
100
AcDbEntity
  8
0
  6
Continuous
 62
     7
370
    15
100
AcDbLine
 10
313.5414950567
 20
105.3932866213
 30
0.0
 11
306.9512553531
 21
104.8990188298
 31
0.0
  0
LINE
  5
12B
330
1F
100
AcDbEntity
  8
0
  6
Continuous
 62
     7
370
    15
100
AcDbLine
 10
306.9512553531
 20
100.2602370587
 30
0.0
 11
313.5414950567
 21
99.7659692672
 31
0.0
  0
LINE
  5
12C
330
1F
100
AcDbEntity
  8
0
  6
Continuous
 62
     7
370
    15
100
AcDbLine
 10
353.6634899694
 20
105.329626998
 30
0.0
 11
353.4260399657
 21
105.329626998
 31
0.0
  0
ARC
  5
12D
330
1F
100
AcDbEntity
  8
0
  6
Continuous
 62
     7
370
    15
100
AcDbCircle
 10
307.0260444003
 20
103.901819351
 30
0.0
 40
1.000000000000016
100
AcDbArc
 50
94.2891533288
 51
180.0
  0
ARC
  5
12E
330
1F
100
AcDbEntity
  8
0
  6
Continuous
 62
     7
370
    15
100
AcDbCircle
 10
307.0260444003
 20
101.257436463
 30
0.0
 40
1.000000000000001
100
AcDbArc
 50
180.0
 51
265.7108466712
  0
ARC
  5
12F
330
1F
100
AcDbEntity
  8
0
  6
Continuous
 62
     7
370
    15
100
AcDbCircle
 10
324.0260444003
 20
109.579627907
 30
0.0
 40
5.500000000000022
100
AcDbArc
 50
270.0
 51
301.0027191339
  0
ARC
  5
130
330
1F
100
AcDbEntity
  8
0
  6
Continuous
 62
     7
370
    15
100
AcDbCircle
 10
324.0260444003
 20
95.579627907
 30
0.0
 40
5.500000000000022
100
AcDbArc
 50
58.9972808661
 51
90.0
  0
ARC
  5
131
330
1F
100
AcDbEntity
  8
0
  6
Continuous
 62
     7
370
    15
100
AcDbCircle
 10
319.0260444003
 20
109.579627907
 30
0.0
 40
5.5
100
AcDbArc
 50
240.874533271
 51
270.0
  0
ARC
  5
132
330
1F
100
AcDbEntity
  8
0
  6
Continuous
 62
     7
370
    15
100
AcDbCircle
 10
319.0260444003
 20
95.579627907
 30
0.0
 40
5.5
100
AcDbArc
 50
90.0
 51
119.125466729
  0
LINE
  5
133
330
1F
100
AcDbEntity
  8
0
  6
Continuous
 62
     7
370
    15
100
AcDbLine
 10
324.0260414797
 20
104.0796281901
 30
0.0
 11
319.0260462481
 21
104.0796281901
 31
0.0
  0
LINE
  5
134
330
1F
100
AcDbEntity
  8
0
  6
Continuous
 62
     7
370
    15
100
AcDbLine
 10
319.0260462481
 20
101.0796276984
 30
0.0
 11
324.0260414797
 21
101.0796276984
 31
0.0
  0
LINE
  5
135
330
1F
100
AcDbEntity
  8
0
  6
Continuous
 62
     7
370
    15
100
AcDbLine
 10
244.0260451305
 20
105.5796275046
 30
0.0
 11
241.7260453123
 21
105.5796275046
 31
0.0
  0
LINE
  5
136
330
1F
100
AcDbEntity
  8
0
  6
Continuous
 62
     7
370
    15
100
AcDbLine
 10
265.6177178043
 20
105.5796275046
 30
0.0
 11
247.5260447728
 21
105.5796275046
 31
0.0
  0
LINE
  5
137
330
1F
100
AcDbEntity
  8
0
  6
Continuous
 62
     7
370
    15
100
AcDbLine
 10
247.5260447728
 20
99.5796283838
 30
0.0
 11
265.6177178043
 21
99.5796283838
 31
0.0
  0
LINE
  5
138
330
1F
100
AcDbEntity
  8
0
  6
Continuous
 62
     7
370
    15
100
AcDbLine
 10
242.4207784253
 20
99.5796283838
 30
0.0
 11
244.0260451305
 21
99.5796283838
 31
0.0
  0
ARC
  5
139
330
1F
100
AcDbEntity
  8
0
  6
Continuous
 62
     7
370
    15
100
AcDbCircle
 10
241.7260444003
 20
105.479627907
 30
0.0
 40
0.1000000000000227
100
AcDbArc
 50
90.0
 51
180.0
  0
ARC
  5
13A
330
1F
100
AcDbEntity
  8
0
  6
Continuous
 62
     7
370
    15
100
AcDbCircle
 10
265.6177174871
 20
100.579627907
 30
0.0
 40
5.000000000000012
100
AcDbArc
 50
58.9972808661
 51
90.0
  0
ARC
  5
13B
330
1F
100
AcDbEntity
  8
0
  6
Continuous
 62
     7
370
    15
100
AcDbCircle
 10
265.6177174871
 20
104.579627907
 30
0.0
 40
5.0
100
AcDbArc
 50
270.0
 51
301.0027191339
  0
ARC
  5
13C
330
1F
100
AcDbEntity
  8
0
  6
Continuous
 62
     7
370
    15
100
AcDbCircle
 10
281.1366433043
 20
100.4072902091
 30
0.0
 40
5.000000000000012
100
AcDbArc
 50
85.7108466712
 51
119.125466729
  0
ARC
  5
13D
330
1F
100
AcDbEntity
  8
0
  6
Continuous
 62
     7
370
    15
100
AcDbCircle
 10
281.1366433043
 20
104.7519656048
 30
0.0
 40
5.000000000000012
100
AcDbArc
 50
240.874533271
 51
274.2891533288
  0
LINE
  5
13E
330
1F
100
AcDbEntity
  8
0
  6
Continuous
 62
     7
370
    15
100
AcDbLine
 10
281.5105922538
 20
99.7659692672
 30
0.0
 11
288.1008319574
 21
100.2602370587
 31
0.0
  0
LINE
  5
13F
330
1F
100
AcDbEntity
  8
0
  6
Continuous
 62
     7
370
    15
100
AcDbLine
 10
288.1008319574
 20
104.8990188298
 30
0.0
 11
281.5105922538
 21
105.3932866213
 31
0.0
  0
LINE
  5
140
330
1F
100
AcDbEntity
  8
0
  6
Continuous
 62
     7
370
    15
100
AcDbLine
 10
241.6260436195
 20
105.329626998
 30
0.0
 11
241.391322391
 21
105.329626998
 31
0.0
  0
ARC
  5
141
330
1F
100
AcDbEntity
  8
0
  6
Continuous
 62
     7
370
    15
100
AcDbCircle
 10
288.0260444003
 20
101.257436463
 30
0.0
 40
1.000000000000016
100
AcDbArc
 50
274.2891533288
 51
0.0
  0
ARC
  5
142
330
1F
100
AcDbEntity
  8
0
  6
Continuous
 62
     7
370
    15
100
AcDbCircle
 10
288.0260444003
 20
103.901819351
 30
0.0
 40
1.000000000000001
100
AcDbArc
 50
0.0
 51
85.7108466712
  0
ARC
  5
143
330
1F
100
AcDbEntity
  8
0
  6
Continuous
 62
     7
370
    15
100
AcDbCircle
 10
271.0260444003
 20
95.579627907
 30
0.0
 40
5.500000000000022
100
AcDbArc
 50
90.0
 51
121.0027191339
  0
ARC
  5
144
330
1F
100
AcDbEntity
  8
0
  6
Continuous
 62
     7
370
    15
100
AcDbCircle
 10
271.0260444003
 20
109.579627907
 30
0.0
 40
5.500000000000022
100
AcDbArc
 50
238.9972808661
 51
270.0
  0
ARC
  5
145
330
1F
100
AcDbEntity
  8
0
  6
Continuous
 62
     7
370
    15
100
AcDbCircle
 10
276.0260444003
 20
95.579627907
 30
0.0
 40
5.5
100
AcDbArc
 50
60.874533271
 51
90.0
  0
ARC
  5
146
330
1F
100
AcDbEntity
  8
0
  6
Continuous
 62
     7
370
    15
100
AcDbCircle
 10
276.0260444003
 20
109.579627907
 30
0.0
 40
5.5
100
AcDbArc
 50
270.0
 51
299.125466729
  0
LINE
  5
147
330
1F
100
AcDbEntity
  8
0
  6
Continuous
 62
     7
370
    15
100
AcDbLine
 10
271.0260458308
 20
101.0796276984
 30
0.0
 11
276.0260447877
 21
101.0796276984
 31
0.0
  0
LINE
  5
148
330
1F
100
AcDbEntity
  8
0
  6
Continuous
 62
     7
370
    15
100
AcDbLine
 10
276.0260447877
 20
104.0796281901
 30
0.0
 11
271.0260458308
 21
104.0796281901
 31
0.0
  0
LINE
  5
149
330
1F
100
AcDbEntity
  8
0
  6
Continuous
 62
     7
370
    15
100
AcDbLine
 10
392.5260461885
 20
124.7796278927
 30
0.0
 11
392.2260411101
 21
125.079627907
 31
0.0
  0
LINE
  5
14A
330
1F
100
AcDbEntity
  8
0
  6
Continuous
 62
     7
370
    15
100
AcDbLine
 10
352.8260447103
 20
125.079627907
 30
0.0
 11
352.5260396319
 21
124.7796278927
 31
0.0
  0
LINE
  5
14B
330
1F
100
AcDbEntity
  8
0
  6
Continuous
 62
     7
370
    15
100
AcDbLine
 10
352.5260396319
 20
98.5141618308
 30
0.0
 11
352.5260396319
 21
77.8796261308
 31
0.0
  0
LINE
  5
14C
330
1F
100
AcDbEntity
  8
0
  6
Continuous
 62
     7
370
    15
100
AcDbLine
 10
352.5260396319
 20
124.7796278927
 30
0.0
 11
352.5260396319
 21
121.6216476765
 31
0.0
  0
LINE
  5
14D
330
1F
100
AcDbEntity
  8
0
  6
Continuous
 62
     7
370
    15
100
AcDbLine
 10
392.5260461885
 20
121.6231699233
 30
0.0
 11
392.5260461885
 21
124.7796278927
 31
0.0
  0
LINE
  5
14E
330
1F
100
AcDbEntity
  8
0
  6
Continuous
 62
     7
370
    15
100
AcDbLine
 10
392.5260461885
 20
77.8796261308
 30
0.0
 11
392.5260461885
 21
98.5519716647
 31
0.0
  0
LINE
  5
14F
330
1F
100
AcDbEntity
  8
0
  6
Continuous
 62
     7
370
    15
100
AcDbLine
 10
352.5260396319
 20
77.8796261308
 30
0.0
 11
352.8260447103
 21
77.579628503
 31
0.0
  0
LINE
  5
150
330
1F
100
AcDbEntity
  8
0
  6
Continuous
 62
     7
370
    15
100
AcDbLine
 10
392.2260411101
 20
77.579628503
 30
0.0
 11
392.5260461885
 21
77.8796261308
 31
0.0
  0
LINE
  5
151
330
1F
100
AcDbEntity
  8
0
  6
Continuous
 62
     7
370
    15
100
AcDbLine
 10
242.5260439533
 20
124.7796278927
 30
0.0
 11
242.2260444629
 21
125.079627907
 31
0.0
  0
LINE
  5
152
330
1F
100
AcDbEntity
  8
0
  6
Continuous
 62
     7
370
    15
100
AcDbLine
 10
202.8260443377
 20
125.079627907
 30
0.0
 11
202.5260448474
 21
124.7796278927
 31
0.0
  0
LINE
  5
153
330
1F
100
AcDbEntity
  8
0
  6
Continuous
 62
     7
370
    15
100
AcDbLine
 10
202.5260448474
 20
98.5141618308
 30
0.0
 11
202.5260448474
 21
77.8796261308
 31
0.0
  0
LINE
  5
154
330
1F
100
AcDbEntity
  8
0
  6
Continuous
 62
     7
370
    15
100
AcDbLine
 10
202.5260448474
 20
124.7796278927
 30
0.0
 11
202.5260448474
 21
121.6216476765
 31
0.0
  0
LINE
  5
155
330
1F
100
AcDbEntity
  8
0
  6
Continuous
 62
     7
370
    15
100
AcDbLine
 10
242.5260439533
 20
121.6231699233
 30
0.0
 11
242.5260439533
 21
124.7796278927
 31
0.0
  0
LINE
  5
156
330
1F
100
AcDbEntity
  8
0
  6
Continuous
 62
     7
370
    15
100
AcDbLine
 10
242.5260439533
 20
77.8796261308
 30
0.0
 11
242.5260439533
 21
98.5519716647
 31
0.0
  0
LINE
  5
157
330
1F
100
AcDbEntity
  8
0
  6
Continuous
 62
     7
370
    15
100
AcDbLine
 10
202.5260448474
 20
77.8796261308
 30
0.0
 11
202.8260443377
 21
77.579628503
 31
0.0
  0
LINE
  5
158
330
1F
100
AcDbEntity
  8
0
  6
Continuous
 62
     7
370
    15
100
AcDbLine
 10
242.2260444629
 20
77.579628503
 30
0.0
 11
242.5260439533
 21
77.8796261308
 31
0.0
  0
LINE
  5
159
330
1F
100
AcDbEntity
  8
0
  6
Continuous
 62
     7
370
    15
100
AcDbLine
 10
347.0024772006
 20
92.3815293369
 30
0.0
 11
347.0024772006
 21
96.9796272126
 31
0.0
  0
LINE
  5
15A
330
1F
100
AcDbEntity
  8
0
  6
Continuous
 62
     7
370
    15
100
AcDbLine
 10
347.0024772006
 20
79.1796295103
 30
0.0
 11
347.0024772006
 21
92.3815293369
 31
0.0
  0
LINE
  5
15B
330
1F
100
AcDbEntity
  8
0
  6
Continuous
 62
     7
370
    15
100
AcDbLine
 10
347.2024805862
 20
92.4782006201
 30
0.0
 11
347.2024805862
 21
78.9796261248
 31
0.0
  0
LINE
  5
15C
330
1F
100
AcDbEntity
  8
0
  6
Continuous
 62
     7
370
    15
100
AcDbLine
 10
347.2024805862
 20
97.1796287355
 30
0.0
 11
347.2024805862
 21
92.4782006201
 31
0.0
  0
LINE
  5
15D
330
1F
100
AcDbEntity
  8
0
  6
Continuous
 62
     7
370
    15
100
AcDbLine
 10
352.3024775106
 20
92.4782006201
 30
0.0
 11
352.3024775106
 21
97.1796287355
 31
0.0
  0
LINE
  5
15E
330
1F
100
AcDbEntity
  8
0
  6
Continuous
 62
     7
370
    15
100
AcDbLine
 10
352.3024775106
 20
78.9796261248
 30
0.0
 11
352.3024775106
 21
92.4782006201
 31
0.0
  0
LINE
  5
15F
330
1F
100
AcDbEntity
  8
0
  6
Continuous
 62
     7
370
    15
100
AcDbLine
 10
352.5024808961
 20
92.3815293369
 30
0.0
 11
352.5024808961
 21
79.1796295103
 31
0.0
  0
LINE
  5
160
330
1F
100
AcDbEntity
  8
0
  6
Continuous
 62
     7
370
    15
100
AcDbLine
 10
352.5024808961
 20
96.9796272126
 30
0.0
 11
352.5024808961
 21
92.3815293369
 31
0.0
  0
LINE
  5
161
330
1F
100
AcDbEntity
  8
0
  6
Continuous
 62
     7
370
    15
100
AcDbLine
 10
248.0496119726
 20
81.3696643469
 30
0.0
 11
248.0496119726
 21
79.1796295103
 31
0.0
  0
LINE
  5
162
330
1F
100
AcDbEntity
  8
0
  6
Continuous
 62
     7
370
    15
100
AcDbLine
 10
248.0496119726
 20
96.9796272126
 30
0.0
 11
248.0496119726
 21
81.3696643469
 31
0.0
  0
LINE
  5
163
330
1F
100
AcDbEntity
  8
0
  6
Continuous
 62
     7
370
    15
100
AcDbLine
 10
247.8496123123
 20
81.2188794968
 30
0.0
 11
247.8496123123
 21
97.1796287355
 31
0.0
  0
LINE
  5
164
330
1F
100
AcDbEntity
  8
0
  6
Continuous
 62
     7
370
    15
100
AcDbLine
 10
247.8496123123
 20
78.9796261248
 30
0.0
 11
247.8496123123
 21
81.2188794968
 31
0.0
  0
LINE
  5
165
330
1F
100
AcDbEntity
  8
0
  6
Continuous
 62
     7
370
    15
100
AcDbLine
 10
242.7496116626
 20
81.2188794968
 30
0.0
 11
242.7496116626
 21
78.9796261248
 31
0.0
  0
LINE
  5
166
330
1F
100
AcDbEntity
  8
0
  6
Continuous
 62
     7
370
    15
100
AcDbLine
 10
242.7496116626
 20
97.1796287355
 30
0.0
 11
242.7496116626
 21
81.2188794968
 31
0.0
  0
LINE
  5
167
330
1F
100
AcDbEntity
  8
0
  6
Continuous
 62
     7
370
    15
100
AcDbLine
 10
242.5496120024
 20
81.3696643469
 30
0.0
 11
242.5496120024
 21
96.9796272126
 31
0.0
  0
LINE
  5
168
330
1F
100
AcDbEntity
  8
0
  6
Continuous
 62
     7
370
    15
100
AcDbLine
 10
242.5496120024
 20
79.1796295103
 30
0.0
 11
242.5496120024
 21
81.3696643469
 31
0.0
  0
LINE
  5
169
330
1F
100
AcDbEntity
  8
0
  6
Continuous
 62
     7
370
    15
100
AcDbLine
 10
322.0024786907
 20
82.9841232058
 30
0.0
 11
322.0024786907
 21
93.7296262142
 31
0.0
  0
LINE
  5
16A
330
1F
100
AcDbEntity
  8
0
  6
Continuous
 62
     7
370
    15
100
AcDbLine
 10
322.0024786907
 20
82.4296286461
 30
0.0
 11
322.0024786907
 21
82.9841232058
 31
0.0
  0
LINE
  5
16B
330
1F
100
AcDbEntity
  8
0
  6
Continuous
 62
     7
370
    15
100
AcDbLine
 10
273.0496123451
 20
92.0310875532
 30
0.0
 11
273.0496123451
 21
82.4296286461
 31
0.0
  0
LINE
  5
16C
330
1F
100
AcDbEntity
  8
0
  6
Continuous
 62
     7
370
    15
100
AcDbLine
 10
273.0496123451
 20
93.7296262142
 30
0.0
 11
273.0496123451
 21
92.0310875532
 31
0.0
  0
LINE
  5
16D
330
1F
100
AcDbEntity
  8
0
  6
Continuous
 62
     7
370
    15
100
AcDbLine
 10
275.0496126729
 20
83.0796284732
 30
0.0
 11
275.0496126729
 21
93.0796263871
 31
0.0
  0
LINE
  5
16E
330
1F
100
AcDbEntity
  8
0
  6
Continuous
 62
     7
370
    15
100
AcDbLine
 10
320.0024746376
 20
93.0034628269
 30
0.0
 11
320.0024746376
 21
83.0796284732
 31
0.0
  0
LINE
  5
16F
330
1F
100
AcDbEntity
  8
0
  6
Continuous
 62
     7
370
    15
100
AcDbLine
 10
320.0024746376
 20
93.0796263871
 30
0.0
 11
320.0024746376
 21
93.0034628269
 31
0.0
  0
LINE
  5
170
330
1F
100
AcDbEntity
  8
0
  6
Continuous
 62
     7
370
    15
100
AcDbLine
 10
392.702475937
 20
79.604629254
 30
0.0
 11
392.702475937
 21
96.5546274689
 31
0.0
  0
LINE
  5
171
330
1F
100
AcDbEntity
  8
0
  6
Continuous
 62
     7
370
    15
100
AcDbLine
 10
393.0024810153
 20
96.2546279785
 30
0.0
 11
393.0024810153
 21
79.9046268818
 31
0.0
  0
LINE
  5
172
330
1F
100
AcDbEntity
  8
0
  6
Continuous
 62
     7
370
    15
100
AcDbLine
 10
202.3496113735
 20
96.4255293962
 30
0.0
 11
202.3496113735
 21
79.604629254
 31
0.0
  0
LINE
  5
173
330
1F
100
AcDbEntity
  8
0
  6
Continuous
 62
     7
370
    15
100
AcDbLine
 10
202.3496113735
 20
96.5546274689
 30
0.0
 11
202.3496113735
 21
96.4255293962
 31
0.0
  0
LINE
  5
174
330
1F
100
AcDbEntity
  8
0
  6
Continuous
 62
     7
370
    15
100
AcDbLine
 10
202.0496118831
 20
96.1300989744
 30
0.0
 11
202.0496118831
 21
96.2546279785
 31
0.0
  0
LINE
  5
175
330
1F
100
AcDbEntity
  8
0
  6
Continuous
 62
     7
370
    15
100
AcDbLine
 10
202.0496118831
 20
79.9046268818
 30
0.0
 11
202.0496118831
 21
96.1300989744
 31
0.0
  0
LINE
  5
176
330
1F
100
AcDbEntity
  8
0
  6
Continuous
 62
     7
370
    15
100
AcDbLine
 10
392.5260461885
 20
77.3796288428
 30
0.0
 11
352.5260396319
 21
77.3796288428
 31
0.0
  0
LINE
  5
177
330
1F
100
AcDbEntity
  8
0
  6
Continuous
 62
     7
370
    15
100
AcDbLine
 10
352.7260430175
 20
77.579628503
 30
0.0
 11
392.3260428029
 21
77.579628503
 31
0.0
  0
LINE
  5
178
330
1F
100
AcDbEntity
  8
0
  6
Continuous
 62
     7
370
    15
100
AcDbLine
 10
352.5260396319
 20
74.5796261486
 30
0.0
 11
392.5260461885
 21
74.5796261486
 31
0.0
  0
LINE
  5
179
330
1F
100
AcDbEntity
  8
0
  6
Continuous
 62
     7
370
    15
100
AcDbLine
 10
390.5260421353
 20
72.5796295461
 30
0.0
 11
354.5260436851
 21
72.5796295461
 31
0.0
  0
LINE
  5
17A
330
1F
100
AcDbEntity
  8
0
  6
Continuous
 62
     7
370
    15
100
AcDbLine
 10
242.5260439533
 20
77.3796288428
 30
0.0
 11
202.5260448474
 21
77.3796288428
 31
0.0
  0
LINE
  5
17B
330
1F
100
AcDbEntity
  8
0
  6
Continuous
 62
     7
370
    15
100
AcDbLine
 10
242.3012450355
 20
77.579628503
 30
0.0
 11
242.326044293
 21
77.579628503
 31
0.0
  0
LINE
  5
17C
330
1F
100
AcDbEntity
  8
0
  6
Continuous
 62
     7
370
    15
100
AcDbLine
 10
202.7260445076
 20
77.579628503
 30
0.0
 11
242.3012450355
 21
77.579628503
 31
0.0
  0
LINE
  5
17D
330
1F
100
AcDbEntity
  8
0
  6
Continuous
 62
     7
370
    15
100
AcDbLine
 10
242.5009932387
 20
74.5796261486
 30
0.0
 11
242.5260439533
 21
74.5796261486
 31
0.0
  0
LINE
  5
17E
330
1F
100
AcDbEntity
  8
0
  6
Continuous
 62
     7
370
    15
100
AcDbLine
 10
202.5260448474
 20
74.5796261486
 30
0.0
 11
242.5009932387
 21
74.5796261486
 31
0.0
  0
LINE
  5
17F
330
1F
100
AcDbEntity
  8
0
  6
Continuous
 62
     7
370
    15
100
AcDbLine
 10
240.5260436255
 20
72.5796295461
 30
0.0
 11
204.5260451752
 21
72.5796295461
 31
0.0
  0
LINE
  5
180
330
1F
100
AcDbEntity
  8
0
  6
Continuous
 62
     7
370
    15
100
AcDbLine
 10
347.5260444003
 20
101.2152077761
 30
0.0
 11
351.0260440427
 21
101.2152077761
 31
0.0
  0
LINE
  5
181
330
1F
100
AcDbEntity
  8
0
  6
Continuous
 62
     7
370
    15
100
AcDbLine
 10
351.0260440427
 20
104.6425083783
 30
0.0
 11
351.0260440427
 21
101.2152077761
 31
0.0
  0
LINE
  5
182
330
1F
100
AcDbEntity
  8
0
  6
Continuous
 62
     7
370
    15
100
AcDbLine
 10
347.5260444003
 20
104.6425083783
 30
0.0
 11
351.0260440427
 21
104.6425083783
 31
0.0
  0
LINE
  5
183
330
1F
100
AcDbEntity
  8
0
  6
Continuous
 62
     7
370
    15
100
AcDbLine
 10
347.5260444003
 20
104.6425083783
 30
0.0
 11
347.5260444003
 21
101.2152077761
 31
0.0
  0
LINE
  5
184
330
1F
100
AcDbEntity
  8
0
  6
Continuous
 62
     7
370
    15
100
AcDbLine
 10
353.4260399657
 20
105.4796276745
 30
0.0
 11
353.4260399657
 21
103.8247680423
 31
0.0
  0
LINE
  5
185
330
1F
100
AcDbEntity
  8
0
  6
Continuous
 62
     7
370
    15
100
AcDbLine
 10
306.0260422546
 20
102.7680968997
 30
0.0
 11
306.0260422546
 21
103.9018200842
 31
0.0
  0
LINE
  5
186
330
1F
100
AcDbEntity
  8
0
  6
Continuous
 62
     7
370
    15
100
AcDbLine
 10
306.0260422546
 20
101.2574358043
 30
0.0
 11
306.0260422546
 21
102.7680968997
 31
0.0
  0
LINE
  5
187
330
1F
100
AcDbEntity
  8
0
  6
Continuous
 62
     7
370
    15
100
AcDbLine
 10
247.5260447728
 20
105.5699473378
 30
0.0
 11
244.0260451305
 21
105.5699473378
 31
0.0
  0
LINE
  5
188
330
1F
100
AcDbEntity
  8
0
  6
Continuous
 62
     7
370
    15
100
AcDbLine
 10
244.0260451305
 20
103.8050593939
 30
0.0
 11
244.0260451305
 21
105.5796275046
 31
0.0
  0
LINE
  5
189
330
1F
100
AcDbEntity
  8
0
  6
Continuous
 62
     7
370
    15
100
AcDbLine
 10
247.5260447728
 20
103.8050593939
 30
0.0
 11
244.0260451305
 21
103.8050593939
 31
0.0
  0
LINE
  5
18A
330
1F
100
AcDbEntity
  8
0
  6
Continuous
 62
     7
370
    15
100
AcDbLine
 10
247.5260447728
 20
103.8050593939
 30
0.0
 11
247.5260447728
 21
105.5796275046
 31
0.0
  0
LINE
  5
18B
330
1F
100
AcDbEntity
  8
0
  6
Continuous
 62
     7
370
    15
100
AcDbLine
 10
247.5260447728
 20
99.5893085507
 30
0.0
 11
244.0260451305
 21
99.5893085507
 31
0.0
  0
LINE
  5
18C
330
1F
100
AcDbEntity
  8
0
  6
Continuous
 62
     7
370
    15
100
AcDbLine
 10
244.0260451305
 20
99.5796283838
 30
0.0
 11
244.0260451305
 21
99.5893085507
 31
0.0
  0
LINE
  5
18D
330
1F
100
AcDbEntity
  8
0
  6
Continuous
 62
     7
370
    15
100
AcDbLine
 10
247.5260447728
 20
99.5796283838
 30
0.0
 11
247.5260447728
 21
99.5893085507
 31
0.0
  0
LINE
  5
18E
330
1F
100
AcDbEntity
  8
0
  6
Continuous
 62
     7
370
    15
100
AcDbLine
 10
241.6260436195
 20
105.0746644047
 30
0.0
 11
241.6260436195
 21
105.4796276745
 31
0.0
  0
LINE
  5
18F
330
1F
100
AcDbEntity
  8
0
  6
Continuous
 62
     7
370
    15
100
AcDbLine
 10
241.6260436195
 20
103.8721667734
 30
0.0
 11
241.6260436195
 21
105.0746644047
 31
0.0
  0
LINE
  5
190
330
1F
100
AcDbEntity
  8
0
  6
Continuous
 62
     7
370
    15
100
AcDbLine
 10
289.026045056
 20
103.7171853837
 30
0.0
 11
289.026045056
 21
101.2574358043
 31
0.0
  0
LINE
  5
191
330
1F
100
AcDbEntity
  8
0
  6
Continuous
 62
     7
370
    15
100
AcDbLine
 10
289.026045056
 20
103.9018200842
 30
0.0
 11
289.026045056
 21
103.7171853837
 31
0.0
  0
LINE
  5
192
330
1F
100
AcDbEntity
  8
0
  6
Continuous
 62
     7
370
    15
100
AcDbLine
 10
392.5260461885
 20
124.7796278927
 30
0.0
 11
352.5260396319
 21
124.7796278927
 31
0.0
  0
LINE
  5
193
330
1F
100
AcDbEntity
  8
0
  6
Continuous
 62
     7
370
    15
100
AcDbLine
 10
352.8260447103
 20
125.079627907
 30
0.0
 11
392.2260411101
 21
125.079627907
 31
0.0
  0
LINE
  5
194
330
1F
100
AcDbEntity
  8
0
  6
Continuous
 62
     7
370
    15
100
AcDbLine
 10
352.5260396319
 20
77.8796261308
 30
0.0
 11
392.5260461885
 21
77.8796261308
 31
0.0
  0
SPLINE
  5
195
330
1F
100
AcDbEntity
  8
0
  6
Continuous
 62
     7
370
    15
100
AcDbSpline
210
0.0
220
0.0
230
1.0
 70
    11
 71
     3
 72
    50
 73
    46
 74
     0
 42
0.00000001
 43
0.00000001
 40
0.0
 40
0.0
 40
0.0
 40
0.0
 40
0.0238795990327739
 40
0.0485137634850837
 40
0.0723746405318347
 40
0.0968536287656924
 40
0.1220567714999956
 40
0.1480306680647784
 40
0.1724346882134171
 40
0.1976384386220797
 40
0.2206912532930925
 40
0.2443571789130775
 40
0.2685211487343909
 40
0.293318513500748
 40
0.3186121640676286
 40
0.3447471446225757
 40
0.3682178930708462
 40
0.3925110533316001
 40
0.4139410952060894
 40
0.4359576554102506
 40
0.4581896571574349
 40
0.4809012005341333
 40
0.5130391356331817
 40
0.5461023074051393
 40
0.5788688399141121
 40
0.5956807963419446
 40
0.6124863170368575
 40
0.6280166855335593
 40
0.6437740913302512
 40
0.6568210297963052
 40
0.6702127584579399
 40
0.6832805189030051
 40
0.6967901975091562
 40
0.7138963256041752
 40
0.731466185207921
 40
0.7618149010410077
 40
0.7929504900008385
 40
0.825507037483484
 40
0.8588939813439277
 40
0.884608220177288
 40
0.9109857480490706
 40
0.9367393548953828
 40
0.96350144983501
 40
0.9815654131328027
 40
1.0
 40
1.0
 40
1.0
 40
1.0
 10
352.5260396319472
 20
98.51416183084127
 30
0.0
 10
352.5427222494533
 20
98.81003481564404
 30
0.0
 10
352.5766146342831
 20
99.41113000097974
 30
0.0
 10
352.8077769805748
 20
100.6620557304128
 30
0.0
 10
353.1083889663014
 20
102.1384866076154
 30
0.0
 10
353.4402888737346
 20
103.8356466614539
 30
0.0
 10
353.7486446414762
 20
105.7565169935296
 30
0.0
 10
353.966243663837
 20
107.8117555039143
 30
0.0
 10
354.0503110988575
 20
109.9393059860602
 30
0.0
 10
353.988684595209
 20
111.9905017911049
 30
0.0
 10
353.8028718030804
 20
113.9605673226284
 30
0.0
 10
353.5320853435551
 20
115.7977415776585
 30
0.0
 10
353.2088609971663
 20
117.5285380139008
 30
0.0
 10
352.8859506240192
 20
119.1021191836696
 30
0.0
 10
352.6242301788574
 20
120.4723646650488
 30
0.0
 10
352.499460561953
 20
121.5295833704015
 30
0.0
 10
352.5553005178215
 20
122.2576961225906
 30
0.0
 10
352.7979199446739
 20
122.635029350965
 30
0.0
 10
353.2219354245615
 20
122.7167629306336
 30
0.0
 10
353.7961518617728
 20
122.5455874126973
 30
0.0
 10
354.5302754338035
 20
122.1371747595789
 30
0.0
 10
355.5178092415376
 20
121.4301979880497
 30
0.0
 10
356.7980697907414
 20
120.3422781402732
 30
0.0
 10
358.3441143329403
 20
118.8302689776787
 30
0.0
 10
359.6799217719212
 20
117.3305555280531
 30
0.0
 10
360.715375123943
 20
115.9903497410773
 30
0.0
 10
361.4394073855021
 20
114.9212182151257
 30
0.0
 10
362.0790110121282
 20
113.7961381364825
 30
0.0
 10
362.5682383937777
 20
112.6794297715157
 30
0.0
 10
362.897117050136
 20
111.5480622129836
 30
0.0
 10
363.0478673590657
 20
110.4426854127457
 30
0.0
 10
363.0138416294787
 20
109.3114620942156
 30
0.0
 10
362.7790274308436
 20
108.1045646177497
 30
0.0
 10
362.3182986693215
 20
106.847649134247
 30
0.0
 10
361.4979283569995
 20
105.2849972970192
 30
0.0
 10
360.3060592165901
 20
103.5832707288889
 30
0.0
 10
358.7948449544152
 20
101.8107648233683
 30
0.0
 10
357.2427147089785
 20
100.2311209066811
 30
0.0
 10
355.8666816761651
 20
99.00854234729692
 30
0.0
 10
354.7258049405526
 20
98.1450281601462
 30
0.0
 10
353.8436393749517
 20
97.62502257002568
 30
0.0
 10
353.1527935211262
 20
97.41804871488242
 30
0.0
 10
352.7519788516952
 20
97.56723112804178
 30
0.0
 10
352.5555870783472
 20
97.95080519831234
 30
0.0
 10
352.5359552311063
 20
98.32510933282934
 30
0.0
 10
352.5260396319472
 20
98.51416183084127
 30
0.0
  0
SPLINE
  5
196
330
1F
100
AcDbEntity
  8
0
  6
Continuous
 62
     7
370
    15
100
AcDbSpline
210
0.0
220
0.0
230
1.0
 70
    11
 71
     3
 72
    50
 73
    46
 74
     0
 42
0.00000001
 43
0.00000001
 40
0.0
 40
0.0
 40
0.0
 40
0.0
 40
0.0216304856503955
 40
0.0439028158601108
 40
0.0655340904828778
 40
0.0877723927954492
 40
0.1099036666180721
 40
0.1325638236134807
 40
0.1569753375623201
 40
0.1820431829535443
 40
0.2072439110638664
 40
0.2332805526941547
 40
0.2568159786312958
 40
0.2810553635684089
 40
0.3043631976755433
 40
0.3282603084788515
 40
0.3532250754163355
 40
0.3789143884809676
 40
0.4036810537588618
 40
0.4293334912781532
 40
0.4515978889626985
 40
0.4745696740640415
 40
0.4959779207863897
 40
0.5179031117562667
 40
0.5415600420694358
 40
0.5656926449954015
 40
0.6006614738026267
 40
0.6366396730992893
 40
0.6616420207044046
 40
0.6871053545182558
 40
0.7016657504782291
 40
0.7165104019336911
 40
0.7286964438267431
 40
0.7412297907159815
 40
0.7534199861768297
 40
0.7659188131842111
 40
0.7856573313132394
 40
0.8059109660424394
 40
0.8399791164989432
 40
0.8749844046682258
 40
0.9100011111002588
 40
0.9281536729919619
 40
0.9463010176982645
 40
0.9726947777401286
 40
1.0
 40
1.0
 40
1.0
 40
1.0
 10
391.8909586983763
 20
122.679627792983
 30
0.0
 10
392.0276672447112
 20
122.655530460212
 30
0.0
 10
392.3051409100395
 20
122.6066207509958
 30
0.0
 10
392.501879319675
 20
122.1979186212106
 30
0.0
 10
392.5472369848954
 20
121.5377692498662
 30
0.0
 10
392.4484546973573
 20
120.6261060874002
 30
0.0
 10
392.2403128889378
 20
119.4734970990301
 30
0.0
 10
391.9546976370144
 20
118.0750469927125
 30
0.0
 10
391.6298113329758
 20
116.4212633475953
 30
0.0
 10
391.3220285737925
 20
114.5334074830794
 30
0.0
 10
391.0943668632647
 20
112.4674999051959
 30
0.0
 10
391.0027905374434
 20
110.3630245733738
 30
0.0
 10
391.0569646877955
 20
108.2797460701205
 30
0.0
 10
391.2332950886769
 20
106.3256384332193
 30
0.0
 10
391.5023599299561
 20
104.4675356762139
 30
0.0
 10
391.8220338308417
 20
102.7367257941444
 30
0.0
 10
392.1486291012901
 20
101.142641069526
 30
0.0
 10
392.4130887260227
 20
99.77259545297993
 30
0.0
 10
392.5507066522707
 20
98.67689629360646
 30
0.0
 10
392.5075118649832
 20
97.94139770377264
 30
0.0
 10
392.2702382938859
 20
97.53742168211974
 30
0.0
 10
391.8653842968093
 20
97.43786884162711
 30
0.0
 10
391.2938853746484
 20
97.59816013481986
 30
0.0
 10
390.5693284986992
 20
97.990963583538
 30
0.0
 10
389.6819450845043
 20
98.61985302191076
 30
0.0
 10
388.502278819615
 20
99.59785691284314
 30
0.0
 10
387.020828741471
 20
101.0015376694753
 30
0.0
 10
385.4666362495914
 20
102.7019820191329
 30
0.0
 10
384.1149053268483
 20
104.4498650260864
 30
0.0
 10
383.191044922998
 20
105.9206999555636
 30
0.0
 10
382.5589094903654
 20
107.2830204269948
 30
0.0
 10
382.2052808437157
 20
108.3874892173681
 30
0.0
 10
382.0246444008812
 20
109.4871538406033
 30
0.0
 10
382.0136650983405
 20
110.5319136634434
 30
0.0
 10
382.1634644447443
 20
111.570799772867
 30
0.0
 10
382.5068550100632
 20
112.7627317529745
 30
0.0
 10
383.1052529431909
 20
114.0765392720919
 30
0.0
 10
384.1402835832286
 20
115.7614953792054
 30
0.0
 10
385.5505536062125
 20
117.5638618657723
 30
0.0
 10
387.2319555015737
 20
119.3696511471864
 30
0.0
 10
388.5946854446661
 20
120.638831072409
 30
0.0
 10
389.6049603318579
 20
121.4718101717859
 30
0.0
 10
390.4197862776996
 20
122.0681875089751
 30
0.0
 10
391.2457408134373
 20
122.566137728692
 30
0.0
 10
391.6734660651278
 20
122.6413721067933
 30
0.0
 10
391.8909586983763
 20
122.679627792983
 30
0.0
  0
LINE
  5
197
330
1F
100
AcDbEntity
  8
0
  6
Continuous
 62
     7
370
    15
100
AcDbLine
 10
242.5260439533
 20
124.7796278927
 30
0.0
 11
202.5260448474
 21
124.7796278927
 31
0.0
  0
LINE
  5
198
330
1F
100
AcDbEntity
  8
0
  6
Continuous
 62
     7
370
    15
100
AcDbLine
 10
202.8260443377
 20
125.079627907
 30
0.0
 11
242.2260444629
 21
125.079627907
 31
0.0
  0
LINE
  5
199
330
1F
100
AcDbEntity
  8
0
  6
Continuous
 62
     7
370
    15
100
AcDbLine
 10
202.5260448474
 20
77.8796261308
 30
0.0
 11
242.5260439533
 21
77.8796261308
 31
0.0
  0
SPLINE
  5
19A
330
1F
100
AcDbEntity
  8
0
  6
Continuous
 62
     7
370
    15
100
AcDbSpline
210
0.0
220
0.0
230
1.0
 70
     8
 71
     3
 72
   108
 73
   104
 74
     0
 42
0.00000001
 43
0.00000001
 40
-0.03125
 40
-0.03125
 40
0.0
 40
0.0
 40
0.03125
 40
0.03125
 40
0.0468750000000001
 40
0.0468750000000001
 40
0.0625000000000001
 40
0.0625000000000001
 40
0.0937500000000002
 40
0.0937500000000002
 40
0.1093750000000002
 40
0.1093750000000002
 40
0.1250000000000002
 40
0.1250000000000002
 40
0.1406250000000003
 40
0.1406250000000003
 40
0.1562500000000003
 40
0.1562500000000003
 40
0.1875000000000002
 40
0.1875000000000002
 40
0.2031250000000001
 40
0.2031250000000001
 40
0.2187500000000001
 40
0.2187500000000001
 40
0.234375
 40
0.234375
 40
0.25
 40
0.25
 40
0.2812499999999999
 40
0.2812499999999999
 40
0.2968749999999999
 40
0.2968749999999999
 40
0.3124999999999998
 40
0.3124999999999998
 40
0.3437499999999997
 40
0.3437499999999997
 40
0.3593749999999997
 40
0.3593749999999997
 40
0.3749999999999997
 40
0.3749999999999997
 40
0.3906249999999996
 40
0.3906249999999996
 40
0.4062499999999996
 40
0.4062499999999996
 40
0.4218749999999996
 40
0.4218749999999996
 40
0.4374999999999995
 40
0.4374999999999995
 40
0.4687499999999995
 40
0.4687499999999995
 40
0.4843749999999995
 40
0.4843749999999995
 40
0.4999999999999994
 40
0.4999999999999994
 40
0.5312499999999994
 40
0.5312499999999994
 40
0.5624999999999994
 40
0.5624999999999994
 40
0.5937499999999996
 40
0.5937499999999996
 40
0.6093749999999996
 40
0.6093749999999996
 40
0.6249999999999996
 40
0.6249999999999996
 40
0.6406249999999996
 40
0.6406249999999996
 40
0.6562499999999996
 40
0.6562499999999996
 40
0.6640624999999996
 40
0.6640624999999996
 40
0.6718749999999996
 40
0.6718749999999996
 40
0.6874999999999997
 40
0.6874999999999997
 40
0.7031249999999998
 40
0.7031249999999998
 40
0.7187499999999998
 40
0.7187499999999998
 40
0.7343749999999998
 40
0.7343749999999998
 40
0.7499999999999998
 40
0.7499999999999998
 40
0.7812499999999998
 40
0.7812499999999998
 40
0.7968749999999998
 40
0.7968749999999998
 40
0.8124999999999998
 40
0.8124999999999998
 40
0.8437499999999999
 40
0.8437499999999999
 40
0.8749999999999999
 40
0.8749999999999999
 40
0.9062499999999999
 40
0.9062499999999999
 40
0.9218749999999999
 40
0.9218749999999999
 40
0.9374999999999999
 40
0.9374999999999999
 40
0.953125
 40
0.953125
 40
0.96875
 40
0.96875
 40
1.0
 40
1.0
 40
1.03125
 40
1.03125
 10
202.5260444003188
 20
98.16094984120782
 30
0.0
 10
202.5260444003188
 20
98.86737430106447
 30
0.0
 10
202.5756401953255
 20
99.29860884288283
 30
0.0
 10
202.6988892152234
 20
100.0567909459685
 30
0.0
 10
202.7481986519707
 20
100.3282445887304
 30
0.0
 10
202.8595386597665
 20
100.9096935410308
 30
0.0
 10
202.9209763641495
 20
101.2166347350389
 30
0.0
 10
203.1139684650858
 20
102.1759992306187
 30
0.0
 10
203.2549157302617
 20
102.87013772563
 30
0.0
 10
203.4596142948627
 20
103.9978142092284
 30
0.0
 10
203.5263076243673
 20
104.3862869016418
 30
0.0
 10
203.6506068066169
 20
105.1759107902113
 30
0.0
 10
203.7085490717903
 20
105.5788566538302
 30
0.0
 10
203.8125949101545
 20
106.4013605677292
 30
0.0
 10
203.8587016583451
 20
106.8209173785312
 30
0.0
 10
203.93585036169
 20
107.677520503935
 30
0.0
 10
203.966892977073
 20
108.1166485258872
 30
0.0
 10
204.0316786674287
 20
109.4279059484672
 30
0.0
 10
204.0379423112169
 20
110.3031580981318
 30
0.0
 10
203.9909725848877
 20
111.6176564977382
 30
0.0
 10
203.9657354701382
 20
112.0588877612831
 30
0.0
 10
203.8988274945559
 20
112.9246815904887
 30
0.0
 10
203.8573043106952
 20
113.349548800193
 30
0.0
 10
203.7611374420505
 20
114.184007036929
 30
0.0
 10
203.706491293506
 20
114.593597042143
 30
0.0
 10
203.5873314813135
 20
115.3978046933873
 30
0.0
 10
203.5224292367405
 20
115.7945101014499
 30
0.0
 10
203.321921377128
 20
116.9419379198014
 30
0.0
 10
203.1804894318134
 20
117.6524991452886
 30
0.0
 10
202.9817115558332
 20
118.640935305696
 30
0.0
 10
202.9173676314487
 20
118.9590021074736
 30
0.0
 10
202.7993353929046
 20
119.5601357439438
 30
0.0
 10
202.7458749517163
 20
119.8420483719931
 30
0.0
 10
202.6078905875921
 20
120.6334027273412
 30
0.0
 10
202.545431325847
 20
121.089134843996
 30
0.0
 10
202.5220132667944
 20
121.6593008276995
 30
0.0
 10
202.5262256886998
 20
121.8270442354698
 30
0.0
 10
202.5608771629183
 20
122.1167841825978
 30
0.0
 10
202.5912855068742
 20
122.2393039007337
 30
0.0
 10
202.6805616459475
 20
122.4403716113015
 30
0.0
 10
202.7394218281678
 20
122.5189197572992
 30
0.0
 10
202.8883446046651
 20
122.6314239834548
 30
0.0
 10
202.977687715909
 20
122.6645110619908
 30
0.0
 10
203.1834283530833
 20
122.6864563525049
 30
0.0
 10
203.3001564682807
 20
122.6755746056298
 30
0.0
 10
203.5611426675536
 20
122.6124166600034
 30
0.0
 10
203.7058462476058
 20
122.5599258692627
 30
0.0
 10
204.1786277074436
 20
122.3432803842124
 30
0.0
 10
204.5379320616921
 20
122.124344936271
 30
0.0
 10
205.1344068419791
 20
121.7009679908842
 30
0.0
 10
205.3437946099228
 20
121.5430970372762
 30
0.0
 10
205.7761735592367
 20
121.2001726310383
 30
0.0
 10
205.9983604195385
 20
121.0158435530262
 30
0.0
 10
206.6804699837709
 20
120.4272543862654
 30
0.0
 10
207.1559850091354
 20
119.9878269204318
 30
0.0
 10
208.1362862675941
 20
119.0190944234719
 30
0.0
 10
208.6438798341369
 20
118.4865411165684
 30
0.0
 10
209.6433449546733
 20
117.3545606713466
 30
0.0
 10
210.1387353842919
 20
116.7527953554218
 30
0.0
 10
210.8525768929532
 20
115.7807618494282
 30
0.0
 10
211.0855215750807
 20
115.4450257770464
 30
0.0
 10
211.5345250197469
 20
114.744035025344
 30
0.0
 10
211.7496068509727
 20
114.3800484765694
 30
0.0
 10
212.1445935823573
 20
113.6290496135802
 30
0.0
 10
212.3254746122506
 20
113.2407354350081
 30
0.0
 10
212.638471791856
 20
112.4296919891065
 30
0.0
 10
212.7688126565491
 20
112.0096425511729
 30
0.0
 10
212.9083133491229
 20
111.3686618456385
 30
0.0
 10
212.9457309481638
 20
111.1525222281753
 30
0.0
 10
213.0004270476452
 20
110.7148070775562
 30
0.0
 10
213.0177150004958
 20
110.4918407086279
 30
0.0
 10
213.0363329272051
 20
109.8247689816268
 30
0.0
 10
213.0047886875281
 20
109.3863150698533
 30
0.0
 10
212.8626917769634
 20
108.5207570119557
 30
0.0
 10
212.7505727857938
 20
108.0899038259483
 30
0.0
 10
212.4708753013318
 20
107.2673505521199
 30
0.0
 10
212.3036297421234
 20
106.872637296901
 30
0.0
 10
211.9308645604581
 20
106.1081158355631
 30
0.0
 10
211.7242559635635
 20
105.7367279442807
 30
0.0
 10
211.2888381563614
 20
105.0217430146965
 30
0.0
 10
211.0610677666119
 20
104.6794650155331
 30
0.0
 10
210.3592551502312
 20
103.688335266292
 30
0.0
 10
209.8673056075081
 20
103.074509372615
 30
0.0
 10
209.1185973447914
 20
102.2066998025403
 30
0.0
 10
208.8661562830249
 20
101.9255494437721
 30
0.0
 10
208.3645007377444
 20
101.3854060578312
 30
0.0
 10
208.1156504700612
 20
101.1267313552837
 30
0.0
 10
207.3779560600148
 20
100.383371671732
 30
0.0
 10
206.8979890382824
 20
99.93091791405878
 30
0.0
 10
205.974455649795
 20
99.1157526568047
 30
0.0
 10
205.5282183365545
 20
98.75157613781563
 30
0.0
 10
204.715221443734
 20
98.15218483953576
 30
0.0
 10
204.3446312716266
 20
97.91314518924042
 30
0.0
 10
203.8514001812395
 20
97.6615647357589
 30
0.0
 10
203.6978973185902
 20
97.59613946578541
 30
0.0
 10
203.4207622840413
 20
97.50718084509965
 30
0.0
 10
203.296002234943
 20
97.48302294480543
 30
0.0
 10
203.0739682749396
 20
97.47689742618583
 30
0.0
 10
202.9766942149764
 20
97.49492080949246
 30
0.0
 10
202.8098600407229
 20
97.5760234114698
 30
0.0
 10
202.7399700843224
 20
97.63981989240564
 30
0.0
 10
202.5758819166682
 20
97.89945187621531
 30
0.0
 10
202.5260444003188
 20
98.16094984120782
 30
0.0
 10
202.5260444003188
 20
98.86737430106447
 30
0.0
  0
SPLINE
  5
19B
330
1F
100
AcDbEntity
  8
0
  6
Continuous
 62
     7
370
    15
100
AcDbSpline
210
0.0
220
0.0
230
1.0
 70
     8
 71
     3
 72
   104
 73
   100
 74
     0
 42
0.00000001
 43
0.00000001
 40
-0.0312499999999998
 40
-0.0312499999999998
 40
0.0
 40
0.0
 40
0.03125
 40
0.03125
 40
0.046875
 40
0.046875
 40
0.0624999999999999
 40
0.0624999999999999
 40
0.0781249999999999
 40
0.0781249999999999
 40
0.0937499999999999
 40
0.0937499999999999
 40
0.1249999999999999
 40
0.1249999999999999
 40
0.1406249999999999
 40
0.1406249999999999
 40
0.1562499999999999
 40
0.1562499999999999
 40
0.1718749999999999
 40
0.1718749999999999
 40
0.1874999999999999
 40
0.1874999999999999
 40
0.21875
 40
0.21875
 40
0.2343750000000001
 40
0.2343750000000001
 40
0.2500000000000001
 40
0.2500000000000001
 40
0.2812500000000002
 40
0.2812500000000002
 40
0.3125000000000004
 40
0.3125000000000004
 40
0.3437500000000006
 40
0.3437500000000006
 40
0.3750000000000008
 40
0.3750000000000008
 40
0.3906250000000008
 40
0.3906250000000008
 40
0.4062500000000009
 40
0.4062500000000009
 40
0.4218750000000009
 40
0.4218750000000009
 40
0.4375000000000009
 40
0.4375000000000009
 40
0.4687500000000011
 40
0.4687500000000011
 40
0.4843750000000011
 40
0.4843750000000011
 40
0.5000000000000011
 40
0.5000000000000011
 40
0.5156250000000011
 40
0.5156250000000011
 40
0.5312500000000011
 40
0.5312500000000011
 40
0.5625000000000011
 40
0.5625000000000011
 40
0.5781250000000012
 40
0.5781250000000012
 40
0.5937500000000012
 40
0.5937500000000012
 40
0.6250000000000014
 40
0.6250000000000014
 40
0.6406250000000016
 40
0.6406250000000016
 40
0.6562500000000016
 40
0.6562500000000016
 40
0.6875000000000017
 40
0.6875000000000017
 40
0.7031250000000017
 40
0.7031250000000017
 40
0.7109375000000017
 40
0.7109375000000017
 40
0.7187500000000017
 40
0.7187500000000017
 40
0.7343750000000017
 40
0.7343750000000017
 40
0.7500000000000016
 40
0.7500000000000016
 40
0.7656250000000014
 40
0.7656250000000014
 40
0.7812500000000013
 40
0.7812500000000013
 40
0.7968750000000012
 40
0.7968750000000012
 40
0.8125000000000011
 40
0.8125000000000011
 40
0.843750000000001
 40
0.843750000000001
 40
0.8750000000000008
 40
0.8750000000000008
 40
0.9062500000000007
 40
0.9062500000000007
 40
0.9375000000000006
 40
0.9375000000000006
 40
0.9531250000000003
 40
0.9531250000000003
 40
0.9687500000000002
 40
0.9687500000000002
 40
1.0
 40
1.0
 40
1.03125
 40
1.03125
 10
241.668551922684
 20
122.6796279069769
 30
0.0
 10
242.1133703400277
 20
122.6796279069769
 30
0.0
 10
242.2740250306626
 20
122.5921610361167
 30
0.0
 10
242.4306214169609
 20
122.324630366666
 30
0.0
 10
242.4688213825412
 20
122.2117657343308
 30
0.0
 10
242.5172936663698
 20
121.9411322485159
 30
0.0
 10
242.5275879521762
 20
121.7846320861353
 30
0.0
 10
242.52413001036
 20
121.4303283598417
 30
0.0
 10
242.5103666428999
 20
121.2325228174677
 30
0.0
 10
242.4621205119101
 20
120.7952721749534
 30
0.0
 10
242.4273352106563
 20
120.5542283214835
 30
0.0
 10
242.2994076778066
 20
119.7818073184626
 30
0.0
 10
242.1831825164185
 20
119.2011485145998
 30
0.0
 10
241.9880620108987
 20
118.2317025672141
 30
0.0
 10
241.9192499392005
 20
117.8905716971748
 30
0.0
 10
241.7816602859555
 20
117.1884049567152
 30
0.0
 10
241.7126019592033
 20
116.8260200635593
 30
0.0
 10
241.5780571062544
 20
116.0785000537086
 30
0.0
 10
241.5125628245548
 20
115.6933658370667
 30
0.0
 10
241.3891080429789
 20
114.8993695810828
 30
0.0
 10
241.330849584629
 20
114.4878796505809
 30
0.0
 10
241.1763006700257
 20
113.2396484100324
 30
0.0
 10
241.0999715950501
 20
112.3885408259666
 30
0.0
 10
241.0391053299382
 20
111.0825787782423
 30
0.0
 10
241.0276992927155
 20
110.6411863158128
 30
0.0
 10
241.024298552478
 20
109.7529264638648
 30
0.0
 10
241.0322798053052
 20
109.3127252235294
 30
0.0
 10
241.0834292137923
 20
108.0034175492175
 30
0.0
 10
241.1540915704135
 20
107.1451355739195
 30
0.0
 10
241.3526246856704
 20
105.4597663727825
 30
0.0
 10
241.4766675669158
 20
104.6617230943686
 30
0.0
 10
241.7436885867773
 20
103.1469000399879
 30
0.0
 10
241.8879065341865
 20
102.42524992887
 30
0.0
 10
242.1506357465361
 20
101.1197042023916
 30
0.0
 10
242.2705084685875
 20
100.5285047165465
 30
0.0
 10
242.4069366925508
 20
99.7357747105056
 30
0.0
 10
242.4448202046801
 20
99.4886090287116
 30
0.0
 10
242.5000452884223
 20
99.0387972028659
 30
0.0
 10
242.5177012727602
 20
98.83445251653978
 30
0.0
 10
242.5297614204389
 20
98.46647214377438
 30
0.0
 10
242.5241764588114
 20
98.30283501078506
 30
0.0
 10
242.4859834899113
 20
98.01722219081522
 30
0.0
 10
242.4529493005778
 20
97.89498340269857
 30
0.0
 10
242.3117040195515
 20
97.60146058568552
 30
0.0
 10
242.1616528785072
 20
97.49824642619254
 30
0.0
 10
241.8461031956672
 20
97.47374041253221
 30
0.0
 10
241.7253715416812
 20
97.4878380315232
 30
0.0
 10
241.4597728336429
 20
97.5572127528505
 30
0.0
 10
241.3142877525651
 20
97.61232663100571
 30
0.0
 10
240.9989585317437
 20
97.76048884296394
 30
0.0
 10
240.8291116334968
 20
97.85354618305121
 30
0.0
 10
240.4657073459122
 20
98.0759605624135
 30
0.0
 10
240.2734128874933
 20
98.20461318794075
 30
0.0
 10
239.6734569572162
 20
98.63442127449653
 30
0.0
 10
239.2403462628678
 20
98.98042844104279
 30
0.0
 10
238.5491818733982
 20
99.579916040017
 30
0.0
 10
238.3128038568415
 20
99.79251845653259
 30
0.0
 10
237.8351807495731
 20
100.2370937565587
 30
0.0
 10
237.5931269187801
 20
100.4697595783541
 30
0.0
 10
236.8597303513874
 20
101.1981392788389
 30
0.0
 10
236.3608914921967
 20
101.7236922958424
 30
0.0
 10
235.6104641939881
 20
102.5777326756936
 30
0.0
 10
235.3591649476299
 20
102.8745432221106
 30
0.0
 10
234.8636043715404
 20
103.4878106105526
 30
0.0
 10
234.6198004815228
 20
103.803574237664
 30
0.0
 10
233.9073245298272
 20
104.7826183964268
 30
0.0
 10
233.4550625489702
 20
105.4765110233949
 30
0.0
 10
232.8660167468825
 20
106.6164375206328
 30
0.0
 10
232.6883419443774
 20
107.0071974037725
 30
0.0
 10
232.4608963545328
 20
107.6142134179579
 30
0.0
 10
232.3916313778081
 20
107.8200508331818
 30
0.0
 10
232.2685867712802
 20
108.2397822315185
 30
0.0
 10
232.2145965558366
 20
108.4548512698983
 30
0.0
 10
232.081954329322
 20
109.1039407153277
 30
0.0
 10
232.0325075746058
 20
109.5409548687953
 30
0.0
 10
232.0199114010935
 20
110.4243459352166
 30
0.0
 10
232.0582522066922
 20
110.8729158498983
 30
0.0
 10
232.2126394059744
 20
111.7381312874892
 30
0.0
 10
232.3280146561716
 20
112.1603834049507
 30
0.0
 10
232.6189581048985
 20
112.9864831413285
 30
0.0
 10
232.7905615081238
 20
113.3801914487556
 30
0.0
 10
233.1687654335638
 20
114.1394517391947
 30
0.0
 10
233.3754724642029
 20
114.5049294561991
 30
0.0
 10
233.8129860354751
 20
115.2139524759368
 30
0.0
 10
234.0447654512678
 20
115.5586195587093
 30
0.0
 10
234.7539367593434
 20
116.5501618995289
 30
0.0
 10
235.246958598199
 20
117.160198651353
 30
0.0
 10
236.2405848661325
 20
118.3046786643619
 30
0.0
 10
236.7420540139706
 20
118.8389492667851
 30
0.0
 10
237.7347201015372
 20
119.8343590963174
 30
0.0
 10
238.2142380395715
 20
120.2836150232241
 30
0.0
 10
239.1280320820654
 20
121.085510525383
 30
0.0
 10
239.5624732050023
 20
121.4382223903498
 30
0.0
 10
240.1712143138627
 20
121.8837475429633
 30
0.0
 10
240.3679649970819
 20
122.0187719036874
 30
0.0
 10
240.7368852544045
 20
122.2520224832374
 30
0.0
 10
240.9098329534694
 20
122.3509250154741
 30
0.0
 10
241.3931148933823
 20
122.592091345515
 30
0.0
 10
241.668551922684
 20
122.6796279069769
 30
0.0
 10
242.1133703400277
 20
122.6796279069769
 30
0.0
  0
LINE
  5
19C
330
1F
100
AcDbEntity
  8
0
  6
Continuous
 62
     8
370
    15
100
AcDbLine
 10
322.3024763185
 20
82.7135665473
 30
0.0
 11
322.3024763185
 21
82.129627293
 31
0.0
  0
LINE
  5
19D
330
1F
100
AcDbEntity
  8
0
  6
Continuous
 62
     8
370
    15
100
AcDbLine
 10
322.3024763185
 20
94.0296275672
 30
0.0
 11
322.3024763185
 21
82.7135665473
 31
0.0
  0
LINE
  5
19E
330
1F
100
AcDbEntity
  8
0
  6
Continuous
 62
     8
370
    15
100
AcDbLine
 10
272.7496109921
 20
92.2408996281
 30
0.0
 11
272.7496109921
 21
94.0296275672
 31
0.0
  0
LINE
  5
19F
330
1F
100
AcDbEntity
  8
0
  6
Continuous
 62
     8
370
    15
100
AcDbLine
 10
272.7496109921
 20
82.129627293
 30
0.0
 11
272.7496109921
 21
92.2408996281
 31
0.0
  0
LINE
  5
1A0
330
1F
100
AcDbEntity
  8
0
  6
Continuous
 62
     8
370
    15
100
AcDbLine
 10
353.326038273
 20
103.3055147287
 30
0.0
 11
353.326038273
 21
105.5796275046
 31
0.0
  0
LINE
  5
1A1
330
1F
100
AcDbEntity
  8
0
  6
Continuous
 62
     8
370
    15
100
AcDbLine
 10
329.4343732315
 20
103.0072568116
 30
0.0
 11
329.4343732315
 21
99.5796283838
 31
0.0
  0
LINE
  5
1A2
330
1F
100
AcDbEntity
  8
0
  6
Continuous
 62
     8
370
    15
100
AcDbLine
 10
329.4343732315
 20
105.5796275046
 30
0.0
 11
329.4343732315
 21
103.0072568116
 31
0.0
  0
LINE
  5
1A3
330
1F
100
AcDbEntity
  8
0
  6
Continuous
 62
     8
370
    15
100
AcDbLine
 10
326.8589757401
 20
100.293913683
 30
0.0
 11
326.8589757401
 21
104.8653422055
 31
0.0
  0
LINE
  5
1A4
330
1F
100
AcDbEntity
  8
0
  6
Continuous
 62
     8
370
    15
100
AcDbLine
 10
313.5414950567
 20
99.7659692672
 30
0.0
 11
313.5414950567
 21
105.3932866213
 31
0.0
  0
LINE
  5
1A5
330
1F
100
AcDbEntity
  8
0
  6
Continuous
 62
     8
370
    15
100
AcDbLine
 10
316.3490675407
 20
102.8925718871
 30
0.0
 11
316.3490675407
 21
100.3841849175
 31
0.0
  0
LINE
  5
1A6
330
1F
100
AcDbEntity
  8
0
  6
Continuous
 62
     8
370
    15
100
AcDbLine
 10
316.3490675407
 20
104.775070971
 30
0.0
 11
316.3490675407
 21
102.8925718871
 31
0.0
  0
LINE
  5
1A7
330
1F
100
AcDbEntity
  8
0
  6
Continuous
 62
     8
370
    15
100
AcDbLine
 10
306.9512553531
 20
102.910240939
 30
0.0
 11
306.9512553531
 21
100.2602370587
 31
0.0
  0
LINE
  5
1A8
330
1F
100
AcDbEntity
  8
0
  6
Continuous
 62
     8
370
    15
100
AcDbLine
 10
306.9512553531
 20
104.8990188298
 30
0.0
 11
306.9512553531
 21
102.910240939
 31
0.0
  0
LINE
  5
1A9
330
1F
100
AcDbEntity
  8
0
  6
Continuous
 62
     8
370
    15
100
AcDbLine
 10
324.0260414797
 20
102.7934419122
 30
0.0
 11
324.0260414797
 21
101.0796276984
 31
0.0
  0
LINE
  5
1AA
330
1F
100
AcDbEntity
  8
0
  6
Continuous
 62
     8
370
    15
100
AcDbLine
 10
324.0260414797
 20
104.0796281901
 30
0.0
 11
324.0260414797
 21
102.7934419122
 31
0.0
  0
LINE
  5
1AB
330
1F
100
AcDbEntity
  8
0
  6
Continuous
 62
     8
370
    15
100
AcDbLine
 10
319.0260462481
 20
102.7934419122
 30
0.0
 11
319.0260462481
 21
101.0796276984
 31
0.0
  0
LINE
  5
1AC
330
1F
100
AcDbEntity
  8
0
  6
Continuous
 62
     8
370
    15
100
AcDbLine
 10
319.0260462481
 20
104.0796281901
 30
0.0
 11
319.0260462481
 21
102.7934419122
 31
0.0
  0
LINE
  5
1AD
330
1F
100
AcDbEntity
  8
0
  6
Continuous
 62
     8
370
    15
100
AcDbLine
 10
241.7260453123
 20
105.1606999841
 30
0.0
 11
241.7260453123
 21
103.2971328256
 31
0.0
  0
LINE
  5
1AE
330
1F
100
AcDbEntity
  8
0
  6
Continuous
 62
     8
370
    15
100
AcDbLine
 10
241.7260453123
 20
105.5796275046
 30
0.0
 11
241.7260453123
 21
105.1606999841
 31
0.0
  0
LINE
  5
1AF
330
1F
100
AcDbEntity
  8
0
  6
Continuous
 62
     8
370
    15
100
AcDbLine
 10
265.6177178043
 20
105.1606999841
 30
0.0
 11
265.6177178043
 21
105.5796275046
 31
0.0
  0
LINE
  5
1B0
330
1F
100
AcDbEntity
  8
0
  6
Continuous
 62
     8
370
    15
100
AcDbLine
 10
265.6177178043
 20
99.5796283838
 30
0.0
 11
265.6177178043
 21
105.1606999841
 31
0.0
  0
LINE
  5
1B1
330
1F
100
AcDbEntity
  8
0
  6
Continuous
 62
     8
370
    15
100
AcDbLine
 10
268.1931115705
 20
104.8653422055
 30
0.0
 11
268.1931115705
 21
100.293913683
 31
0.0
  0
LINE
  5
1B2
330
1F
100
AcDbEntity
  8
0
  6
Continuous
 62
     8
370
    15
100
AcDbLine
 10
281.5105922538
 20
105.3932866213
 30
0.0
 11
281.5105922538
 21
99.7659692672
 31
0.0
  0
LINE
  5
1B3
330
1F
100
AcDbEntity
  8
0
  6
Continuous
 62
     8
370
    15
100
AcDbLine
 10
278.7030234951
 20
104.4684926179
 30
0.0
 11
278.7030234951
 21
104.775070971
 31
0.0
  0
LINE
  5
1B4
330
1F
100
AcDbEntity
  8
0
  6
Continuous
 62
     8
370
    15
100
AcDbLine
 10
278.7030234951
 20
100.3841849175
 30
0.0
 11
278.7030234951
 21
104.4684926179
 31
0.0
  0
LINE
  5
1B5
330
1F
100
AcDbEntity
  8
0
  6
Continuous
 62
     8
370
    15
100
AcDbLine
 10
288.1008319574
 20
104.575132778
 30
0.0
 11
288.1008319574
 21
104.8990188298
 31
0.0
  0
LINE
  5
1B6
330
1F
100
AcDbEntity
  8
0
  6
Continuous
 62
     8
370
    15
100
AcDbLine
 10
288.1008319574
 20
100.2602370587
 30
0.0
 11
288.1008319574
 21
104.575132778
 31
0.0
  0
LINE
  5
1B7
330
1F
100
AcDbEntity
  8
0
  6
Continuous
 62
     8
370
    15
100
AcDbLine
 10
271.0260458308
 20
103.8701644298
 30
0.0
 11
271.0260458308
 21
104.0796281901
 31
0.0
  0
LINE
  5
1B8
330
1F
100
AcDbEntity
  8
0
  6
Continuous
 62
     8
370
    15
100
AcDbLine
 10
271.0260458308
 20
101.0796276984
 30
0.0
 11
271.0260458308
 21
103.8701644298
 31
0.0
  0
LINE
  5
1B9
330
1F
100
AcDbEntity
  8
0
  6
Continuous
 62
     8
370
    15
100
AcDbLine
 10
276.0260447877
 20
103.8701644298
 30
0.0
 11
276.0260447877
 21
104.0796281901
 31
0.0
  0
LINE
  5
1BA
330
1F
100
AcDbEntity
  8
0
  6
Continuous
 62
     8
370
    15
100
AcDbLine
 10
276.0260447877
 20
101.0796276984
 30
0.0
 11
276.0260447877
 21
103.8701644298
 31
0.0
  0
DIMENSION
  5
1BB
330
1F
100
AcDbEntity
  8
0
  6
Continuous
 62
     7
370
     0
100
AcDbDimension
  2
*D3
 10
289.0260444003
 20
47.579627907
 30
0.0
 11
240.7912486537
 21
47.579627907
 31
0.0
 70
   160
 71
     2
 42
-1.0
  3
SLDDIMSTYLE1
100
AcDbAlignedDimension
 13
202.5260444003
 23
74.579627907
 33
0.0
 14
289.0260444003
 24
101.257436463
 34
0.0
100
AcDbRotatedDimension
  0
LINE
  5
1CD
330
1F
100
AcDbEntity
  8
0
  6
Continuous
 62
     7
370
    15
100
AcDbLine
 10
64.5169338262
 20
233.7716314467
 30
0.0
 11
61.716931132
 21
233.7716314467
 31
0.0
  0
LINE
  5
1CE
330
1F
100
AcDbEntity
  8
0
  6
Continuous
 62
     7
370
    15
100
AcDbLine
 10
61.716931132
 20
193.7716323407
 30
0.0
 11
64.5169338262
 21
193.7716323407
 31
0.0
  0
LINE
  5
1CF
330
1F
100
AcDbEntity
  8
0
  6
Continuous
 62
     7
370
    15
100
AcDbLine
 10
64.5169338262
 20
193.7716323407
 30
0.0
 11
64.7169334864
 21
193.971632001
 31
0.0
  0
LINE
  5
1D0
330
1F
100
AcDbEntity
  8
0
  6
Continuous
 62
     7
370
    15
100
AcDbLine
 10
64.7169334864
 20
233.5716317864
 30
0.0
 11
64.5169338262
 21
233.7716314467
 31
0.0
  0
LINE
  5
1D1
330
1F
100
AcDbEntity
  8
0
  6
Continuous
 62
     7
370
    15
100
AcDbLine
 10
61.716931132
 20
233.7716314467
 30
0.0
 11
59.7169345295
 21
231.7716311188
 31
0.0
  0
LINE
  5
1D2
330
1F
100
AcDbEntity
  8
0
  6
Continuous
 62
     7
370
    15
100
AcDbLine
 10
59.7169345295
 20
195.7716326685
 30
0.0
 11
61.716931132
 21
193.7716323407
 31
0.0
  0
LINE
  5
1D3
330
1F
100
AcDbEntity
  8
0
  6
Continuous
 62
     7
370
    15
100
AcDbLine
 10
111.9169328761
 20
193.7716323407
 30
0.0
 11
112.2169328904
 21
194.0716318311
 31
0.0
  0
LINE
  5
1D4
330
1F
100
AcDbEntity
  8
0
  6
Continuous
 62
     7
370
    15
100
AcDbLine
 10
112.2169328904
 20
233.4716319563
 30
0.0
 11
111.9169328761
 21
233.7716314467
 31
0.0
  0
LINE
  5
1D5
330
1F
100
AcDbEntity
  8
0
  6
Continuous
 62
     7
370
    15
100
AcDbLine
 10
111.9169328761
 20
233.7716314467
 30
0.0
 11
65.0169311141
 21
233.7716314467
 31
0.0
  0
LINE
  5
1D6
330
1F
100
AcDbEntity
  8
0
  6
Continuous
 62
     7
370
    15
100
AcDbLine
 10
65.0169311141
 20
193.7716323407
 30
0.0
 11
111.9169328761
 21
193.7716323407
 31
0.0
  0
LINE
  5
1D7
330
1F
100
AcDbEntity
  8
0
  6
Continuous
 62
     7
370
    15
100
AcDbLine
 10
65.0169311141
 20
233.7716314467
 30
0.0
 11
64.7169334864
 21
233.4716319563
 31
0.0
  0
LINE
  5
1D8
330
1F
100
AcDbEntity
  8
0
  6
Continuous
 62
     7
370
    15
100
AcDbLine
 10
64.7169334864
 20
194.0716318311
 30
0.0
 11
65.0169311141
 21
193.7716323407
 31
0.0
  0
CIRCLE
  5
1D9
330
1F
100
AcDbEntity
  8
0
  6
Continuous
 62
     7
370
    15
100
AcDbCircle
 10
75.2169328904
 20
204.7716318937
 30
0.0
 40
8.475000000000005
  0
CIRCLE
  5
1DA
330
1F
100
AcDbEntity
  8
0
  6
Continuous
 62
     7
370
    15
100
AcDbCircle
 10
75.2169328904
 20
204.7716318937
 30
0.0
 40
8.174999999999999
  0
CIRCLE
  5
1DB
330
1F
100
AcDbEntity
  8
0
  6
Continuous
 62
     7
370
    15
100
AcDbCircle
 10
75.2169328904
 20
204.7716318937
 30
0.0
 40
0.9999999999999964
  0
LINE
  5
1DC
330
1F
100
AcDbEntity
  8
0
  6
Continuous
 62
     7
370
    15
100
AcDbLine
 10
61.716931132
 20
208.519188174
 30
0.0
 11
61.716931132
 21
193.7716323407
 31
0.0
  0
LINE
  5
1DD
330
1F
100
AcDbEntity
  8
0
  6
Continuous
 62
     7
370
    15
100
AcDbLine
 10
61.716931132
 20
233.7716314467
 30
0.0
 11
61.716931132
 21
208.519188174
 31
0.0
  0
LINE
  5
1DE
330
1F
100
AcDbEntity
  8
0
  6
Continuous
 62
     7
370
    15
100
AcDbLine
 10
64.5169338262
 20
208.519188174
 30
0.0
 11
64.5169338262
 21
233.7716314467
 31
0.0
  0
LINE
  5
1DF
330
1F
100
AcDbEntity
  8
0
  6
Continuous
 62
     7
370
    15
100
AcDbLine
 10
64.5169338262
 20
193.7716323407
 30
0.0
 11
64.5169338262
 21
208.519188174
 31
0.0
  0
LINE
  5
1E0
330
1F
100
AcDbEntity
  8
0
  6
Continuous
 62
     7
370
    15
100
AcDbLine
 10
64.7169334864
 20
208.5717124389
 30
0.0
 11
64.7169334864
 21
193.971632001
 31
0.0
  0
LINE
  5
1E1
330
1F
100
AcDbEntity
  8
0
  6
Continuous
 62
     7
370
    15
100
AcDbLine
 10
64.7169334864
 20
233.5716317864
 30
0.0
 11
64.7169334864
 21
208.5717124389
 31
0.0
  0
LINE
  5
1E2
330
1F
100
AcDbEntity
  8
0
  6
Continuous
 62
     7
370
    15
100
AcDbLine
 10
59.7169345295
 20
209.04443222
 30
0.0
 11
59.7169345295
 21
231.7716311188
 31
0.0
  0
LINE
  5
1E3
330
1F
100
AcDbEntity
  8
0
  6
Continuous
 62
     7
370
    15
100
AcDbLine
 10
59.7169345295
 20
195.7716326685
 30
0.0
 11
59.7169345295
 21
209.04443222
 31
0.0
  0
LINE
  5
1E4
330
1F
100
AcDbEntity
  8
0
  6
Continuous
 62
     7
370
    15
100
AcDbLine
 10
111.9169328761
 20
213.7716318937
 30
0.0
 11
111.9169328761
 21
233.7716314467
 31
0.0
  0
LINE
  5
1E5
330
1F
100
AcDbEntity
  8
0
  6
Continuous
 62
     7
370
    15
100
AcDbLine
 10
111.9169328761
 20
193.7716323407
 30
0.0
 11
111.9169328761
 21
213.7716318937
 31
0.0
  0
LINE
  5
1E6
330
1F
100
AcDbEntity
  8
0
  6
Continuous
 62
     7
370
    15
100
AcDbLine
 10
112.2169328904
 20
213.7716318937
 30
0.0
 11
112.2169328904
 21
194.0716318311
 31
0.0
  0
LINE
  5
1E7
330
1F
100
AcDbEntity
  8
0
  6
Continuous
 62
     7
370
    15
100
AcDbLine
 10
112.2169328904
 20
233.4716319563
 30
0.0
 11
112.2169328904
 21
213.7716318937
 31
0.0
  0
SPLINE
  5
1E8
330
1F
100
AcDbEntity
  8
0
  6
Continuous
 62
     7
370
    15
100
AcDbSpline
210
0.0
220
0.0
230
1.0
 70
    11
 71
     3
 72
    26
 73
    22
 74
     0
 42
0.00000001
 43
0.00000001
 40
0.0
 40
0.0
 40
0.0
 40
0.0
 40
0.0751731615886136
 40
0.1425824792675576
 40
0.1925165893666909
 40
0.2339906303334452
 40
0.2756138374909403
 40
0.3140663419406134
 40
0.3554825958440767
 40
0.4049587017115385
 40
0.4648643655288721
 40
0.5321646814498142
 40
0.5983291268921077
 40
0.6571668858559827
 40
0.7090963633467057
 40
0.7570947535385915
 40
0.803515447949024
 40
0.8499272272352836
 40
0.8977193085197847
 40
0.9485248343360188
 40
1.0
 40
1.0
 40
1.0
 40
1.0
 10
92.46693198139485
 20
203.7716321172051
 30
0.0
 10
92.41555484753631
 20
203.3703633422462
 30
0.0
 10
92.31810678271628
 20
202.6092686167189
 30
0.0
 10
91.6725004877585
 20
201.7598113416999
 30
0.0
 10
90.91196300574867
 20
201.2494714946749
 30
0.0
 10
90.12625875994034
 20
201.0149050788308
 30
0.0
 10
89.35378182454859
 20
201.011063192228
 30
0.0
 10
88.63202386505006
 20
201.2108675365298
 30
0.0
 10
87.98075055680819
 20
201.592712591125
 30
0.0
 10
87.4051165791244
 20
202.1965621371738
 30
0.0
 10
86.9979679101392
 20
203.0537686264563
 30
0.0
 10
86.91330420696627
 20
204.1033103949712
 30
0.0
 10
87.25424457259301
 20
205.1501773331877
 30
0.0
 10
87.95035363641341
 20
205.9597429320588
 30
0.0
 10
88.82290335365482
 20
206.4283260635998
 30
0.0
 10
89.73792206712727
 20
206.5695219032461
 30
0.0
 10
90.6142087802607
 20
206.4192489014241
 30
0.0
 10
91.38814452743735
 20
206.0121568379544
 30
0.0
 10
91.99563085937294
 20
205.3876114725563
 30
0.0
 10
92.3944405976984
 20
204.6081308455094
 30
0.0
 10
92.44266294830375
 20
204.0516794039683
 30
0.0
 10
92.46693198139485
 20
203.7716321172051
 30
0.0
  0
LINE
  5
1E9
330
1F
100
AcDbEntity
  8
0
  6
Continuous
 62
     7
370
    15
100
AcDbLine
 10
65.0169311141
 20
213.7716318937
 30
0.0
 11
65.0169311141
 21
193.7716323407
 31
0.0
  0
LINE
  5
1EA
330
1F
100
AcDbEntity
  8
0
  6
Continuous
 62
     7
370
    15
100
AcDbLine
 10
65.0169311141
 20
233.7716314467
 30
0.0
 11
65.0169311141
 21
213.7716318937
 31
0.0
  0
LINE
  5
1EB
330
1F
100
AcDbEntity
  8
0
  6
Continuous
 62
     7
370
    15
100
AcDbLine
 10
83.7169328755
 20
204.7716322811
 30
0.0
 11
83.6772715723
 21
204.3502069535
 31
0.0
  0
ARC
  5
1EC
330
1F
100
AcDbEntity
  8
0
  6
Continuous
 62
     7
370
    15
100
AcDbCircle
 10
75.2284726472
 20
204.7879473281
 30
0.0
 40
8.488475907258305
100
AcDbArc
 50
359.8898761191
 51
193.7211853254
  0
SPLINE
  5
1ED
330
1F
100
AcDbEntity
  8
0
  6
Continuous
 62
     7
370
    15
100
AcDbSpline
210
0.0
220
0.0
230
1.0
 70
    11
 71
     3
 72
    50
 73
    46
 74
     0
 42
0.00000001
 43
0.00000001
 40
0.0
 40
0.0
 40
0.0
 40
0.0
 40
0.0219517692204647
 40
0.0439006009571876
 40
0.0658302784891544
 40
0.0877686502543158
 40
0.1101604798205667
 40
0.1325597650966217
 40
0.1573010793335353
 40
0.1820385718931243
 40
0.2076606332056209
 40
0.2332730352916125
 40
0.2571563397832542
 40
0.2810457402228022
 40
0.3046452969732665
 40
0.3282502353380227
 40
0.3535816329785753
 40
0.3789033706933861
 40
0.4041187653090939
 40
0.4293189246788102
 40
0.4519335546662474
 40
0.4745523738349081
 40
0.4962122366572287
 40
0.517885025803841
 40
0.5417717203402022
 40
0.5656748209113753
 40
0.6011383853197007
 40
0.6366240087325776
 40
0.6618806243036329
 40
0.6870937874217262
 40
0.7018088888615504
 40
0.7164992241000299
 40
0.7288614976072878
 40
0.7412164848276981
 40
0.7535534803756797
 40
0.7659044608679578
 40
0.7858771055193496
 40
0.8058985099638892
 40
0.84042466245161
 40
0.8749771472004474
 40
0.8987419850944719
 40
0.922583147700815
 40
0.9463042628359236
 40
0.9731673583134932
 40
1.0
 40
1.0
 40
1.0
 40
1.0
 10
109.8169327763718
 20
218.771631781929
 30
0.0
 10
109.7914242828519
 20
218.1682763972415
 30
0.0
 10
109.7404107092401
 20
216.9616463660802
 30
0.0
 10
109.3311624568136
 20
215.1506971565935
 30
0.0
 10
108.6694777678794
 20
213.4129436145066
 30
0.0
 10
107.7554255640117
 20
211.7797255069825
 30
0.0
 10
106.6047156075823
 20
210.2998417901264
 30
0.0
 10
105.2002748983193
 20
208.956094161789
 30
0.0
 10
103.5494094376295
 20
207.8153153775824
 30
0.0
 10
101.651649597405
 20
206.9133951492838
 30
0.0
 10
99.59202044750698
 20
206.3375337395522
 30
0.0
 10
97.47868388718527
 20
206.1147801338426
 30
0.0
 10
95.40750006576752
 20
206.2502103953136
 30
0.0
 10
93.44554637132856
 20
206.6929144181935
 30
0.0
 10
91.59820593378099
 20
207.4380377778441
 30
0.0
 10
89.8584585110826
 20
208.4743532968774
 30
0.0
 10
88.27408509429488
 20
209.8143600556175
 30
0.0
 10
86.89531383135868
 20
211.4383179457747
 30
0.0
 10
85.8117479239478
 20
213.2837268993724
 30
0.0
 10
85.0711216265979
 20
215.2155937568782
 30
0.0
 10
84.67620760816955
 20
217.1545948812316
 30
0.0
 10
84.57465315797482
 20
219.0009726464599
 30
0.0
 10
84.73793865628592
 20
220.7683503364415
 30
0.0
 10
85.13141992707595
 20
222.478490745213
 30
0.0
 10
85.76004299099132
 20
224.1132177887476
 30
0.0
 10
86.74458928331336
 20
225.8875755574186
 30
0.0
 10
88.14475906566328
 20
227.6329661541686
 30
0.0
 10
89.85497774208392
 20
229.0697853691563
 30
0.0
 10
91.59031078123999
 20
230.0948042033473
 30
0.0
 10
93.06790536700507
 20
230.7018658588495
 30
0.0
 10
94.42449435669096
 20
231.0762289610289
 30
0.0
 10
95.53360936627772
 20
231.2757823979802
 30
0.0
 10
96.62978358960669
 20
231.3714682461297
 30
0.0
 10
97.67836535424306
 20
231.3780575028978
 30
0.0
 10
98.711907950818
 20
231.2959084770386
 30
0.0
 10
99.91004396153792
 20
231.1039503973852
 30
0.0
 10
101.2201896184485
 20
230.7505013178388
 30
0.0
 10
102.9129168803852
 20
230.0689396973589
 30
0.0
 10
104.7140463154062
 20
228.9956509928096
 30
0.0
 10
106.3182915775666
 20
227.5651944365708
 30
0.0
 10
107.538716946507
 20
226.0626645433023
 30
0.0
 10
108.436971538396
 20
224.592999580457
 30
0.0
 10
109.1727894456793
 20
222.8913821078729
 30
0.0
 10
109.7031806737242
 20
220.9499319925769
 30
0.0
 10
109.7790297482096
 20
219.4974572595089
 30
0.0
 10
109.8169327763718
 20
218.771631781929
 30
0.0
  0
CIRCLE
  5
1EE
330
1F
100
AcDbEntity
  8
0
  6
Continuous
 62
     7
370
    15
100
AcDbCircle
 10
89.7169328904
 20
203.7716318937
 30
0.0
 40
2.525000000000006
  0
CIRCLE
  5
1EF
330
1F
100
AcDbEntity
  8
0
  6
Continuous
 62
     7
370
    15
100
AcDbCircle
 10
89.7169328904
 20
203.7716318937
 30
0.0
 40
2.099999999999994
  0
DIMENSION
  5
1F0
330
1F
100
AcDbEntity
  8
0
  6
Continuous
 62
     7
370
     0
100
AcDbDimension
  2
*D4
 10
112.2169328904
 20
267.4015583639
 30
0.0
 11
89.7516869205
 21
267.4015583639
 31
0.0
 70
   160
 71
     2
 42
-1.0
  3
SLDDIMSTYLE0
100
AcDbAlignedDimension
 13
59.7169328904
 23
221.1557205692
 33
0.0
 14
112.2169328904
 24
233.4716318937
 34
0.0
100
AcDbRotatedDimension
  0
DIMENSION
  5
203
330
1F
100
AcDbEntity
  8
0
  6
Continuous
 62
     7
370
     0
100
AcDbDimension
  2
*D5
 10
134.7558394275
 20
206.1716318937
 30
0.0
 11
134.7558394275
 21
219.3971290232
 31
0.0
 70
   160
  1
%%c<>
 71
     2
 42
-1.0
  3
SLDDIMSTYLE0
100
AcDbAlignedDimension
 13
97.2169328904
 23
231.3716318937
 33
0.0
 14
97.2169328904
 24
206.1716318937
 34
0.0
 50
90.0
100
AcDbRotatedDimension
  0
DIMENSION
  5
216
330
1F
100
AcDbEntity
  8
0
  6
Continuous
 62
     7
370
     0
100
AcDbDimension
  2
*D6
 10
75.2169328904
 20
176.6251824806
 30
0.0
 11
49.5610785565
 21
176.6251824806
 31
0.0
 70
   160
 71
     2
 42
-1.0
  3
SLDDIMSTYLE1
100
AcDbAlignedDimension
 13
97.2169328904
 23
218.7716318937
 33
0.0
 14
75.2169328904
 24
204.7716318937
 34
0.0
100
AcDbRotatedDimension
  0
ENDSEC
  0
SECTION
  2
OBJECTS
  0
DICTIONARY
  5
C
330
0
100
AcDbDictionary
281
     1
  3
ACAD_GROUP
350
D
  3
ACAD_LAYOUT
350
1A
  3
ACAD_MATERIAL
350
3B
  3
ACAD_MLEADERSTYLE
350
22A
  3
ACAD_MLINESTYLE
350
17
  3
ACAD_PLOTSETTINGS
350
19
  3
ACAD_PLOTSTYLENAME
350
E
  3
ACAD_SCALELIST
350
45
  3
ACAD_VISUALSTYLE
350
2A
  3
AcDbVariableDictionary
350
228
  0
DICTIONARY
  5
D
102
{ACAD_REACTORS
330
C
102
}
330
C
100
AcDbDictionary
281
     1
  0
DICTIONARY
  5
1A
102
{ACAD_REACTORS
330
C
102
}
330
C
100
AcDbDictionary
281
     1
  3
Layout1
350
1E
  3
Layout2
350
26
  3
Model
350
22
  0
DICTIONARY
  5
3B
102
{ACAD_REACTORS
330
C
102
}
330
C
100
AcDbDictionary
281
     1
  3
ByBlock
350
3D
  3
ByLayer
350
3C
  3
Global
350
3E
  0
DICTIONARY
  5
22A
102
{ACAD_REACTORS
330
C
102
}
330
C
100
AcDbDictionary
281
     1
  0
DICTIONARY
  5
17
102
{ACAD_REACTORS
330
C
102
}
330
C
100
AcDbDictionary
281
     1
  3
Standard
350
18
  0
DICTIONARY
  5
19
102
{ACAD_REACTORS
330
C
102
}
330
C
100
AcDbDictionary
281
     1
  0
ACDBDICTIONARYWDFLT
  5
E
102
{ACAD_REACTORS
330
C
102
}
330
C
100
AcDbDictionary
281
     1
  3
Normal
350
F
100
AcDbDictionaryWithDefault
340
F
  0
DICTIONARY
  5
45
102
{ACAD_REACTORS
330
C
102
}
330
C
100
AcDbDictionary
281
     1
  3
A0
350
46
  3
A1
350
47
  3
A2
350
48
  3
A3
350
49
  3
A4
350
4A
  3
A5
350
4B
  3
A6
350
4C
  3
A7
350
4D
  3
A8
350
4E
  3
A9
350
4F
  3
B0
350
50
  3
B1
350
51
  3
B2
350
52
  3
B3
350
53
  3
B4
350
54
  3
B5
350
55
  3
B6
350
56
  3
B7
350
57
  3
B8
350
58
  3
B9
350
59
  3
C0
350
5A
  3
C1
350
5B
  3
C2
350
5C
  3
C3
350
5D
  3
C4
350
5E
  3
C5
350
5F
  3
C6
350
60
  3
C7
350
61
  3
C8
350
62
  3
C9
350
63
  3
D0
350
64
  3
D1
350
65
  3
D2
350
66
  0
DICTIONARY
  5
2A
102
{ACAD_REACTORS
330
C
102
}
330
C
100
AcDbDictionary
281
     1
  3
2dWireframe
350
2F
  3
3D Hidden
350
31
  3
3dWireframe
350
30
  3
Basic
350
32
  3
Brighten
350
36
  3
ColorChange
350
3A
  3
Conceptual
350
34
  3
Dim
350
35
  3
Facepattern
350
39
  3
Flat
350
2B
  3
FlatWithEdges
350
2C
  3
Gouraud
350
2D
  3
GouraudWithEdges
350
2E
  3
Linepattern
350
38
  3
Realistic
350
33
  3
Thicken
350
37
  0
DICTIONARY
  5
228
102
{ACAD_REACTORS
330
C
102
}
330
C
100
AcDbDictionary
281
     1
  3
CANNOSCALE
350
22D
  3
DIMASSOC
350
22E
  3
HIDETEXT
350
22F
  3
PSOLHEIGHT
350
22C
  3
PSOLWIDTH
350
22B
  0
LAYOUT
  5
1E
102
{ACAD_REACTORS
330
1A
102
}
330
1A
100
AcDbPlotSettings
  1

  2
none_device
  4

  6

 40
0.0
 41
0.0
 42
0.0
 43
0.0
 44
0.0
 45
0.0
 46
0.0
 47
0.0
 48
0.0
 49
0.0
140
0.0
141
0.0
142
1.0
143
1.0
 70
   688
 72
     0
 73
     0
 74
     5
  7

 75
    16
147
1.0
148
0.0
149
0.0
100
AcDbLayout
  1
Layout1
 70
     1
 71
     1
 10
0.0
 20
0.0
 11
420.0
 21
297.0
 12
0.0
 22
0.0
 32
0.0
 14
1.0000000000E+20
 24
1.0000000000E+20
 34
1.0000000000E+20
 15
-1.0000000000E+20
 25
-1.0000000000E+20
 35
-1.0000000000E+20
146
0.0
 13
0.0
 23
0.0
 33
0.0
 16
1.0
 26
0.0
 36
0.0
 17
0.0
 27
1.0
 37
0.0
 76
     0
330
1B
  0
LAYOUT
  5
26
102
{ACAD_REACTORS
330
1A
102
}
330
1A
100
AcDbPlotSettings
  1

  2
none_device
  4

  6

 40
0.0
 41
0.0
 42
0.0
 43
0.0
 44
0.0
 45
0.0
 46
0.0
 47
0.0
 48
0.0
 49
0.0
140
0.0
141
0.0
142
1.0
143
1.0
 70
   688
 72
     0
 73
     0
 74
     5
  7

 75
    16
147
1.0
148
0.0
149
0.0
100
AcDbLayout
  1
Layout2
 70
     1
 71
     2
 10
0.0
 20
0.0
 11
0.0
 21
0.0
 12
0.0
 22
0.0
 32
0.0
 14
0.0
 24
0.0
 34
0.0
 15
0.0
 25
0.0
 35
0.0
146
0.0
 13
0.0
 23
0.0
 33
0.0
 16
1.0
 26
0.0
 36
0.0
 17
0.0
 27
1.0
 37
0.0
 76
     0
330
23
  0
LAYOUT
  5
22
102
{ACAD_REACTORS
330
1A
102
}
330
1A
100
AcDbPlotSettings
  1

  2
none_device
  4

  6

 40
0.0
 41
0.0
 42
0.0
 43
0.0
 44
0.0
 45
0.0
 46
0.0
 47
0.0
 48
0.0
 49
0.0
140
0.0
141
0.0
142
1.0
143
1.0
 70
  1712
 72
     0
 73
     0
 74
     0
  7

 75
     0
147
1.0
148
0.0
149
0.0
100
AcDbLayout
  1
Model
 70
     1
 71
     0
 10
0.0
 20
0.0
 11
431.8
 21
279.4
 12
0.0
 22
0.0
 32
0.0
 14
0.0
 24
0.0
 34
0.0
 15
431.8
 25
279.4
 35
0.0
146
0.0
 13
0.0
 23
0.0
 33
0.0
 16
1.0
 26
0.0
 36
0.0
 17
0.0
 27
1.0
 37
0.0
 76
     0
330
1F
331
29
  0
MATERIAL
  5
3D
102
{ACAD_REACTORS
330
3B
102
}
102
{ACAD_XDICTIONARY
360
252
102
}
330
3B
100
AcDbMaterial
  1
ByBlock
  0
MATERIAL
  5
3C
102
{ACAD_REACTORS
330
3B
102
}
102
{ACAD_XDICTIONARY
360
250
102
}
330
3B
100
AcDbMaterial
  1
ByLayer
  0
MATERIAL
  5
3E
102
{ACAD_REACTORS
330
3B
102
}
102
{ACAD_XDICTIONARY
360
254
102
}
330
3B
100
AcDbMaterial
  1
Global
  0
MLINESTYLE
  5
18
102
{ACAD_REACTORS
330
17
102
}
330
17
100
AcDbMlineStyle
  2
Standard
 70
     0
  3

 62
   256
 51
90.0
 52
90.0
 71
     2
 49
0.5
 62
   256
  6
BYLAYER
 49
-0.5
 62
   256
  6
BYLAYER
  0
ACDBPLACEHOLDER
  5
F
102
{ACAD_REACTORS
330
E
102
}
330
E
  0
SCALE
  5
46
102
{ACAD_REACTORS
330
45
102
}
330
45
100
AcDbScale
 70
     0
300
1:1
140
1.0
141
1.0
290
     1
  0
SCALE
  5
47
102
{ACAD_REACTORS
330
45
102
}
330
45
100
AcDbScale
 70
     0
300
1:2
140
1.0
141
2.0
290
     0
  0
SCALE
  5
48
102
{ACAD_REACTORS
330
45
102
}
330
45
100
AcDbScale
 70
     0
300
1:4
140
1.0
141
4.0
290
     0
  0
SCALE
  5
49
102
{ACAD_REACTORS
330
45
102
}
330
45
100
AcDbScale
 70
     0
300
1:5
140
1.0
141
5.0
290
     0
  0
SCALE
  5
4A
102
{ACAD_REACTORS
330
45
102
}
330
45
100
AcDbScale
 70
     0
300
1:8
140
1.0
141
8.0
290
     0
  0
SCALE
  5
4B
102
{ACAD_REACTORS
330
45
102
}
330
45
100
AcDbScale
 70
     0
300
1:10
140
1.0
141
10.0
290
     0
  0
SCALE
  5
4C
102
{ACAD_REACTORS
330
45
102
}
330
45
100
AcDbScale
 70
     0
300
1:16
140
1.0
141
16.0
290
     0
  0
SCALE
  5
4D
102
{ACAD_REACTORS
330
45
102
}
330
45
100
AcDbScale
 70
     0
300
1:20
140
1.0
141
20.0
290
     0
  0
SCALE
  5
4E
102
{ACAD_REACTORS
330
45
102
}
330
45
100
AcDbScale
 70
     0
300
1:30
140
1.0
141
30.0
290
     0
  0
SCALE
  5
4F
102
{ACAD_REACTORS
330
45
102
}
330
45
100
AcDbScale
 70
     0
300
1:40
140
1.0
141
40.0
290
     0
  0
SCALE
  5
50
102
{ACAD_REACTORS
330
45
102
}
330
45
100
AcDbScale
 70
     0
300
1:50
140
1.0
141
50.0
290
     0
  0
SCALE
  5
51
102
{ACAD_REACTORS
330
45
102
}
330
45
100
AcDbScale
 70
     0
300
1:100
140
1.0
141
100.0
290
     0
  0
SCALE
  5
52
102
{ACAD_REACTORS
330
45
102
}
330
45
100
AcDbScale
 70
     0
300
2:1
140
2.0
141
1.0
290
     0
  0
SCALE
  5
53
102
{ACAD_REACTORS
330
45
102
}
330
45
100
AcDbScale
 70
     0
300
4:1
140
4.0
141
1.0
290
     0
  0
SCALE
  5
54
102
{ACAD_REACTORS
330
45
102
}
330
45
100
AcDbScale
 70
     0
300
8:1
140
8.0
141
1.0
290
     0
  0
SCALE
  5
55
102
{ACAD_REACTORS
330
45
102
}
330
45
100
AcDbScale
 70
     0
300
10:1
140
10.0
141
1.0
290
     0
  0
SCALE
  5
56
102
{ACAD_REACTORS
330
45
102
}
330
45
100
AcDbScale
 70
     0
300
100:1
140
100.0
141
1.0
290
     0
  0
SCALE
  5
57
102
{ACAD_REACTORS
330
45
102
}
330
45
100
AcDbScale
 70
     0
300
1/128" = 1'-0"
140
0.0078125
141
12.0
290
     0
  0
SCALE
  5
58
102
{ACAD_REACTORS
330
45
102
}
330
45
100
AcDbScale
 70
     0
300
1/64" = 1'-0"
140
0.015625
141
12.0
290
     0
  0
SCALE
  5
59
102
{ACAD_REACTORS
330
45
102
}
330
45
100
AcDbScale
 70
     0
300
1/32" = 1'-0"
140
0.03125
141
12.0
290
     0
  0
SCALE
  5
5A
102
{ACAD_REACTORS
330
45
102
}
330
45
100
AcDbScale
 70
     0
300
1/16" = 1'-0"
140
0.0625
141
12.0
290
     0
  0
SCALE
  5
5B
102
{ACAD_REACTORS
330
45
102
}
330
45
100
AcDbScale
 70
     0
300
3/32" = 1'-0"
140
0.09375
141
12.0
290
     0
  0
SCALE
  5
5C
102
{ACAD_REACTORS
330
45
102
}
330
45
100
AcDbScale
 70
     0
300
1/8" = 1'-0"
140
0.125
141
12.0
290
     0
  0
SCALE
  5
5D
102
{ACAD_REACTORS
330
45
102
}
330
45
100
AcDbScale
 70
     0
300
3/16" = 1'-0"
140
0.1875
141
12.0
290
     0
  0
SCALE
  5
5E
102
{ACAD_REACTORS
330
45
102
}
330
45
100
AcDbScale
 70
     0
300
1/4" = 1'-0"
140
0.25
141
12.0
290
     0
  0
SCALE
  5
5F
102
{ACAD_REACTORS
330
45
102
}
330
45
100
AcDbScale
 70
     0
300
3/8" = 1'-0"
140
0.375
141
12.0
290
     0
  0
SCALE
  5
60
102
{ACAD_REACTORS
330
45
102
}
330
45
100
AcDbScale
 70
     0
300
1/2" = 1'-0"
140
0.5
141
12.0
290
     0
  0
SCALE
  5
61
102
{ACAD_REACTORS
330
45
102
}
330
45
100
AcDbScale
 70
     0
300
3/4" = 1'-0"
140
0.75
141
12.0
290
     0
  0
SCALE
  5
62
102
{ACAD_REACTORS
330
45
102
}
330
45
100
AcDbScale
 70
     0
300
1" = 1'-0"
140
1.0
141
12.0
290
     0
  0
SCALE
  5
63
102
{ACAD_REACTORS
330
45
102
}
330
45
100
AcDbScale
 70
     0
300
1-1/2" = 1'-0"
140
1.5
141
12.0
290
     0
  0
SCALE
  5
64
102
{ACAD_REACTORS
330
45
102
}
330
45
100
AcDbScale
 70
     0
300
3" = 1'-0"
140
3.0
141
12.0
290
     0
  0
SCALE
  5
65
102
{ACAD_REACTORS
330
45
102
}
330
45
100
AcDbScale
 70
     0
300
6" = 1'-0"
140
6.0
141
12.0
290
     0
  0
SCALE
  5
66
102
{ACAD_REACTORS
330
45
102
}
330
45
100
AcDbScale
 70
     0
300
1'-0" = 1'-0"
140
12.0
141
12.0
290
     0
  0
VISUALSTYLE
  5
2F
102
{ACAD_REACTORS
330
2A
102
}
102
{ACAD_XDICTIONARY
360
238
102
}
330
2A
100
AcDbVisualStyle
  2
2dWireframe
 70
     4
 71
     0
 72
     2
 73
     0
 90
        0
 40
-0.6
 41
-30.0
 62
     5
 63
     7
 74
     1
 91
        4
 64
     7
 65
   257
 75
     1
175
     1
 42
1.0
 92
        0
 66
   257
 43
1.0
 76
     1
 77
     6
 78
     2
 67
     7
 79
     5
170
     0
171
     0
290
     0
174
     0
 93
        1
 44
0.0
173
     0
291
     0
 45
0.0
1001
ACAD
1000
AcDbSavedByObjectVersion
1070
     0
  0
VISUALSTYLE
  5
31
102
{ACAD_REACTORS
330
2A
102
}
102
{ACAD_XDICTIONARY
360
23C
102
}
330
2A
100
AcDbVisualStyle
  2
3D Hidden
 70
     6
 71
     1
 72
     2
 73
     2
 90
        0
 40
-0.6
 41
-30.0
 62
     5
 63
     7
 74
     2
 91
        2
 64
     7
 65
   257
 75
     2
175
     1
 42
40.0
 92
        0
 66
   257
 43
1.0
 76
     1
 77
     6
 78
     2
 67
     7
 79
     3
170
     0
171
     0
290
     0
174
     0
 93
        1
 44
0.0
173
     0
291
     0
 45
0.0
1001
ACAD
1000
AcDbSavedByObjectVersion
1070
     0
  0
VISUALSTYLE
  5
30
102
{ACAD_REACTORS
330
2A
102
}
102
{ACAD_XDICTIONARY
360
23A
102
}
330
2A
100
AcDbVisualStyle
  2
3dWireframe
 70
     5
 71
     0
 72
     2
 73
     0
 90
        0
 40
-0.6
 41
-30.0
 62
     5
 63
     7
 74
     1
 91
        4
 64
     7
 65
   257
 75
     1
175
     1
 42
1.0
 92
        0
 66
   257
 43
1.0
 76
     1
 77
     6
 78
     2
 67
     7
 79
     5
170
     0
171
     0
290
     0
174
     0
 93
        1
 44
0.0
173
     0
291
     0
 45
0.0
1001
ACAD
1000
AcDbSavedByObjectVersion
1070
     0
  0
VISUALSTYLE
  5
32
102
{ACAD_REACTORS
330
2A
102
}
102
{ACAD_XDICTIONARY
360
23E
102
}
330
2A
100
AcDbVisualStyle
  2
Basic
 70
     7
 71
     1
 72
     0
 73
     1
 90
        0
 40
-0.6
 41
-30.0
 62
     5
 63
     7
 74
     0
 91
        4
 64
     7
 65
   257
 75
     1
175
     1
 42
1.0
 92
        8
 66
     7
 43
1.0
 76
     1
 77
     6
 78
     2
 67
     7
 79
     5
170
     0
171
     0
290
     0
174
     0
 93
        1
 44
0.0
173
     0
291
     1
 45
0.0
1001
ACAD
1000
AcDbSavedByObjectVersion
1070
     0
  0
VISUALSTYLE
  5
36
102
{ACAD_REACTORS
330
2A
102
}
102
{ACAD_XDICTIONARY
360
246
102
}
330
2A
100
AcDbVisualStyle
  2
Brighten
 70
    12
 71
     2
 72
     2
 73
     0
 90
        0
 40
-0.6
 41
-30.0
 62
     5
 63
     7
 74
     1
 91
        4
 64
     7
 65
   257
 75
     1
175
     1
 42
1.0
 92
        8
 66
     7
 43
1.0
 76
     1
 77
     6
 78
     2
 67
     7
 79
     5
170
     0
171
     0
290
     0
174
     0
 93
        1
 44
50.0
173
     0
291
     1
 45
0.0
1001
ACAD
1000
AcDbSavedByObjectVersion
1070
     0
  0
VISUALSTYLE
  5
3A
102
{ACAD_REACTORS
330
2A
102
}
102
{ACAD_XDICTIONARY
360
24E
102
}
330
2A
100
AcDbVisualStyle
  2
ColorChange
 70
    16
 71
     2
 72
     2
 73
     3
 90
        0
 40
-0.6
 41
-30.0
 62
     5
 63
     8
 74
     1
 91
        4
 64
     7
 65
   257
 75
     1
175
     1
 42
1.0
 92
        8
 66
     8
 43
1.0
 76
     1
 77
     6
 78
     2
 67
     7
 79
     5
170
     0
171
     0
290
     0
174
     0
 93
        1
 44
0.0
173
     0
291
     1
 45
0.0
1001
ACAD
1000
AcDbSavedByObjectVersion
1070
     0
  0
VISUALSTYLE
  5
34
102
{ACAD_REACTORS
330
2A
102
}
102
{ACAD_XDICTIONARY
360
242
102
}
330
2A
100
AcDbVisualStyle
  2
Conceptual
 70
     9
 71
     3
 72
     2
 73
     0
 90
        0
 40
-0.6
 41
-30.0
 62
     5
 63
     7
 74
     2
 91
        2
 64
     7
 65
   257
 75
     1
175
     1
 42
40.0
 92
        8
 66
     7
 43
1.0
 76
     1
 77
     6
 78
     2
 67
     7
 79
     3
170
     0
171
     0
290
     0
174
     0
 93
        1
 44
0.0
173
     0
291
     0
 45
0.0
1001
ACAD
1000
AcDbSavedByObjectVersion
1070
     0
  0
VISUALSTYLE
  5
35
102
{ACAD_REACTORS
330
2A
102
}
102
{ACAD_XDICTIONARY
360
244
102
}
330
2A
100
AcDbVisualStyle
  2
Dim
 70
    11
 71
     2
 72
     2
 73
     0
 90
        0
 40
-0.6
 41
-30.0
 62
     5
 63
     7
 74
     1
 91
        4
 64
     7
 65
   257
 75
     1
175
     1
 42
1.0
 92
        8
 66
     7
 43
1.0
 76
     1
 77
     6
 78
     2
 67
     7
 79
     5
170
     0
171
     0
290
     0
174
     0
 93
        1
 44
-50.0
173
     0
291
     1
 45
0.0
1001
ACAD
1000
AcDbSavedByObjectVersion
1070
     0
  0
VISUALSTYLE
  5
39
102
{ACAD_REACTORS
330
2A
102
}
102
{ACAD_XDICTIONARY
360
24C
102
}
330
2A
100
AcDbVisualStyle
  2
Facepattern
 70
    15
 71
     2
 72
     2
 73
     0
 90
        0
 40
-0.6
 41
-30.0
 62
     5
 63
     7
 74
     1
 91
        4
 64
     7
 65
   257
 75
     1
175
     1
 42
1.0
 92
        8
 66
     7
 43
1.0
 76
     1
 77
     6
 78
     2
 67
     7
 79
     5
170
     0
171
     0
290
     0
174
     0
 93
        1
 44
0.0
173
     0
291
     1
 45
0.0
1001
ACAD
1000
AcDbSavedByObjectVersion
1070
     0
  0
VISUALSTYLE
  5
2B
102
{ACAD_REACTORS
330
2A
102
}
102
{ACAD_XDICTIONARY
360
230
102
}
330
2A
100
AcDbVisualStyle
  2
Flat
 70
     0
 71
     2
 72
     1
 73
     1
 90
        2
 40
-0.6
 41
30.0
 62
     5
 63
     7
 74
     0
 91
        4
 64
     7
 65
   257
 75
     1
175
     1
 42
1.0
 92
        8
 66
     7
 43
1.0
 76
     1
 77
     6
 78
     2
 67
     7
 79
     5
170
     0
171
     0
290
     0
174
     0
 93
       13
 44
0.0
173
     0
291
     1
 45
0.0
1001
ACAD
1000
AcDbSavedByObjectVersion
1070
     0
  0
VISUALSTYLE
  5
2C
102
{ACAD_REACTORS
330
2A
102
}
102
{ACAD_XDICTIONARY
360
232
102
}
330
2A
100
AcDbVisualStyle
  2
FlatWithEdges
 70
     1
 71
     2
 72
     1
 73
     1
 90
        2
 40
-0.6
 41
30.0
 62
     5
 63
     7
 74
     1
 91
        4
 64
     7
 65
   257
 75
     1
175
     1
 42
1.0
 92
        0
 66
   257
 43
1.0
 76
     1
 77
     6
 78
     2
 67
     7
 79
     5
170
     0
171
     0
290
     0
174
     0
 93
       13
 44
0.0
173
     0
291
     1
 45
0.0
1001
ACAD
1000
AcDbSavedByObjectVersion
1070
     0
  0
VISUALSTYLE
  5
2D
102
{ACAD_REACTORS
330
2A
102
}
102
{ACAD_XDICTIONARY
360
234
102
}
330
2A
100
AcDbVisualStyle
  2
Gouraud
 70
     2
 71
     2
 72
     2
 73
     1
 90
        2
 40
-0.6
 41
30.0
 62
     5
 63
     7
 74
     0
 91
        4
 64
     7
 65
   257
 75
     1
175
     1
 42
1.0
 92
        0
 66
     7
 43
1.0
 76
     1
 77
     6
 78
     2
 67
     7
 79
     5
170
     0
171
     0
290
     0
174
     0
 93
       13
 44
0.0
173
     0
291
     1
 45
0.0
1001
ACAD
1000
AcDbSavedByObjectVersion
1070
     0
  0
VISUALSTYLE
  5
2E
102
{ACAD_REACTORS
330
2A
102
}
102
{ACAD_XDICTIONARY
360
236
102
}
330
2A
100
AcDbVisualStyle
  2
GouraudWithEdges
 70
     3
 71
     2
 72
     2
 73
     1
 90
        2
 40
-0.6
 41
30.0
 62
     5
 63
     7
 74
     1
 91
        4
 64
     7
 65
   257
 75
     1
175
     1
 42
1.0
 92
        0
 66
   257
 43
1.0
 76
     1
 77
     6
 78
     2
 67
     7
 79
     5
170
     0
171
     0
290
     0
174
     0
 93
       13
 44
0.0
173
     0
291
     1
 45
0.0
1001
ACAD
1000
AcDbSavedByObjectVersion
1070
     0
  0
VISUALSTYLE
  5
38
102
{ACAD_REACTORS
330
2A
102
}
102
{ACAD_XDICTIONARY
360
24A
102
}
330
2A
100
AcDbVisualStyle
  2
Linepattern
 70
    14
 71
     2
 72
     2
 73
     0
 90
        0
 40
-0.6
 41
-30.0
 62
     5
 63
     7
 74
     1
 91
        4
 64
     7
 65
   257
 75
     7
175
     7
 42
1.0
 92
        8
 66
     7
 43
1.0
 76
     1
 77
     6
 78
     2
 67
     7
 79
     5
170
     0
171
     0
290
     0
174
     0
 93
        1
 44
0.0
173
     0
291
     1
 45
0.0
1001
ACAD
1000
AcDbSavedByObjectVersion
1070
     0
  0
VISUALSTYLE
  5
33
102
{ACAD_REACTORS
330
2A
102
}
102
{ACAD_XDICTIONARY
360
240
102
}
330
2A
100
AcDbVisualStyle
  2
Realistic
 70
     8
 71
     2
 72
     2
 73
     0
 90
        0
 40
-0.6
 41
-30.0
 62
     5
 63
     7
 74
     1
 91
        0
 64
     7
 65
   257
 75
     1
175
     1
 42
1.0
 92
        8
 66
     8
 43
1.0
 76
     1
 77
     6
 78
     2
 67
     7
 79
     5
170
     0
171
     0
290
     0
174
     0
 93
       13
 44
0.0
173
     0
291
     0
 45
0.0
1001
ACAD
1000
AcDbSavedByObjectVersion
1070
     0
  0
VISUALSTYLE
  5
37
102
{ACAD_REACTORS
330
2A
102
}
102
{ACAD_XDICTIONARY
360
248
102
}
330
2A
100
AcDbVisualStyle
  2
Thicken
 70
    13
 71
     2
 72
     2
 73
     0
 90
        0
 40
-0.6
 41
-30.0
 62
     5
 63
     7
 74
     1
 91
        4
 64
     7
 65
   257
 75
     1
175
     1
 42
1.0
 92
       12
 66
     7
 43
1.0
 76
     1
 77
     6
 78
     2
 67
     7
 79
     5
170
     0
171
     0
290
     0
174
     0
 93
        1
 44
0.0
173
     0
291
     1
 45
0.0
1001
ACAD
1000
AcDbSavedByObjectVersion
1070
     0
  0
DICTIONARYVAR
  5
22D
102
{ACAD_REACTORS
330
228
102
}
330
228
100
DictionaryVariables
280
     0
  1
1:1
  0
DICTIONARYVAR
  5
22E
102
{ACAD_REACTORS
330
228
102
}
330
228
100
DictionaryVariables
280
     0
  1
2
  0
DICTIONARYVAR
  5
22F
102
{ACAD_REACTORS
330
228
102
}
330
228
100
DictionaryVariables
280
     0
  1
1
  0
DICTIONARYVAR
  5
22C
102
{ACAD_REACTORS
330
228
102
}
330
228
100
DictionaryVariables
280
     0
  1
80.000000
  0
DICTIONARYVAR
  5
22B
102
{ACAD_REACTORS
330
228
102
}
330
228
100
DictionaryVariables
280
     0
  1
5.000000
  0
DICTIONARY
  5
252
330
3D
100
AcDbDictionary
280
     1
281
     1
  3
ACAD_XREC_ROUNDTRIP
360
253
  0
DICTIONARY
  5
250
330
3C
100
AcDbDictionary
280
     1
281
     1
  3
ACAD_XREC_ROUNDTRIP
360
251
  0
DICTIONARY
  5
254
330
3E
100
AcDbDictionary
280
     1
281
     1
  3
ACAD_XREC_ROUNDTRIP
360
255
  0
DICTIONARY
  5
238
330
2F
100
AcDbDictionary
280
     1
281
     1
  3
ACAD_XREC_ROUNDTRIP
360
239
  0
DICTIONARY
  5
23C
330
31
100
AcDbDictionary
280
     1
281
     1
  3
ACAD_XREC_ROUNDTRIP
360
23D
  0
DICTIONARY
  5
23A
330
30
100
AcDbDictionary
280
     1
281
     1
  3
ACAD_XREC_ROUNDTRIP
360
23B
  0
DICTIONARY
  5
23E
330
32
100
AcDbDictionary
280
     1
281
     1
  3
ACAD_XREC_ROUNDTRIP
360
23F
  0
DICTIONARY
  5
246
330
36
100
AcDbDictionary
280
     1
281
     1
  3
ACAD_XREC_ROUNDTRIP
360
247
  0
DICTIONARY
  5
24E
330
3A
100
AcDbDictionary
280
     1
281
     1
  3
ACAD_XREC_ROUNDTRIP
360
24F
  0
DICTIONARY
  5
242
330
34
100
AcDbDictionary
280
     1
281
     1
  3
ACAD_XREC_ROUNDTRIP
360
243
  0
DICTIONARY
  5
244
330
35
100
AcDbDictionary
280
     1
281
     1
  3
ACAD_XREC_ROUNDTRIP
360
245
  0
DICTIONARY
  5
24C
330
39
100
AcDbDictionary
280
     1
281
     1
  3
ACAD_XREC_ROUNDTRIP
360
24D
  0
DICTIONARY
  5
230
330
2B
100
AcDbDictionary
280
     1
281
     1
  3
ACAD_XREC_ROUNDTRIP
360
231
  0
DICTIONARY
  5
232
330
2C
100
AcDbDictionary
280
     1
281
     1
  3
ACAD_XREC_ROUNDTRIP
360
233
  0
DICTIONARY
  5
234
330
2D
100
AcDbDictionary
280
     1
281
     1
  3
ACAD_XREC_ROUNDTRIP
360
235
  0
DICTIONARY
  5
236
330
2E
100
AcDbDictionary
280
     1
281
     1
  3
ACAD_XREC_ROUNDTRIP
360
237
  0
DICTIONARY
  5
24A
330
38
100
AcDbDictionary
280
     1
281
     1
  3
ACAD_XREC_ROUNDTRIP
360
24B
  0
DICTIONARY
  5
240
330
33
100
AcDbDictionary
280
     1
281
     1
  3
ACAD_XREC_ROUNDTRIP
360
241
  0
DICTIONARY
  5
248
330
37
100
AcDbDictionary
280
     1
281
     1
  3
ACAD_XREC_ROUNDTRIP
360
249
  0
XRECORD
  5
253
102
{ACAD_REACTORS
330
252
102
}
330
252
100
AcDbXrecord
280
     1
102
MATERIAL
148
0.0
149
0.0
149
0.0
 93
        0
 94
      127
282
     0
 72
     1
 77
     1
171
     1
175
     1
179
     1
273
     0
  0
XRECORD
  5
251
102
{ACAD_REACTORS
330
250
102
}
330
250
100
AcDbXrecord
280
     1
102
MATERIAL
148
0.0
149
0.0
149
0.0
 93
        0
 94
      127
282
     0
 72
     1
 77
     1
171
     1
175
     1
179
     1
273
     0
  0
XRECORD
  5
255
102
{ACAD_REACTORS
330
254
102
}
330
254
100
AcDbXrecord
280
     1
102
MATERIAL
148
0.0
149
0.0
149
0.0
 93
        0
 94
      127
282
     0
 72
     1
 77
     1
171
     1
175
     1
179
     1
273
     0
  0
XRECORD
  5
239
102
{ACAD_REACTORS
330
238
102
}
330
238
100
AcDbXrecord
280
     1
102
RTVSPropertyOp0
 70
     1
102
RTVSPropertyOp1
 70
     1
102
RTVSPropertyOp2
 70
     1
102
RTVSPropertyOp3
 70
     1
102
RTVSPropertyOp4
 70
     1
102
RTVSPropertyOp5
 70
     1
102
RTVSPropertyOp6
 70
     1
102
RTVSPropertyOp7
 70
     1
102
RTVSPropertyOp8
 70
     1
102
RTVSPropertyOp9
 70
     1
102
RTVSPropertyOp10
 70
     1
102
RTVSPropertyOp11
 70
     1
102
RTVSPropertyOp12
 70
     1
102
RTVSPropertyOp13
 70
     1
102
RTVSPropertyOp14
 70
     1
102
RTVSPropertyOp15
 70
     1
102
RTVSPropertyOp16
 70
     1
102
RTVSPropertyOp17
 70
     1
102
RTVSPropertyOp18
 70
     1
102
RTVSPropertyOp19
 70
     1
102
RTVSPropertyOp20
 70
     1
102
RTVSPropertyOp21
 70
     1
102
RTVSPropertyOp22
 70
     1
102
RTVSPropertyOp23
 70
     1
102
RTVSPropertyOp24
 70
     1
102
RTVSPropertyOp25
 70
     1
102
RTVSPropertyOp26
 70
     1
102
RTVSPropertyOp27
 70
     1
  0
XRECORD
  5
23D
102
{ACAD_REACTORS
330
23C
102
}
330
23C
100
AcDbXrecord
280
     1
102
RTVSPropertyOp0
 70
     1
102
RTVSPropertyOp1
 70
     1
102
RTVSPropertyOp2
 70
     1
102
RTVSPropertyOp3
 70
     1
102
RTVSPropertyOp4
 70
     1
102
RTVSPropertyOp5
 70
     1
102
RTVSPropertyOp6
 70
     1
102
RTVSPropertyOp7
 70
     1
102
RTVSPropertyOp8
 70
     1
102
RTVSPropertyOp9
 70
     1
102
RTVSPropertyOp10
 70
     1
102
RTVSPropertyOp11
 70
     1
102
RTVSPropertyOp12
 70
     1
102
RTVSPropertyOp13
 70
     1
102
RTVSPropertyOp14
 70
     1
102
RTVSPropertyOp15
 70
     1
102
RTVSPropertyOp16
 70
     1
102
RTVSPropertyOp17
 70
     1
102
RTVSPropertyOp18
 70
     1
102
RTVSPropertyOp19
 70
     1
102
RTVSPropertyOp20
 70
     1
102
RTVSPropertyOp21
 70
     1
102
RTVSPropertyOp22
 70
     1
102
RTVSPropertyOp23
 70
     1
102
RTVSPropertyOp24
 70
     1
102
RTVSPropertyOp25
 70
     1
102
RTVSPropertyOp26
 70
     1
102
RTVSPropertyOp27
 70
     1
  0
XRECORD
  5
23B
102
{ACAD_REACTORS
330
23A
102
}
330
23A
100
AcDbXrecord
280
     1
102
RTVSPropertyOp0
 70
     1
102
RTVSPropertyOp1
 70
     1
102
RTVSPropertyOp2
 70
     1
102
RTVSPropertyOp3
 70
     1
102
RTVSPropertyOp4
 70
     1
102
RTVSPropertyOp5
 70
     1
102
RTVSPropertyOp6
 70
     1
102
RTVSPropertyOp7
 70
     1
102
RTVSPropertyOp8
 70
     1
102
RTVSPropertyOp9
 70
     1
102
RTVSPropertyOp10
 70
     1
102
RTVSPropertyOp11
 70
     1
102
RTVSPropertyOp12
 70
     1
102
RTVSPropertyOp13
 70
     1
102
RTVSPropertyOp14
 70
     1
102
RTVSPropertyOp15
 70
     1
102
RTVSPropertyOp16
 70
     1
102
RTVSPropertyOp17
 70
     1
102
RTVSPropertyOp18
 70
     1
102
RTVSPropertyOp19
 70
     1
102
RTVSPropertyOp20
 70
     1
102
RTVSPropertyOp21
 70
     1
102
RTVSPropertyOp22
 70
     1
102
RTVSPropertyOp23
 70
     1
102
RTVSPropertyOp24
 70
     1
102
RTVSPropertyOp25
 70
     1
102
RTVSPropertyOp26
 70
     1
102
RTVSPropertyOp27
 70
     1
  0
XRECORD
  5
23F
102
{ACAD_REACTORS
330
23E
102
}
330
23E
100
AcDbXrecord
280
     1
102
RTVSPropertyOp0
 70
     1
102
RTVSPropertyOp1
 70
     1
102
RTVSPropertyOp2
 70
     1
102
RTVSPropertyOp3
 70
     1
102
RTVSPropertyOp4
 70
     1
102
RTVSPropertyOp5
 70
     1
102
RTVSPropertyOp6
 70
     1
102
RTVSPropertyOp7
 70
     1
102
RTVSPropertyOp8
 70
     1
102
RTVSPropertyOp9
 70
     1
102
RTVSPropertyOp10
 70
     1
102
RTVSPropertyOp11
 70
     1
102
RTVSPropertyOp12
 70
     1
102
RTVSPropertyOp13
 70
     1
102
RTVSPropertyOp14
 70
     1
102
RTVSPropertyOp15
 70
     1
102
RTVSPropertyOp16
 70
     1
102
RTVSPropertyOp17
 70
     1
102
RTVSPropertyOp18
 70
     1
102
RTVSPropertyOp19
 70
     1
102
RTVSPropertyOp20
 70
     1
102
RTVSPropertyOp21
 70
     1
102
RTVSPropertyOp22
 70
     1
102
RTVSPropertyOp23
 70
     1
102
RTVSPropertyOp24
 70
     1
102
RTVSPropertyOp25
 70
     1
102
RTVSPropertyOp26
 70
     1
102
RTVSPropertyOp27
 70
     1
  0
XRECORD
  5
247
102
{ACAD_REACTORS
330
246
102
}
330
246
100
AcDbXrecord
280
     1
102
RTVSPropertyOp0
 70
     1
102
RTVSPropertyOp1
 70
     1
102
RTVSPropertyOp2
 70
     1
102
RTVSPropertyOp3
 70
     1
102
RTVSPropertyOp4
 70
     1
102
RTVSPropertyOp5
 70
     1
102
RTVSPropertyOp6
 70
     1
102
RTVSPropertyOp7
 70
     1
102
RTVSPropertyOp8
 70
     1
102
RTVSPropertyOp9
 70
     1
102
RTVSPropertyOp10
 70
     1
102
RTVSPropertyOp11
 70
     1
102
RTVSPropertyOp12
 70
     1
102
RTVSPropertyOp13
 70
     1
102
RTVSPropertyOp14
 70
     1
102
RTVSPropertyOp15
 70
     1
102
RTVSPropertyOp16
 70
     1
102
RTVSPropertyOp17
 70
     1
102
RTVSPropertyOp18
 70
     1
102
RTVSPropertyOp19
 70
     1
102
RTVSPropertyOp20
 70
     1
102
RTVSPropertyOp21
 70
     1
102
RTVSPropertyOp22
 70
     1
102
RTVSPropertyOp23
 70
     1
102
RTVSPropertyOp24
 70
     1
102
RTVSPropertyOp25
 70
     1
102
RTVSPropertyOp26
 70
     1
102
RTVSPropertyOp27
 70
     1
  0
XRECORD
  5
24F
102
{ACAD_REACTORS
330
24E
102
}
330
24E
100
AcDbXrecord
280
     1
102
RTVSPropertyOp0
 70
     1
102
RTVSPropertyOp1
 70
     1
102
RTVSPropertyOp2
 70
     1
102
RTVSPropertyOp3
 70
     1
102
RTVSPropertyOp4
 70
     1
102
RTVSPropertyOp5
 70
     1
102
RTVSPropertyOp6
 70
     1
102
RTVSPropertyOp7
 70
     1
102
RTVSPropertyOp8
 70
     1
102
RTVSPropertyOp9
 70
     1
102
RTVSPropertyOp10
 70
     1
102
RTVSPropertyOp11
 70
     1
102
RTVSPropertyOp12
 70
     1
102
RTVSPropertyOp13
 70
     1
102
RTVSPropertyOp14
 70
     1
102
RTVSPropertyOp15
 70
     1
102
RTVSPropertyOp16
 70
     1
102
RTVSPropertyOp17
 70
     1
102
RTVSPropertyOp18
 70
     1
102
RTVSPropertyOp19
 70
     1
102
RTVSPropertyOp20
 70
     1
102
RTVSPropertyOp21
 70
     1
102
RTVSPropertyOp22
 70
     1
102
RTVSPropertyOp23
 70
     1
102
RTVSPropertyOp24
 70
     1
102
RTVSPropertyOp25
 70
     1
102
RTVSPropertyOp26
 70
     1
102
RTVSPropertyOp27
 70
     1
  0
XRECORD
  5
243
102
{ACAD_REACTORS
330
242
102
}
330
242
100
AcDbXrecord
280
     1
102
RTVSPropertyOp0
 70
     1
102
RTVSPropertyOp1
 70
     1
102
RTVSPropertyOp2
 70
     1
102
RTVSPropertyOp3
 70
     1
102
RTVSPropertyOp4
 70
     1
102
RTVSPropertyOp5
 70
     1
102
RTVSPropertyOp6
 70
     1
102
RTVSPropertyOp7
 70
     1
102
RTVSPropertyOp8
 70
     1
102
RTVSPropertyOp9
 70
     1
102
RTVSPropertyOp10
 70
     1
102
RTVSPropertyOp11
 70
     1
102
RTVSPropertyOp12
 70
     1
102
RTVSPropertyOp13
 70
     1
102
RTVSPropertyOp14
 70
     1
102
RTVSPropertyOp15
 70
     1
102
RTVSPropertyOp16
 70
     1
102
RTVSPropertyOp17
 70
     1
102
RTVSPropertyOp18
 70
     1
102
RTVSPropertyOp19
 70
     1
102
RTVSPropertyOp20
 70
     1
102
RTVSPropertyOp21
 70
     1
102
RTVSPropertyOp22
 70
     1
102
RTVSPropertyOp23
 70
     1
102
RTVSPropertyOp24
 70
     1
102
RTVSPropertyOp25
 70
     1
102
RTVSPropertyOp26
 70
     1
102
RTVSPropertyOp27
 70
     1
  0
XRECORD
  5
245
102
{ACAD_REACTORS
330
244
102
}
330
244
100
AcDbXrecord
280
     1
102
RTVSPropertyOp0
 70
     1
102
RTVSPropertyOp1
 70
     1
102
RTVSPropertyOp2
 70
     1
102
RTVSPropertyOp3
 70
     1
102
RTVSPropertyOp4
 70
     1
102
RTVSPropertyOp5
 70
     1
102
RTVSPropertyOp6
 70
     1
102
RTVSPropertyOp7
 70
     1
102
RTVSPropertyOp8
 70
     1
102
RTVSPropertyOp9
 70
     1
102
RTVSPropertyOp10
 70
     1
102
RTVSPropertyOp11
 70
     1
102
RTVSPropertyOp12
 70
     1
102
RTVSPropertyOp13
 70
     1
102
RTVSPropertyOp14
 70
     1
102
RTVSPropertyOp15
 70
     1
102
RTVSPropertyOp16
 70
     1
102
RTVSPropertyOp17
 70
     1
102
RTVSPropertyOp18
 70
     1
102
RTVSPropertyOp19
 70
     1
102
RTVSPropertyOp20
 70
     1
102
RTVSPropertyOp21
 70
     1
102
RTVSPropertyOp22
 70
     1
102
RTVSPropertyOp23
 70
     1
102
RTVSPropertyOp24
 70
     1
102
RTVSPropertyOp25
 70
     1
102
RTVSPropertyOp26
 70
     1
102
RTVSPropertyOp27
 70
     1
  0
XRECORD
  5
24D
102
{ACAD_REACTORS
330
24C
102
}
330
24C
100
AcDbXrecord
280
     1
102
RTVSPropertyOp0
 70
     1
102
RTVSPropertyOp1
 70
     1
102
RTVSPropertyOp2
 70
     1
102
RTVSPropertyOp3
 70
     1
102
RTVSPropertyOp4
 70
     1
102
RTVSPropertyOp5
 70
     1
102
RTVSPropertyOp6
 70
     1
102
RTVSPropertyOp7
 70
     1
102
RTVSPropertyOp8
 70
     1
102
RTVSPropertyOp9
 70
     1
102
RTVSPropertyOp10
 70
     1
102
RTVSPropertyOp11
 70
     1
102
RTVSPropertyOp12
 70
     1
102
RTVSPropertyOp13
 70
     1
102
RTVSPropertyOp14
 70
     1
102
RTVSPropertyOp15
 70
     1
102
RTVSPropertyOp16
 70
     1
102
RTVSPropertyOp17
 70
     1
102
RTVSPropertyOp18
 70
     1
102
RTVSPropertyOp19
 70
     1
102
RTVSPropertyOp20
 70
     1
102
RTVSPropertyOp21
 70
     1
102
RTVSPropertyOp22
 70
     1
102
RTVSPropertyOp23
 70
     1
102
RTVSPropertyOp24
 70
     1
102
RTVSPropertyOp25
 70
     1
102
RTVSPropertyOp26
 70
     1
102
RTVSPropertyOp27
 70
     1
  0
XRECORD
  5
231
102
{ACAD_REACTORS
330
230
102
}
330
230
100
AcDbXrecord
280
     1
102
RTVSPropertyOp0
 70
     1
102
RTVSPropertyOp1
 70
     1
102
RTVSPropertyOp2
 70
     1
102
RTVSPropertyOp3
 70
     1
102
RTVSPropertyOp4
 70
     1
102
RTVSPropertyOp5
 70
     1
102
RTVSPropertyOp6
 70
     1
102
RTVSPropertyOp7
 70
     1
102
RTVSPropertyOp8
 70
     1
102
RTVSPropertyOp9
 70
     1
102
RTVSPropertyOp10
 70
     1
102
RTVSPropertyOp11
 70
     1
102
RTVSPropertyOp12
 70
     1
102
RTVSPropertyOp13
 70
     1
102
RTVSPropertyOp14
 70
     1
102
RTVSPropertyOp15
 70
     1
102
RTVSPropertyOp16
 70
     1
102
RTVSPropertyOp17
 70
     1
102
RTVSPropertyOp18
 70
     1
102
RTVSPropertyOp19
 70
     1
102
RTVSPropertyOp20
 70
     1
102
RTVSPropertyOp21
 70
     1
102
RTVSPropertyOp22
 70
     1
102
RTVSPropertyOp23
 70
     1
102
RTVSPropertyOp24
 70
     1
102
RTVSPropertyOp25
 70
     1
102
RTVSPropertyOp26
 70
     1
102
RTVSPropertyOp27
 70
     1
  0
XRECORD
  5
233
102
{ACAD_REACTORS
330
232
102
}
330
232
100
AcDbXrecord
280
     1
102
RTVSPropertyOp0
 70
     1
102
RTVSPropertyOp1
 70
     1
102
RTVSPropertyOp2
 70
     1
102
RTVSPropertyOp3
 70
     1
102
RTVSPropertyOp4
 70
     1
102
RTVSPropertyOp5
 70
     1
102
RTVSPropertyOp6
 70
     1
102
RTVSPropertyOp7
 70
     1
102
RTVSPropertyOp8
 70
     1
102
RTVSPropertyOp9
 70
     1
102
RTVSPropertyOp10
 70
     1
102
RTVSPropertyOp11
 70
     1
102
RTVSPropertyOp12
 70
     1
102
RTVSPropertyOp13
 70
     1
102
RTVSPropertyOp14
 70
     1
102
RTVSPropertyOp15
 70
     1
102
RTVSPropertyOp16
 70
     1
102
RTVSPropertyOp17
 70
     1
102
RTVSPropertyOp18
 70
     1
102
RTVSPropertyOp19
 70
     1
102
RTVSPropertyOp20
 70
     1
102
RTVSPropertyOp21
 70
     1
102
RTVSPropertyOp22
 70
     1
102
RTVSPropertyOp23
 70
     1
102
RTVSPropertyOp24
 70
     1
102
RTVSPropertyOp25
 70
     1
102
RTVSPropertyOp26
 70
     1
102
RTVSPropertyOp27
 70
     1
  0
XRECORD
  5
235
102
{ACAD_REACTORS
330
234
102
}
330
234
100
AcDbXrecord
280
     1
102
RTVSPropertyOp0
 70
     1
102
RTVSPropertyOp1
 70
     1
102
RTVSPropertyOp2
 70
     1
102
RTVSPropertyOp3
 70
     1
102
RTVSPropertyOp4
 70
     1
102
RTVSPropertyOp5
 70
     1
102
RTVSPropertyOp6
 70
     1
102
RTVSPropertyOp7
 70
     1
102
RTVSPropertyOp8
 70
     1
102
RTVSPropertyOp9
 70
     1
102
RTVSPropertyOp10
 70
     1
102
RTVSPropertyOp11
 70
     1
102
RTVSPropertyOp12
 70
     1
102
RTVSPropertyOp13
 70
     1
102
RTVSPropertyOp14
 70
     1
102
RTVSPropertyOp15
 70
     1
102
RTVSPropertyOp16
 70
     1
102
RTVSPropertyOp17
 70
     1
102
RTVSPropertyOp18
 70
     1
102
RTVSPropertyOp19
 70
     1
102
RTVSPropertyOp20
 70
     1
102
RTVSPropertyOp21
 70
     1
102
RTVSPropertyOp22
 70
     1
102
RTVSPropertyOp23
 70
     1
102
RTVSPropertyOp24
 70
     1
102
RTVSPropertyOp25
 70
     1
102
RTVSPropertyOp26
 70
     1
102
RTVSPropertyOp27
 70
     1
  0
XRECORD
  5
237
102
{ACAD_REACTORS
330
236
102
}
330
236
100
AcDbXrecord
280
     1
102
RTVSPropertyOp0
 70
     1
102
RTVSPropertyOp1
 70
     1
102
RTVSPropertyOp2
 70
     1
102
RTVSPropertyOp3
 70
     1
102
RTVSPropertyOp4
 70
     1
102
RTVSPropertyOp5
 70
     1
102
RTVSPropertyOp6
 70
     1
102
RTVSPropertyOp7
 70
     1
102
RTVSPropertyOp8
 70
     1
102
RTVSPropertyOp9
 70
     1
102
RTVSPropertyOp10
 70
     1
102
RTVSPropertyOp11
 70
     1
102
RTVSPropertyOp12
 70
     1
102
RTVSPropertyOp13
 70
     1
102
RTVSPropertyOp14
 70
     1
102
RTVSPropertyOp15
 70
     1
102
RTVSPropertyOp16
 70
     1
102
RTVSPropertyOp17
 70
     1
102
RTVSPropertyOp18
 70
     1
102
RTVSPropertyOp19
 70
     1
102
RTVSPropertyOp20
 70
     1
102
RTVSPropertyOp21
 70
     1
102
RTVSPropertyOp22
 70
     1
102
RTVSPropertyOp23
 70
     1
102
RTVSPropertyOp24
 70
     1
102
RTVSPropertyOp25
 70
     1
102
RTVSPropertyOp26
 70
     1
102
RTVSPropertyOp27
 70
     1
  0
XRECORD
  5
24B
102
{ACAD_REACTORS
330
24A
102
}
330
24A
100
AcDbXrecord
280
     1
102
RTVSPropertyOp0
 70
     1
102
RTVSPropertyOp1
 70
     1
102
RTVSPropertyOp2
 70
     1
102
RTVSPropertyOp3
 70
     1
102
RTVSPropertyOp4
 70
     1
102
RTVSPropertyOp5
 70
     1
102
RTVSPropertyOp6
 70
     1
102
RTVSPropertyOp7
 70
     1
102
RTVSPropertyOp8
 70
     1
102
RTVSPropertyOp9
 70
     1
102
RTVSPropertyOp10
 70
     1
102
RTVSPropertyOp11
 70
     1
102
RTVSPropertyOp12
 70
     1
102
RTVSPropertyOp13
 70
     1
102
RTVSPropertyOp14
 70
     1
102
RTVSPropertyOp15
 70
     1
102
RTVSPropertyOp16
 70
     1
102
RTVSPropertyOp17
 70
     1
102
RTVSPropertyOp18
 70
     1
102
RTVSPropertyOp19
 70
     1
102
RTVSPropertyOp20
 70
     1
102
RTVSPropertyOp21
 70
     1
102
RTVSPropertyOp22
 70
     1
102
RTVSPropertyOp23
 70
     1
102
RTVSPropertyOp24
 70
     1
102
RTVSPropertyOp25
 70
     1
102
RTVSPropertyOp26
 70
     1
102
RTVSPropertyOp27
 70
     1
  0
XRECORD
  5
241
102
{ACAD_REACTORS
330
240
102
}
330
240
100
AcDbXrecord
280
     1
102
RTVSPropertyOp0
 70
     1
102
RTVSPropertyOp1
 70
     1
102
RTVSPropertyOp2
 70
     1
102
RTVSPropertyOp3
 70
     1
102
RTVSPropertyOp4
 70
     1
102
RTVSPropertyOp5
 70
     1
102
RTVSPropertyOp6
 70
     1
102
RTVSPropertyOp7
 70
     1
102
RTVSPropertyOp8
 70
     1
102
RTVSPropertyOp9
 70
     1
102
RTVSPropertyOp10
 70
     1
102
RTVSPropertyOp11
 70
     1
102
RTVSPropertyOp12
 70
     1
102
RTVSPropertyOp13
 70
     1
102
RTVSPropertyOp14
 70
     1
102
RTVSPropertyOp15
 70
     1
102
RTVSPropertyOp16
 70
     1
102
RTVSPropertyOp17
 70
     1
102
RTVSPropertyOp18
 70
     1
102
RTVSPropertyOp19
 70
     1
102
RTVSPropertyOp20
 70
     1
102
RTVSPropertyOp21
 70
     1
102
RTVSPropertyOp22
 70
     1
102
RTVSPropertyOp23
 70
     1
102
RTVSPropertyOp24
 70
     1
102
RTVSPropertyOp25
 70
     1
102
RTVSPropertyOp26
 70
     1
102
RTVSPropertyOp27
 70
     1
  0
XRECORD
  5
249
102
{ACAD_REACTORS
330
248
102
}
330
248
100
AcDbXrecord
280
     1
102
RTVSPropertyOp0
 70
     1
102
RTVSPropertyOp1
 70
     1
102
RTVSPropertyOp2
 70
     1
102
RTVSPropertyOp3
 70
     1
102
RTVSPropertyOp4
 70
     1
102
RTVSPropertyOp5
 70
     1
102
RTVSPropertyOp6
 70
     1
102
RTVSPropertyOp7
 70
     1
102
RTVSPropertyOp8
 70
     1
102
RTVSPropertyOp9
 70
     1
102
RTVSPropertyOp10
 70
     1
102
RTVSPropertyOp11
 70
     1
102
RTVSPropertyOp12
 70
     1
102
RTVSPropertyOp13
 70
     1
102
RTVSPropertyOp14
 70
     1
102
RTVSPropertyOp15
 70
     1
102
RTVSPropertyOp16
 70
     1
102
RTVSPropertyOp17
 70
     1
102
RTVSPropertyOp18
 70
     1
102
RTVSPropertyOp19
 70
     1
102
RTVSPropertyOp20
 70
     1
102
RTVSPropertyOp21
 70
     1
102
RTVSPropertyOp22
 70
     1
102
RTVSPropertyOp23
 70
     1
102
RTVSPropertyOp24
 70
     1
102
RTVSPropertyOp25
 70
     1
102
RTVSPropertyOp26
 70
     1
102
RTVSPropertyOp27
 70
     1
  0
ENDSEC
  0
EOF
