  0
SECTION
  2
HEADER
  9
$ACADVER
  1
AC1015
  9
$ACADMAINTVER
 70
     6
  9
$DWGCODEPAGE
  3
ANSI_1252
  9
$INSBASE
 10
0.0
 20
0.0
 30
0.0
  9
$EXTMIN
 10
0.0
 20
0.0
 30
0.0
  9
$EXTMAX
 10
431.8
 20
279.4
 30
0.0
  9
$LIMMIN
 10
0.0
 20
0.0
  9
$LIMMAX
 10
431.8
 20
279.4
  9
$ORTHOMODE
 70
     0
  9
$REGENMODE
 70
     1
  9
$FILLMODE
 70
     1
  9
$QTEXTMODE
 70
     0
  9
$MIRRTEXT
 70
     1
  9
$LTSCALE
 40
1.0
  9
$ATTMODE
 70
     1
  9
$TEXTSIZE
 40
3.5
  9
$TRACEWID
 40
1.0
  9
$TEXTSTYLE
  7
Standard
  9
$CLAYER
  8
0
  9
$CELTYPE
  6
ByLayer
  9
$CECOLOR
 62
   256
  9
$CELTSCALE
 40
1.0
  9
$DISPSILH
 70
     0
  9
$DIMSCALE
 40
1.0
  9
$DIMASZ
 40
5.0
  9
$DIMEXO
 40
1.0
  9
$DIMDLI
 40
3.75
  9
$DIMRND
 40
0.0
  9
$DIMDLE
 40
0.0
  9
$DIMEXE
 40
1.0
  9
$DIMTP
 40
0.0
  9
$DIMTM
 40
0.0
  9
$DIMTXT
 40
3.0
  9
$DIMCEN
 40
2.5
  9
$DIMTSZ
 40
0.0
  9
$DIMTOL
 70
     0
  9
$DIMLIM
 70
     0
  9
$DIMTIH
 70
     1
  9
$DIMTOH
 70
     1
  9
$DIMSE1
 70
     0
  9
$DIMSE2
 70
     0
  9
$DIMTAD
 70
     1
  9
$DIMZIN
 70
     0
  9
$DIMBLK
  1

  9
$DIMASO
 70
     1
  9
$DIMSHO
 70
     1
  9
$DIMPOST
  1

  9
$DIMAPOST
  1

  9
$DIMALT
 70
     0
  9
$DIMALTD
 70
     3
  9
$DIMALTF
 40
0.0393700787
  9
$DIMLFAC
 40
1.0
  9
$DIMTOFL
 70
     1
  9
$DIMTVP
 40
0.0
  9
$DIMTIX
 70
     0
  9
$DIMSOXD
 70
     0
  9
$DIMSAH
 70
     0
  9
$DIMBLK1
  1

  9
$DIMBLK2
  1

  9
$DIMSTYLE
  2
ISO-25
  9
$DIMCLRD
 70
     0
  9
$DIMCLRE
 70
     0
  9
$DIMCLRT
 70
     0
  9
$DIMTFAC
 40
1.0
  9
$DIMGAP
 40
1.524
  9
$DIMJUST
 70
     0
  9
$DIMSD1
 70
     0
  9
$DIMSD2
 70
     0
  9
$DIMTOLJ
 70
     0
  9
$DIMTZIN
 70
     0
  9
$DIMALTZ
 70
     0
  9
$DIMALTTZ
 70
     0
  9
$DIMUPT
 70
     0
  9
$DIMDEC
 70
     2
  9
$DIMTDEC
 70
     2
  9
$DIMALTU
 70
     2
  9
$DIMALTTD
 70
     3
  9
$DIMTXSTY
  7
Standard
  9
$DIMAUNIT
 70
     0
  9
$DIMADEC
 70
     0
  9
$DIMALTRND
 40
0.0
  9
$DIMAZIN
 70
     0
  9
$DIMDSEP
 70
    44
  9
$DIMATFIT
 70
     3
  9
$DIMFRAC
 70
     0
  9
$DIMLDRBLK
  1

  9
$DIMLUNIT
 70
     2
  9
$DIMLWD
 70
    -2
  9
$DIMLWE
 70
    -2
  9
$DIMTMOVE
 70
     0
  9
$LUNITS
 70
     2
  9
$LUPREC
 70
     2
  9
$SKETCHINC
 40
1.0
  9
$FILLETRAD
 40
10.0
  9
$AUNITS
 70
     0
  9
$AUPREC
 70
     0
  9
$MENU
  1
.
  9
$ELEVATION
 40
0.0
  9
$PELEVATION
 40
0.0
  9
$THICKNESS
 40
0.0
  9
$LIMCHECK
 70
     0
  9
$CHAMFERA
 40
0.0
  9
$CHAMFERB
 40
0.0
  9
$CHAMFERC
 40
0.0
  9
$CHAMFERD
 40
0.0
  9
$SKPOLY
 70
     0
  9
$TDCREATE
 40
2459936.49821912
  9
$TDUCREATE
 40
2459936.456552454
  9
$TDUPDATE
 40
2459936.498224259
  9
$TDUUPDATE
 40
2459936.456557592
  9
$TDINDWG
 40
0.0000000116
  9
$TDUSRTIMER
 40
0.0000000116
  9
$USRTIMER
 70
     1
  9
$ANGBASE
 50
0.0
  9
$ANGDIR
 70
     0
  9
$PDMODE
 70
     0
  9
$PDSIZE
 40
-1.0
  9
$PLINEWID
 40
0.0
  9
$SPLFRAME
 70
     0
  9
$SPLINETYPE
 70
     6
  9
$SPLINESEGS
 70
     8
  9
$HANDSEED
  5
263
  9
$SURFTAB1
 70
     6
  9
$SURFTAB2
 70
     6
  9
$SURFTYPE
 70
     6
  9
$SURFU
 70
     6
  9
$SURFV
 70
     6
  9
$UCSBASE
  2

  9
$UCSNAME
  2

  9
$UCSORG
 10
0.0
 20
0.0
 30
0.0
  9
$UCSXDIR
 10
1.0
 20
0.0
 30
0.0
  9
$UCSYDIR
 10
0.0
 20
1.0
 30
0.0
  9
$UCSORTHOREF
  2

  9
$UCSORTHOVIEW
 70
     0
  9
$UCSORGTOP
 10
0.0
 20
0.0
 30
0.0
  9
$UCSORGBOTTOM
 10
0.0
 20
0.0
 30
0.0
  9
$UCSORGLEFT
 10
0.0
 20
0.0
 30
0.0
  9
$UCSORGRIGHT
 10
0.0
 20
0.0
 30
0.0
  9
$UCSORGFRONT
 10
0.0
 20
0.0
 30
0.0
  9
$UCSORGBACK
 10
0.0
 20
0.0
 30
0.0
  9
$PUCSBASE
  2

  9
$PUCSNAME
  2

  9
$PUCSORG
 10
0.0
 20
0.0
 30
0.0
  9
$PUCSXDIR
 10
1.0
 20
0.0
 30
0.0
  9
$PUCSYDIR
 10
0.0
 20
1.0
 30
0.0
  9
$PUCSORTHOREF
  2

  9
$PUCSORTHOVIEW
 70
     0
  9
$PUCSORGTOP
 10
0.0
 20
0.0
 30
0.0
  9
$PUCSORGBOTTOM
 10
0.0
 20
0.0
 30
0.0
  9
$PUCSORGLEFT
 10
0.0
 20
0.0
 30
0.0
  9
$PUCSORGRIGHT
 10
0.0
 20
0.0
 30
0.0
  9
$PUCSORGFRONT
 10
0.0
 20
0.0
 30
0.0
  9
$PUCSORGBACK
 10
0.0
 20
0.0
 30
0.0
  9
$USERI1
 70
     0
  9
$USERI2
 70
     0
  9
$USERI3
 70
     0
  9
$USERI4
 70
     0
  9
$USERI5
 70
     0
  9
$USERR1
 40
0.0
  9
$USERR2
 40
0.0
  9
$USERR3
 40
0.0
  9
$USERR4
 40
0.0
  9
$USERR5
 40
0.0
  9
$WORLDVIEW
 70
     1
  9
$SHADEDGE
 70
     3
  9
$SHADEDIF
 70
    70
  9
$TILEMODE
 70
     1
  9
$MAXACTVP
 70
    64
  9
$PINSBASE
 10
0.0
 20
0.0
 30
0.0
  9
$PLIMCHECK
 70
     0
  9
$PEXTMIN
 10
1.0000000000E+20
 20
1.0000000000E+20
 30
1.0000000000E+20
  9
$PEXTMAX
 10
-1.0000000000E+20
 20
-1.0000000000E+20
 30
-1.0000000000E+20
  9
$PLIMMIN
 10
0.0
 20
0.0
  9
$PLIMMAX
 10
420.0
 20
297.0
  9
$UNITMODE
 70
     0
  9
$VISRETAIN
 70
     1
  9
$PLINEGEN
 70
     0
  9
$PSLTSCALE
 70
     1
  9
$TREEDEPTH
 70
  3020
  9
$CMLSTYLE
  2
Standard
  9
$CMLJUST
 70
     0
  9
$CMLSCALE
 40
20.0
  9
$PROXYGRAPHICS
 70
     1
  9
$MEASUREMENT
 70
     1
  9
$CELWEIGHT
370
    -1
  9
$ENDCAPS
280
     0
  9
$JOINSTYLE
280
     0
  9
$LWDISPLAY
290
     1
  9
$INSUNITS
 70
     4
  9
$HYPERLINKBASE
  1

  9
$STYLESHEET
  1

  9
$XEDIT
290
     1
  9
$CEPSNTYPE
380
     0
  9
$PSTYLEMODE
290
     1
  9
$FINGERPRINTGUID
  2
{7da2c42f-6d9b-4767-b389-737b40fb2f79}
  9
$VERSIONGUID
  2
{FAEB1C32-E019-11D5-929B-00C0DF256EC4}
  9
$EXTNAMES
290
     1
  9
$PSVPSCALE
 40
0.0
  9
$OLESTARTUP
290
     0
  0
ENDSEC
  0
SECTION
  2
CLASSES
  0
CLASS
  1
ACDBDICTIONARYWDFLT
  2
AcDbDictionaryWithDefault
  3
ObjectDBX Classes
 90
        0
280
     0
281
     0
  0
CLASS
  1
VISUALSTYLE
  2
AcDbVisualStyle
  3
ObjectDBX Classes
 90
     4095
280
     0
281
     0
  0
CLASS
  1
MATERIAL
  2
AcDbMaterial
  3
ObjectDBX Classes
 90
     1153
280
     0
281
     0
  0
CLASS
  1
SCALE
  2
AcDbScale
  3
ObjectDBX Classes
 90
     1153
280
     0
281
     0
  0
CLASS
  1
TABLESTYLE
  2
AcDbTableStyle
  3
ObjectDBX Classes
 90
     4095
280
     0
281
     0
  0
CLASS
  1
MLEADERSTYLE
  2
AcDbMLeaderStyle
  3
ACDB_MLEADERSTYLE_CLASS
 90
     4095
280
     0
281
     0
  0
CLASS
  1
SUN
  2
AcDbSun
  3
SCENEOE
 90
     1153
280
     0
281
     0
  0
CLASS
  1
ACDBPLACEHOLDER
  2
AcDbPlaceHolder
  3
ObjectDBX Classes
 90
        0
280
     0
281
     0
  0
CLASS
  1
LAYOUT
  2
AcDbLayout
  3
ObjectDBX Classes
 90
        0
280
     0
281
     0
  0
ENDSEC
  0
SECTION
  2
TABLES
  0
TABLE
  2
VPORT
  5
8
330
0
100
AcDbSymbolTable
 70
     1
  0
VPORT
  5
29
330
8
100
AcDbSymbolTableRecord
100
AcDbViewportTableRecord
  2
*Active
 70
     0
 10
0.0
 20
0.0
 11
1.0
 21
1.0
 12
215.9
 22
139.7
 13
0.0
 23
0.0
 14
10.0
 24
10.0
 15
10.0
 25
10.0
 16
0.0
 26
0.0
 36
1.0
 17
0.0
 27
0.0
 37
0.0
 40
279.4
 41
1.5454545455
 42
50.0
 43
0.0
 44
0.0
 50
0.0
 51
0.0
 71
     0
 72
  2000
 73
     1
 74
     3
 75
     0
 76
     0
 77
     0
 78
     0
281
     0
 65
     1
110
0.0
120
0.0
130
0.0
111
1.0
121
0.0
131
0.0
112
0.0
122
1.0
132
0.0
 79
     0
146
0.0
  0
ENDTAB
  0
TABLE
  2
LTYPE
  5
5
330
0
100
AcDbSymbolTable
 70
     6
  0
LTYPE
  5
14
330
5
100
AcDbSymbolTableRecord
100
AcDbLinetypeTableRecord
  2
ByBlock
 70
     0
  3

 72
    65
 73
     0
 40
0.0
  0
LTYPE
  5
15
330
5
100
AcDbSymbolTableRecord
100
AcDbLinetypeTableRecord
  2
ByLayer
 70
     0
  3

 72
    65
 73
     0
 40
0.0
  0
LTYPE
  5
16
330
5
100
AcDbSymbolTableRecord
100
AcDbLinetypeTableRecord
  2
Continuous
 70
     0
  3
Solid line
 72
    65
 73
     0
 40
0.0
  0
LTYPE
  5
6E
330
5
100
AcDbSymbolTableRecord
100
AcDbLinetypeTableRecord
  2
HIDDEN
 70
     0
  3
Hidden __ __ __ __ __ __ __ __ __ __ __ __ __ __
 72
    65
 73
     2
 40
1.905
 49
1.27
 74
     0
 49
-0.635
 74
     0
  0
LTYPE
  5
6F
330
5
100
AcDbSymbolTableRecord
100
AcDbLinetypeTableRecord
  2
PHANTOM
 70
     0
  3
Phantom ______  __  __  ______  __  __  ______
 72
    65
 73
     6
 40
12.7
 49
6.35
 74
     0
 49
-1.27
 74
     0
 49
1.27
 74
     0
 49
-1.27
 74
     0
 49
1.27
 74
     0
 49
-1.27
 74
     0
  0
LTYPE
  5
70
330
5
100
AcDbSymbolTableRecord
100
AcDbLinetypeTableRecord
  2
CENTER
 70
     0
  3
Center ____ _ ____ _ ____ _ ____ _ ____ _ ____
 72
    65
 73
     4
 40
10.16
 49
6.35
 74
     0
 49
-1.27
 74
     0
 49
1.27
 74
     0
 49
-1.27
 74
     0
  0
LTYPE
  5
71
330
5
100
AcDbSymbolTableRecord
100
AcDbLinetypeTableRecord
  2
CENTERX2
 70
     0
  3
Center (2x) ________  __  ________  __  _____
 72
    65
 73
     4
 40
20.32
 49
12.7
 74
     0
 49
-2.54
 74
     0
 49
2.54
 74
     0
 49
-2.54
 74
     0
  0
LTYPE
  5
72
330
5
100
AcDbSymbolTableRecord
100
AcDbLinetypeTableRecord
  2
DOT2
 70
     0
  3
Dot (.5x) ........................................
 72
    65
 73
     2
 40
0.635
 49
0.0
 74
     0
 49
-0.635
 74
     0
  0
ENDTAB
  0
TABLE
  2
LAYER
  5
2
330
0
100
AcDbSymbolTable
 70
     1
  0
LAYER
  5
10
330
2
100
AcDbSymbolTableRecord
100
AcDbLayerTableRecord
  2
0
 70
     0
 62
     7
  6
Continuous
370
    -3
390
F
  0
ENDTAB
  0
TABLE
  2
STYLE
  5
3
330
0
100
AcDbSymbolTable
 70
     3
  0
STYLE
  5
11
330
3
100
AcDbSymbolTableRecord
100
AcDbTextStyleTableRecord
  2
Standard
 70
     0
 40
0.0
 41
1.0
 50
0.0
 71
     0
 42
3.5
  3
txt
  4

  0
STYLE
  5
94
330
3
100
AcDbSymbolTableRecord
100
AcDbTextStyleTableRecord
  2
SLDTEXTSTYLE0
 70
     0
 40
0.0
 41
0.605
 50
0.0
 71
     0
 42
3.5
  3
TXT
  4

  0
STYLE
  5
176
330
3
100
AcDbSymbolTableRecord
100
AcDbTextStyleTableRecord
  2
SLDTEXTSTYLE1
 70
     0
 40
0.0
 41
0.75
 50
0.0
 71
     0
 42
3.5
  3
TXT
  4

  0
ENDTAB
  0
TABLE
  2
VIEW
  5
6
330
0
100
AcDbSymbolTable
 70
     0
  0
ENDTAB
  0
TABLE
  2
UCS
  5
7
330
0
100
AcDbSymbolTable
 70
     0
  0
ENDTAB
  0
TABLE
  2
APPID
  5
9
330
0
100
AcDbSymbolTable
 70
     1
  0
APPID
  5
12
330
9
100
AcDbSymbolTableRecord
100
AcDbRegAppTableRecord
  2
ACAD
 70
     0
  0
ENDTAB
  0
TABLE
  2
DIMSTYLE
  5
A
330
0
100
AcDbSymbolTable
 70
     2
100
AcDbDimStyleTable
  0
DIMSTYLE
105
27
330
A
100
AcDbSymbolTableRecord
100
AcDbDimStyleTableRecord
  2
ISO-25
 70
     0
 41
2.5
 42
0.625
 43
3.75
 44
1.25
 73
     0
 74
     0
 77
     1
 78
     8
140
2.5
141
2.5
143
0.0393700787
147
0.625
171
     3
172
     1
178
     0
271
     2
272
     2
274
     3
278
    44
283
     0
284
     8
340
11
  0
DIMSTYLE
105
196
102
{ACAD_REACTORS
330
195
330
1AD
330
1C4
330
237
330
24D
102
}
330
A
100
AcDbSymbolTableRecord
100
AcDbDimStyleTableRecord
  2
SLDDIMSTYLE0
 70
     0
 41
5.0
 44
0.0
 45
0.000000001
 73
     0
 74
     0
 77
     1
 78
    12
 79
     3
140
3.0
143
0.0393700787
147
0.75
148
0.000000001
170
     1
173
     1
178
     0
271
     2
272
     2
276
     2
284
    12
340
176
  0
ENDTAB
  0
TABLE
  2
BLOCK_RECORD
  5
1
330
0
100
AcDbSymbolTable
 70
    31
  0
BLOCK_RECORD
  5
1F
330
1
100
AcDbSymbolTableRecord
100
AcDbBlockTableRecord
  2
*Model_Space
340
22
  0
BLOCK_RECORD
  5
1B
330
1
100
AcDbSymbolTableRecord
100
AcDbBlockTableRecord
  2
*Paper_Space
340
1E
  0
BLOCK_RECORD
  5
23
330
1
100
AcDbSymbolTableRecord
100
AcDbBlockTableRecord
  2
*Paper_Space0
340
26
  0
BLOCK_RECORD
  5
73
330
1
100
AcDbSymbolTableRecord
100
AcDbBlockTableRecord
  2
Block5
340
0
102
{BLKREFS
331
175
102
}
  0
BLOCK_RECORD
  5
8A
330
1
100
AcDbSymbolTableRecord
100
AcDbBlockTableRecord
  2
SW_BLOCK_DIMENSION_0
340
0
102
{BLKREFS
331
96
102
}
  0
BLOCK_RECORD
  5
8D
330
1
100
AcDbSymbolTableRecord
100
AcDbBlockTableRecord
  2
_Origin
340
0
102
{BLKREFS
331
92
331
102
102
}
  0
BLOCK_RECORD
  5
97
330
1
100
AcDbSymbolTableRecord
100
AcDbBlockTableRecord
  2
SW_BLOCK_DIMENSION_1
340
0
102
{BLKREFS
331
9E
102
}
  0
BLOCK_RECORD
  5
9F
330
1
100
AcDbSymbolTableRecord
100
AcDbBlockTableRecord
  2
SW_BLOCK_DIMENSION_2
340
0
102
{BLKREFS
331
A6
102
}
  0
BLOCK_RECORD
  5
A7
330
1
100
AcDbSymbolTableRecord
100
AcDbBlockTableRecord
  2
SW_BLOCK_DIMENSION_3
340
0
102
{BLKREFS
331
AE
102
}
  0
BLOCK_RECORD
  5
AF
330
1
100
AcDbSymbolTableRecord
100
AcDbBlockTableRecord
  2
SW_BLOCK_DIMENSION_4
340
0
102
{BLKREFS
331
B6
102
}
  0
BLOCK_RECORD
  5
B7
330
1
100
AcDbSymbolTableRecord
100
AcDbBlockTableRecord
  2
SW_BLOCK_DIMENSION_5
340
0
102
{BLKREFS
331
BE
102
}
  0
BLOCK_RECORD
  5
BF
330
1
100
AcDbSymbolTableRecord
100
AcDbBlockTableRecord
  2
SW_BLOCK_DIMENSION_6
340
0
102
{BLKREFS
331
C6
102
}
  0
BLOCK_RECORD
  5
C7
330
1
100
AcDbSymbolTableRecord
100
AcDbBlockTableRecord
  2
SW_BLOCK_DIMENSION_7
340
0
102
{BLKREFS
331
CE
102
}
  0
BLOCK_RECORD
  5
CF
330
1
100
AcDbSymbolTableRecord
100
AcDbBlockTableRecord
  2
SW_BLOCK_DIMENSION_8
340
0
102
{BLKREFS
331
D6
102
}
  0
BLOCK_RECORD
  5
D7
330
1
100
AcDbSymbolTableRecord
100
AcDbBlockTableRecord
  2
SW_BLOCK_DIMENSION_9
340
0
102
{BLKREFS
331
DE
102
}
  0
BLOCK_RECORD
  5
DF
330
1
100
AcDbSymbolTableRecord
100
AcDbBlockTableRecord
  2
SW_BLOCK_DIMENSION_10
340
0
102
{BLKREFS
331
E6
102
}
  0
BLOCK_RECORD
  5
E7
330
1
100
AcDbSymbolTableRecord
100
AcDbBlockTableRecord
  2
SW_BLOCK_DIMENSION_11
340
0
102
{BLKREFS
331
EE
102
}
  0
BLOCK_RECORD
  5
EF
330
1
100
AcDbSymbolTableRecord
100
AcDbBlockTableRecord
  2
SW_BLOCK_DIMENSION_12
340
0
102
{BLKREFS
331
F6
102
}
  0
BLOCK_RECORD
  5
F7
330
1
100
AcDbSymbolTableRecord
100
AcDbBlockTableRecord
  2
SW_BLOCK_DIMENSION_13
340
0
102
{BLKREFS
331
FE
102
}
  0
BLOCK_RECORD
  5
FF
330
1
100
AcDbSymbolTableRecord
100
AcDbBlockTableRecord
  2
SW_BLOCK_DIMENSION_14
340
0
102
{BLKREFS
331
10E
102
}
  0
BLOCK_RECORD
  5
10F
330
1
100
AcDbSymbolTableRecord
100
AcDbBlockTableRecord
  2
SW_BLOCK_DIMENSION_15
340
0
102
{BLKREFS
331
11F
102
}
  0
BLOCK_RECORD
  5
120
330
1
100
AcDbSymbolTableRecord
100
AcDbBlockTableRecord
  2
SW_BLOCK_DIMENSION_16
340
0
102
{BLKREFS
331
130
102
}
  0
BLOCK_RECORD
  5
131
330
1
100
AcDbSymbolTableRecord
100
AcDbBlockTableRecord
  2
SW_BLOCK_DIMENSION_17
340
0
102
{BLKREFS
331
141
102
}
  0
BLOCK_RECORD
  5
142
330
1
100
AcDbSymbolTableRecord
100
AcDbBlockTableRecord
  2
SW_BLOCK_DIMENSION_18
340
0
102
{BLKREFS
331
152
102
}
  0
BLOCK_RECORD
  5
153
330
1
100
AcDbSymbolTableRecord
100
AcDbBlockTableRecord
  2
SW_BLOCK_DIMENSION_19
340
0
102
{BLKREFS
331
163
102
}
  0
BLOCK_RECORD
  5
164
330
1
100
AcDbSymbolTableRecord
100
AcDbBlockTableRecord
  2
SW_NOTE_0
340
0
102
{BLKREFS
331
169
102
}
  0
BLOCK_RECORD
  5
16A
330
1
100
AcDbSymbolTableRecord
100
AcDbBlockTableRecord
  2
SW_NOTE_0_1
340
0
102
{BLKREFS
331
16E
102
}
  0
BLOCK_RECORD
  5
179
330
1
100
AcDbSymbolTableRecord
100
AcDbBlockTableRecord
  2
SW_NOTE_0_2
340
0
102
{BLKREFS
331
180
102
}
  0
BLOCK_RECORD
  5
197
330
1
100
AcDbSymbolTableRecord
100
AcDbBlockTableRecord
  2
_D
340
0
  0
BLOCK_RECORD
  5
1AE
330
1
100
AcDbSymbolTableRecord
100
AcDbBlockTableRecord
  2
_D_1
340
0
  0
BLOCK_RECORD
  5
1C5
330
1
100
AcDbSymbolTableRecord
100
AcDbBlockTableRecord
  2
_D_2
340
0
  0
BLOCK_RECORD
  5
238
330
1
100
AcDbSymbolTableRecord
100
AcDbBlockTableRecord
  2
_D_3
340
0
  0
BLOCK_RECORD
  5
24E
330
1
100
AcDbSymbolTableRecord
100
AcDbBlockTableRecord
  2
_D_4
340
0
  0
ENDTAB
  0
ENDSEC
  0
SECTION
  2
BLOCKS
  0
BLOCK
  5
20
330
1F
100
AcDbEntity
  8
0
100
AcDbBlockBegin
  2
*Model_Space
 70
     0
 10
0.0
 20
0.0
 30
0.0
  3
*Model_Space
  1

  0
ENDBLK
  5
21
330
1F
100
AcDbEntity
  8
0
100
AcDbBlockEnd
  0
BLOCK
  5
1C
330
1B
100
AcDbEntity
 67
     1
  8
0
100
AcDbBlockBegin
  2
*Paper_Space
 70
     0
 10
0.0
 20
0.0
 30
0.0
  3
*Paper_Space
  1

  0
ENDBLK
  5
1D
330
1B
100
AcDbEntity
 67
     1
  8
0
100
AcDbBlockEnd
  0
BLOCK
  5
24
330
23
100
AcDbEntity
  8
0
100
AcDbBlockBegin
  2
*Paper_Space0
 70
     0
 10
0.0
 20
0.0
 30
0.0
  3
*Paper_Space0
  1

  0
ENDBLK
  5
25
330
23
100
AcDbEntity
  8
0
100
AcDbBlockEnd
  0
BLOCK
  5
74
330
73
100
AcDbEntity
  8
0
100
AcDbBlockBegin
  2
Block5
 70
     0
 10
0.0
 20
0.0
 30
0.0
  3
Block5
  1

  0
LINE
  5
76
330
73
100
AcDbEntity
  8
0
100
AcDbLine
 10
363.6834285714
 20
41.3579706949
 30
0.0
 11
388.6834285714
 21
41.3579706949
 31
0.0
  0
LINE
  5
77
330
73
100
AcDbEntity
  8
0
100
AcDbLine
 10
374.9034285714
 20
41.3579706949
 30
0.0
 11
374.9034285714
 21
171.3579706949
 31
0.0
  0
LINE
  5
78
330
73
100
AcDbEntity
  8
0
100
AcDbLine
 10
374.9034285714
 20
51.3579706949
 30
0.0
 11
384.9034285714
 21
51.3579706949
 31
0.0
  0
LINE
  5
79
330
73
100
AcDbEntity
  8
0
100
AcDbLine
 10
374.9034285714
 20
61.3579706949
 30
0.0
 11
384.9034285714
 21
61.3579706949
 31
0.0
  0
LINE
  5
7A
330
73
100
AcDbEntity
  8
0
100
AcDbLine
 10
374.9034285714
 20
71.3579706949
 30
0.0
 11
384.9034285714
 21
71.3579706949
 31
0.0
  0
LINE
  5
7B
330
73
100
AcDbEntity
  8
0
100
AcDbLine
 10
374.9034285714
 20
81.3579706949
 30
0.0
 11
384.9034285714
 21
81.3579706949
 31
0.0
  0
LINE
  5
7C
330
73
100
AcDbEntity
  8
0
100
AcDbLine
 10
374.9034285714
 20
91.3579706949
 30
0.0
 11
384.9034285714
 21
91.3579706949
 31
0.0
  0
LINE
  5
7D
330
73
100
AcDbEntity
  8
0
100
AcDbLine
 10
374.9034285714
 20
101.3579706949
 30
0.0
 11
384.9034285714
 21
101.3579706949
 31
0.0
  0
LINE
  5
7E
330
73
100
AcDbEntity
  8
0
100
AcDbLine
 10
374.9034285714
 20
111.3579706949
 30
0.0
 11
384.9034285714
 21
111.3579706949
 31
0.0
  0
LINE
  5
7F
330
73
100
AcDbEntity
  8
0
100
AcDbLine
 10
374.9034285714
 20
121.3579706949
 30
0.0
 11
384.9034285714
 21
121.3579706949
 31
0.0
  0
LINE
  5
80
330
73
100
AcDbEntity
  8
0
100
AcDbLine
 10
374.9034285714
 20
131.3579706949
 30
0.0
 11
384.9034285714
 21
131.3579706949
 31
0.0
  0
LINE
  5
81
330
73
100
AcDbEntity
  8
0
100
AcDbLine
 10
374.9034285714
 20
141.3579706949
 30
0.0
 11
384.9034285714
 21
141.3579706949
 31
0.0
  0
LINE
  5
82
330
73
100
AcDbEntity
  8
0
100
AcDbLine
 10
374.9034285714
 20
151.3579706949
 30
0.0
 11
384.9034285714
 21
151.3579706949
 31
0.0
  0
LINE
  5
83
330
73
100
AcDbEntity
  8
0
100
AcDbLine
 10
374.9034285714
 20
161.3579706949
 30
0.0
 11
384.9034285714
 21
161.3579706949
 31
0.0
  0
LINE
  5
84
330
73
100
AcDbEntity
  8
0
100
AcDbLine
 10
374.9034285714
 20
171.3579706949
 30
0.0
 11
384.9034285714
 21
171.3579706949
 31
0.0
  0
LINE
  5
85
330
73
100
AcDbEntity
  8
0
100
AcDbLine
 10
374.9034285714
 20
66.7579706949
 30
0.0
 11
362.9034285714
 21
66.7579706949
 31
0.0
  0
LINE
  5
86
330
73
100
AcDbEntity
  8
0
100
AcDbLine
 10
374.9034285714
 20
92.1579706949
 30
0.0
 11
362.9034285714
 21
92.1579706949
 31
0.0
  0
LINE
  5
87
330
73
100
AcDbEntity
  8
0
100
AcDbLine
 10
374.9034285714
 20
117.5579706949
 30
0.0
 11
362.9034285714
 21
117.5579706949
 31
0.0
  0
LINE
  5
88
330
73
100
AcDbEntity
  8
0
100
AcDbLine
 10
374.9034285714
 20
142.9579706949
 30
0.0
 11
362.9034285714
 21
142.9579706949
 31
0.0
  0
LINE
  5
89
330
73
100
AcDbEntity
  8
0
100
AcDbLine
 10
374.9034285714
 20
168.3579706949
 30
0.0
 11
362.9034285714
 21
168.3579706949
 31
0.0
  0
INSERT
  5
96
330
73
100
AcDbEntity
  8
0
100
AcDbBlockReference
  2
SW_BLOCK_DIMENSION_0
 10
397.2096946378
 20
38.9914197296
 30
0.0
  0
INSERT
  5
9E
330
73
100
AcDbEntity
  8
0
100
AcDbBlockReference
  2
SW_BLOCK_DIMENSION_1
 10
397.2096946378
 20
48.9914197296
 30
0.0
  0
INSERT
  5
A6
330
73
100
AcDbEntity
  8
0
100
AcDbBlockReference
  2
SW_BLOCK_DIMENSION_2
 10
397.2096946378
 20
58.9914197296
 30
0.0
  0
INSERT
  5
AE
330
73
100
AcDbEntity
  8
0
100
AcDbBlockReference
  2
SW_BLOCK_DIMENSION_3
 10
397.2096946378
 20
68.9914197296
 30
0.0
  0
INSERT
  5
B6
330
73
100
AcDbEntity
  8
0
100
AcDbBlockReference
  2
SW_BLOCK_DIMENSION_4
 10
397.2096946378
 20
78.9914197296
 30
0.0
  0
INSERT
  5
BE
330
73
100
AcDbEntity
  8
0
100
AcDbBlockReference
  2
SW_BLOCK_DIMENSION_5
 10
397.2096946378
 20
88.9914197296
 30
0.0
  0
INSERT
  5
C6
330
73
100
AcDbEntity
  8
0
100
AcDbBlockReference
  2
SW_BLOCK_DIMENSION_6
 10
397.2096946378
 20
98.9914197296
 30
0.0
  0
INSERT
  5
CE
330
73
100
AcDbEntity
  8
0
100
AcDbBlockReference
  2
SW_BLOCK_DIMENSION_7
 10
397.2096946378
 20
108.9914197296
 30
0.0
  0
INSERT
  5
D6
330
73
100
AcDbEntity
  8
0
100
AcDbBlockReference
  2
SW_BLOCK_DIMENSION_8
 10
397.2096946378
 20
118.9914197296
 30
0.0
  0
INSERT
  5
DE
330
73
100
AcDbEntity
  8
0
100
AcDbBlockReference
  2
SW_BLOCK_DIMENSION_9
 10
397.2096946378
 20
128.9914197296
 30
0.0
  0
INSERT
  5
E6
330
73
100
AcDbEntity
  8
0
100
AcDbBlockReference
  2
SW_BLOCK_DIMENSION_10
 10
397.2096946378
 20
138.9914197296
 30
0.0
  0
INSERT
  5
EE
330
73
100
AcDbEntity
  8
0
100
AcDbBlockReference
  2
SW_BLOCK_DIMENSION_11
 10
397.2096946378
 20
148.9914197296
 30
0.0
  0
INSERT
  5
F6
330
73
100
AcDbEntity
  8
0
100
AcDbBlockReference
  2
SW_BLOCK_DIMENSION_12
 10
397.2096946378
 20
158.9914197296
 30
0.0
  0
INSERT
  5
FE
330
73
100
AcDbEntity
  8
0
100
AcDbBlockReference
  2
SW_BLOCK_DIMENSION_13
 10
397.2096946378
 20
168.9914197296
 30
0.0
  0
INSERT
  5
10E
330
73
100
AcDbEntity
  8
0
100
AcDbBlockReference
  2
SW_BLOCK_DIMENSION_14
 10
341.1734707322
 20
36.1691980072
 30
0.0
  0
INSERT
  5
11F
330
73
100
AcDbEntity
  8
0
100
AcDbBlockReference
  2
SW_BLOCK_DIMENSION_15
 10
339.1802765097
 20
61.5691980072
 30
0.0
  0
INSERT
  5
130
330
73
100
AcDbEntity
  8
0
100
AcDbBlockReference
  2
SW_BLOCK_DIMENSION_16
 10
339.1802765097
 20
86.9691980072
 30
0.0
  0
INSERT
  5
141
330
73
100
AcDbEntity
  8
0
100
AcDbBlockReference
  2
SW_BLOCK_DIMENSION_17
 10
339.1802765097
 20
112.3691980072
 30
0.0
  0
INSERT
  5
152
330
73
100
AcDbEntity
  8
0
100
AcDbBlockReference
  2
SW_BLOCK_DIMENSION_18
 10
336.8284243759
 20
137.7691980072
 30
0.0
  0
INSERT
  5
163
330
73
100
AcDbEntity
  8
0
100
AcDbBlockReference
  2
SW_BLOCK_DIMENSION_19
 10
341.1734707322
 20
163.1691980072
 30
0.0
  0
INSERT
  5
169
330
73
100
AcDbEntity
  8
0
 62
     7
100
AcDbBlockReference
  2
SW_NOTE_0
 10
337.5586028241
 20
28.8175207347
 30
0.0
  0
INSERT
  5
16E
330
73
100
AcDbEntity
  8
0
 62
     7
100
AcDbBlockReference
  2
SW_NOTE_0_1
 10
393.160738319
 20
28.8175207347
 30
0.0
  0
ENDBLK
  5
75
330
73
100
AcDbEntity
  8
0
100
AcDbBlockEnd
  0
BLOCK
  5
8B
330
8A
100
AcDbEntity
  8
0
100
AcDbBlockBegin
  2
SW_BLOCK_DIMENSION_0
 70
     0
 10
0.0
 20
0.0
 30
0.0
  3
SW_BLOCK_DIMENSION_0
  1

  0
INSERT
  5
92
330
8A
100
AcDbEntity
  8
0
 62
     0
100
AcDbBlockReference
  2
_Origin
 10
-1.8
 20
2.3665509652
 30
0.0
 41
1.8
 42
1.8
 50
0.0
  0
LINE
  5
93
330
8A
100
AcDbEntity
  8
0
 62
     0
100
AcDbLine
 10
-7.5262660664
 20
2.3665509652
 30
0.0
 11
0.0
 21
2.3665509652
 31
0.0
  0
MTEXT
  5
95
330
8A
100
AcDbEntity
  8
0
 62
     0
100
AcDbMText
 10
0.0
 20
4.0927900738
 30
0.0
 40
3.175
 41
0.0
 71
     1
 72
     1
  1
0
  7
SLDTEXTSTYLE0
 73
     1
 44
1.0
  0
ENDBLK
  5
8C
330
8A
100
AcDbEntity
  8
0
100
AcDbBlockEnd
  0
BLOCK
  5
8E
330
8D
100
AcDbEntity
  8
0
100
AcDbBlockBegin
  2
_Origin
 70
     0
 10
0.0
 20
0.0
 30
0.0
  3
_Origin
  1

  0
CIRCLE
  5
90
330
8D
100
AcDbEntity
  8
0
  6
ByBlock
 62
     0
370
    -2
100
AcDbCircle
 10
0.0
 20
0.0
 30
0.0
 40
0.5
  0
LINE
  5
91
330
8D
100
AcDbEntity
  8
0
  6
ByBlock
 62
     0
370
    -2
100
AcDbLine
 10
0.0
 20
0.0
 30
0.0
 11
-1.0
 21
0.0
 31
0.0
  0
ENDBLK
  5
8F
330
8D
100
AcDbEntity
  8
0
100
AcDbBlockEnd
  0
BLOCK
  5
98
330
97
100
AcDbEntity
  8
0
100
AcDbBlockBegin
  2
SW_BLOCK_DIMENSION_1
 70
     0
 10
0.0
 20
0.0
 30
0.0
  3
SW_BLOCK_DIMENSION_1
  1

  0
SOLID
  5
9A
330
97
100
AcDbEntity
  8
0
 62
     0
100
AcDbTrace
 10
-1.8
 20
2.3665509652
 30
0.0
 11
-2.7
 21
-2.6334490348
 31
0.0
 12
-0.9
 22
-2.6334490348
 32
0.0
 13
-0.9
 23
-2.6334490348
 33
0.0
  0
LINE
  5
9B
330
97
100
AcDbEntity
  8
0
 62
     0
100
AcDbLine
 10
-11.3062660664
 20
2.3665509652
 30
0.0
 11
0.0
 21
2.3665509652
 31
0.0
  0
LINE
  5
9C
330
97
100
AcDbEntity
  8
0
 62
     0
100
AcDbLine
 10
-1.8
 20
-7.6334490348
 30
0.0
 11
-1.8
 21
2.3665509652
 31
0.0
  0
MTEXT
  5
9D
330
97
100
AcDbEntity
  8
0
 62
     0
100
AcDbMText
 10
0.0
 20
4.0927900738
 30
0.0
 40
3.175
 41
0.0
 71
     1
 72
     1
  1
10
  7
SLDTEXTSTYLE0
 73
     1
 44
1.0
  0
ENDBLK
  5
99
330
97
100
AcDbEntity
  8
0
100
AcDbBlockEnd
  0
BLOCK
  5
A0
330
9F
100
AcDbEntity
  8
0
100
AcDbBlockBegin
  2
SW_BLOCK_DIMENSION_2
 70
     0
 10
0.0
 20
0.0
 30
0.0
  3
SW_BLOCK_DIMENSION_2
  1

  0
SOLID
  5
A2
330
9F
100
AcDbEntity
  8
0
 62
     0
100
AcDbTrace
 10
-1.8
 20
2.3665509652
 30
0.0
 11
-2.7
 21
-2.6334490348
 31
0.0
 12
-0.9
 22
-2.6334490348
 32
0.0
 13
-0.9
 23
-2.6334490348
 33
0.0
  0
LINE
  5
A3
330
9F
100
AcDbEntity
  8
0
 62
     0
100
AcDbLine
 10
-11.3062660664
 20
2.3665509652
 30
0.0
 11
0.0
 21
2.3665509652
 31
0.0
  0
LINE
  5
A4
330
9F
100
AcDbEntity
  8
0
 62
     0
100
AcDbLine
 10
-1.8
 20
-7.6334490348
 30
0.0
 11
-1.8
 21
2.3665509652
 31
0.0
  0
MTEXT
  5
A5
330
9F
100
AcDbEntity
  8
0
 62
     0
100
AcDbMText
 10
0.0
 20
4.0927900738
 30
0.0
 40
3.175
 41
0.0
 71
     1
 72
     1
  1
20
  7
SLDTEXTSTYLE0
 73
     1
 44
1.0
  0
ENDBLK
  5
A1
330
9F
100
AcDbEntity
  8
0
100
AcDbBlockEnd
  0
BLOCK
  5
A8
330
A7
100
AcDbEntity
  8
0
100
AcDbBlockBegin
  2
SW_BLOCK_DIMENSION_3
 70
     0
 10
0.0
 20
0.0
 30
0.0
  3
SW_BLOCK_DIMENSION_3
  1

  0
SOLID
  5
AA
330
A7
100
AcDbEntity
  8
0
 62
     0
100
AcDbTrace
 10
-1.8
 20
2.3665509652
 30
0.0
 11
-2.7
 21
-2.6334490348
 31
0.0
 12
-0.9
 22
-2.6334490348
 32
0.0
 13
-0.9
 23
-2.6334490348
 33
0.0
  0
LINE
  5
AB
330
A7
100
AcDbEntity
  8
0
 62
     0
100
AcDbLine
 10
-11.3062660664
 20
2.3665509652
 30
0.0
 11
0.0
 21
2.3665509652
 31
0.0
  0
LINE
  5
AC
330
A7
100
AcDbEntity
  8
0
 62
     0
100
AcDbLine
 10
-1.8
 20
-7.6334490348
 30
0.0
 11
-1.8
 21
2.3665509652
 31
0.0
  0
MTEXT
  5
AD
330
A7
100
AcDbEntity
  8
0
 62
     0
100
AcDbMText
 10
0.0
 20
4.0927900738
 30
0.0
 40
3.175
 41
0.0
 71
     1
 72
     1
  1
30
  7
SLDTEXTSTYLE0
 73
     1
 44
1.0
  0
ENDBLK
  5
A9
330
A7
100
AcDbEntity
  8
0
100
AcDbBlockEnd
  0
BLOCK
  5
B0
330
AF
100
AcDbEntity
  8
0
100
AcDbBlockBegin
  2
SW_BLOCK_DIMENSION_4
 70
     0
 10
0.0
 20
0.0
 30
0.0
  3
SW_BLOCK_DIMENSION_4
  1

  0
SOLID
  5
B2
330
AF
100
AcDbEntity
  8
0
 62
     0
100
AcDbTrace
 10
-1.8
 20
2.3665509652
 30
0.0
 11
-2.7
 21
-2.6334490348
 31
0.0
 12
-0.9
 22
-2.6334490348
 32
0.0
 13
-0.9
 23
-2.6334490348
 33
0.0
  0
LINE
  5
B3
330
AF
100
AcDbEntity
  8
0
 62
     0
100
AcDbLine
 10
-11.3062660664
 20
2.3665509652
 30
0.0
 11
0.0
 21
2.3665509652
 31
0.0
  0
LINE
  5
B4
330
AF
100
AcDbEntity
  8
0
 62
     0
100
AcDbLine
 10
-1.8
 20
-7.6334490348
 30
0.0
 11
-1.8
 21
2.3665509652
 31
0.0
  0
MTEXT
  5
B5
330
AF
100
AcDbEntity
  8
0
 62
     0
100
AcDbMText
 10
0.0
 20
4.0927900738
 30
0.0
 40
3.175
 41
0.0
 71
     1
 72
     1
  1
40
  7
SLDTEXTSTYLE0
 73
     1
 44
1.0
  0
ENDBLK
  5
B1
330
AF
100
AcDbEntity
  8
0
100
AcDbBlockEnd
  0
BLOCK
  5
B8
330
B7
100
AcDbEntity
  8
0
100
AcDbBlockBegin
  2
SW_BLOCK_DIMENSION_5
 70
     0
 10
0.0
 20
0.0
 30
0.0
  3
SW_BLOCK_DIMENSION_5
  1

  0
SOLID
  5
BA
330
B7
100
AcDbEntity
  8
0
 62
     0
100
AcDbTrace
 10
-1.8
 20
2.3665509652
 30
0.0
 11
-2.7
 21
-2.6334490348
 31
0.0
 12
-0.9
 22
-2.6334490348
 32
0.0
 13
-0.9
 23
-2.6334490348
 33
0.0
  0
LINE
  5
BB
330
B7
100
AcDbEntity
  8
0
 62
     0
100
AcDbLine
 10
-11.3062660664
 20
2.3665509652
 30
0.0
 11
0.0
 21
2.3665509652
 31
0.0
  0
LINE
  5
BC
330
B7
100
AcDbEntity
  8
0
 62
     0
100
AcDbLine
 10
-1.8
 20
-7.6334490348
 30
0.0
 11
-1.8
 21
2.3665509652
 31
0.0
  0
MTEXT
  5
BD
330
B7
100
AcDbEntity
  8
0
 62
     0
100
AcDbMText
 10
0.0
 20
4.0927900738
 30
0.0
 40
3.175
 41
0.0
 71
     1
 72
     1
  1
50
  7
SLDTEXTSTYLE0
 73
     1
 44
1.0
  0
ENDBLK
  5
B9
330
B7
100
AcDbEntity
  8
0
100
AcDbBlockEnd
  0
BLOCK
  5
C0
330
BF
100
AcDbEntity
  8
0
100
AcDbBlockBegin
  2
SW_BLOCK_DIMENSION_6
 70
     0
 10
0.0
 20
0.0
 30
0.0
  3
SW_BLOCK_DIMENSION_6
  1

  0
SOLID
  5
C2
330
BF
100
AcDbEntity
  8
0
 62
     0
100
AcDbTrace
 10
-1.8
 20
2.3665509652
 30
0.0
 11
-2.7
 21
-2.6334490348
 31
0.0
 12
-0.9
 22
-2.6334490348
 32
0.0
 13
-0.9
 23
-2.6334490348
 33
0.0
  0
LINE
  5
C3
330
BF
100
AcDbEntity
  8
0
 62
     0
100
AcDbLine
 10
-11.3062660664
 20
2.3665509652
 30
0.0
 11
0.0
 21
2.3665509652
 31
0.0
  0
LINE
  5
C4
330
BF
100
AcDbEntity
  8
0
 62
     0
100
AcDbLine
 10
-1.8
 20
-7.6334490348
 30
0.0
 11
-1.8
 21
2.3665509652
 31
0.0
  0
MTEXT
  5
C5
330
BF
100
AcDbEntity
  8
0
 62
     0
100
AcDbMText
 10
0.0
 20
4.0927900738
 30
0.0
 40
3.175
 41
0.0
 71
     1
 72
     1
  1
60
  7
SLDTEXTSTYLE0
 73
     1
 44
1.0
  0
ENDBLK
  5
C1
330
BF
100
AcDbEntity
  8
0
100
AcDbBlockEnd
  0
BLOCK
  5
C8
330
C7
100
AcDbEntity
  8
0
100
AcDbBlockBegin
  2
SW_BLOCK_DIMENSION_7
 70
     0
 10
0.0
 20
0.0
 30
0.0
  3
SW_BLOCK_DIMENSION_7
  1

  0
SOLID
  5
CA
330
C7
100
AcDbEntity
  8
0
 62
     0
100
AcDbTrace
 10
-1.8
 20
2.3665509652
 30
0.0
 11
-2.7
 21
-2.6334490348
 31
0.0
 12
-0.9
 22
-2.6334490348
 32
0.0
 13
-0.9
 23
-2.6334490348
 33
0.0
  0
LINE
  5
CB
330
C7
100
AcDbEntity
  8
0
 62
     0
100
AcDbLine
 10
-11.3062660664
 20
2.3665509652
 30
0.0
 11
0.0
 21
2.3665509652
 31
0.0
  0
LINE
  5
CC
330
C7
100
AcDbEntity
  8
0
 62
     0
100
AcDbLine
 10
-1.8
 20
-7.6334490348
 30
0.0
 11
-1.8
 21
2.3665509652
 31
0.0
  0
MTEXT
  5
CD
330
C7
100
AcDbEntity
  8
0
 62
     0
100
AcDbMText
 10
0.0
 20
4.0927900738
 30
0.0
 40
3.175
 41
0.0
 71
     1
 72
     1
  1
70
  7
SLDTEXTSTYLE0
 73
     1
 44
1.0
  0
ENDBLK
  5
C9
330
C7
100
AcDbEntity
  8
0
100
AcDbBlockEnd
  0
BLOCK
  5
D0
330
CF
100
AcDbEntity
  8
0
100
AcDbBlockBegin
  2
SW_BLOCK_DIMENSION_8
 70
     0
 10
0.0
 20
0.0
 30
0.0
  3
SW_BLOCK_DIMENSION_8
  1

  0
SOLID
  5
D2
330
CF
100
AcDbEntity
  8
0
 62
     0
100
AcDbTrace
 10
-1.8
 20
2.3665509652
 30
0.0
 11
-2.7
 21
-2.6334490348
 31
0.0
 12
-0.9
 22
-2.6334490348
 32
0.0
 13
-0.9
 23
-2.6334490348
 33
0.0
  0
LINE
  5
D3
330
CF
100
AcDbEntity
  8
0
 62
     0
100
AcDbLine
 10
-11.3062660664
 20
2.3665509652
 30
0.0
 11
0.0
 21
2.3665509652
 31
0.0
  0
LINE
  5
D4
330
CF
100
AcDbEntity
  8
0
 62
     0
100
AcDbLine
 10
-1.8
 20
-7.6334490348
 30
0.0
 11
-1.8
 21
2.3665509652
 31
0.0
  0
MTEXT
  5
D5
330
CF
100
AcDbEntity
  8
0
 62
     0
100
AcDbMText
 10
0.0
 20
4.0927900738
 30
0.0
 40
3.175
 41
0.0
 71
     1
 72
     1
  1
80
  7
SLDTEXTSTYLE0
 73
     1
 44
1.0
  0
ENDBLK
  5
D1
330
CF
100
AcDbEntity
  8
0
100
AcDbBlockEnd
  0
BLOCK
  5
D8
330
D7
100
AcDbEntity
  8
0
100
AcDbBlockBegin
  2
SW_BLOCK_DIMENSION_9
 70
     0
 10
0.0
 20
0.0
 30
0.0
  3
SW_BLOCK_DIMENSION_9
  1

  0
SOLID
  5
DA
330
D7
100
AcDbEntity
  8
0
 62
     0
100
AcDbTrace
 10
-1.8
 20
2.3665509652
 30
0.0
 11
-2.7
 21
-2.6334490348
 31
0.0
 12
-0.9
 22
-2.6334490348
 32
0.0
 13
-0.9
 23
-2.6334490348
 33
0.0
  0
LINE
  5
DB
330
D7
100
AcDbEntity
  8
0
 62
     0
100
AcDbLine
 10
-11.3062660664
 20
2.3665509652
 30
0.0
 11
0.0
 21
2.3665509652
 31
0.0
  0
LINE
  5
DC
330
D7
100
AcDbEntity
  8
0
 62
     0
100
AcDbLine
 10
-1.8
 20
-7.6334490348
 30
0.0
 11
-1.8
 21
2.3665509652
 31
0.0
  0
MTEXT
  5
DD
330
D7
100
AcDbEntity
  8
0
 62
     0
100
AcDbMText
 10
0.0
 20
4.0927900738
 30
0.0
 40
3.175
 41
0.0
 71
     1
 72
     1
  1
90
  7
SLDTEXTSTYLE0
 73
     1
 44
1.0
  0
ENDBLK
  5
D9
330
D7
100
AcDbEntity
  8
0
100
AcDbBlockEnd
  0
BLOCK
  5
E0
330
DF
100
AcDbEntity
  8
0
100
AcDbBlockBegin
  2
SW_BLOCK_DIMENSION_10
 70
     0
 10
0.0
 20
0.0
 30
0.0
  3
SW_BLOCK_DIMENSION_10
  1

  0
SOLID
  5
E2
330
DF
100
AcDbEntity
  8
0
 62
     0
100
AcDbTrace
 10
-1.8
 20
2.3665509652
 30
0.0
 11
-2.7
 21
-2.6334490348
 31
0.0
 12
-0.9
 22
-2.6334490348
 32
0.0
 13
-0.9
 23
-2.6334490348
 33
0.0
  0
LINE
  5
E3
330
DF
100
AcDbEntity
  8
0
 62
     0
100
AcDbLine
 10
-11.3062660664
 20
2.3665509652
 30
0.0
 11
0.0
 21
2.3665509652
 31
0.0
  0
LINE
  5
E4
330
DF
100
AcDbEntity
  8
0
 62
     0
100
AcDbLine
 10
-1.8
 20
-7.6334490348
 30
0.0
 11
-1.8
 21
2.3665509652
 31
0.0
  0
MTEXT
  5
E5
330
DF
100
AcDbEntity
  8
0
 62
     0
100
AcDbMText
 10
0.0
 20
4.0927900738
 30
0.0
 40
3.175
 41
0.0
 71
     1
 72
     1
  1
100
  7
SLDTEXTSTYLE0
 73
     1
 44
1.0
  0
ENDBLK
  5
E1
330
DF
100
AcDbEntity
  8
0
100
AcDbBlockEnd
  0
BLOCK
  5
E8
330
E7
100
AcDbEntity
  8
0
100
AcDbBlockBegin
  2
SW_BLOCK_DIMENSION_11
 70
     0
 10
0.0
 20
0.0
 30
0.0
  3
SW_BLOCK_DIMENSION_11
  1

  0
SOLID
  5
EA
330
E7
100
AcDbEntity
  8
0
 62
     0
100
AcDbTrace
 10
-1.8
 20
2.3665509652
 30
0.0
 11
-2.7
 21
-2.6334490348
 31
0.0
 12
-0.9
 22
-2.6334490348
 32
0.0
 13
-0.9
 23
-2.6334490348
 33
0.0
  0
LINE
  5
EB
330
E7
100
AcDbEntity
  8
0
 62
     0
100
AcDbLine
 10
-11.3062660664
 20
2.3665509652
 30
0.0
 11
0.0
 21
2.3665509652
 31
0.0
  0
LINE
  5
EC
330
E7
100
AcDbEntity
  8
0
 62
     0
100
AcDbLine
 10
-1.8
 20
-7.6334490348
 30
0.0
 11
-1.8
 21
2.3665509652
 31
0.0
  0
MTEXT
  5
ED
330
E7
100
AcDbEntity
  8
0
 62
     0
100
AcDbMText
 10
0.0
 20
4.0927900738
 30
0.0
 40
3.175
 41
0.0
 71
     1
 72
     1
  1
110
  7
SLDTEXTSTYLE0
 73
     1
 44
1.0
  0
ENDBLK
  5
E9
330
E7
100
AcDbEntity
  8
0
100
AcDbBlockEnd
  0
BLOCK
  5
F0
330
EF
100
AcDbEntity
  8
0
100
AcDbBlockBegin
  2
SW_BLOCK_DIMENSION_12
 70
     0
 10
0.0
 20
0.0
 30
0.0
  3
SW_BLOCK_DIMENSION_12
  1

  0
SOLID
  5
F2
330
EF
100
AcDbEntity
  8
0
 62
     0
100
AcDbTrace
 10
-1.8
 20
2.3665509652
 30
0.0
 11
-2.7
 21
-2.6334490348
 31
0.0
 12
-0.9
 22
-2.6334490348
 32
0.0
 13
-0.9
 23
-2.6334490348
 33
0.0
  0
LINE
  5
F3
330
EF
100
AcDbEntity
  8
0
 62
     0
100
AcDbLine
 10
-11.3062660664
 20
2.3665509652
 30
0.0
 11
0.0
 21
2.3665509652
 31
0.0
  0
LINE
  5
F4
330
EF
100
AcDbEntity
  8
0
 62
     0
100
AcDbLine
 10
-1.8
 20
-7.6334490348
 30
0.0
 11
-1.8
 21
2.3665509652
 31
0.0
  0
MTEXT
  5
F5
330
EF
100
AcDbEntity
  8
0
 62
     0
100
AcDbMText
 10
0.0
 20
4.0927900738
 30
0.0
 40
3.175
 41
0.0
 71
     1
 72
     1
  1
120
  7
SLDTEXTSTYLE0
 73
     1
 44
1.0
  0
ENDBLK
  5
F1
330
EF
100
AcDbEntity
  8
0
100
AcDbBlockEnd
  0
BLOCK
  5
F8
330
F7
100
AcDbEntity
  8
0
100
AcDbBlockBegin
  2
SW_BLOCK_DIMENSION_13
 70
     0
 10
0.0
 20
0.0
 30
0.0
  3
SW_BLOCK_DIMENSION_13
  1

  0
SOLID
  5
FA
330
F7
100
AcDbEntity
  8
0
 62
     0
100
AcDbTrace
 10
-1.8
 20
2.3665509652
 30
0.0
 11
-2.7
 21
-2.6334490348
 31
0.0
 12
-0.9
 22
-2.6334490348
 32
0.0
 13
-0.9
 23
-2.6334490348
 33
0.0
  0
LINE
  5
FB
330
F7
100
AcDbEntity
  8
0
 62
     0
100
AcDbLine
 10
-11.3062660664
 20
2.3665509652
 30
0.0
 11
0.0
 21
2.3665509652
 31
0.0
  0
LINE
  5
FC
330
F7
100
AcDbEntity
  8
0
 62
     0
100
AcDbLine
 10
-1.8
 20
-7.6334490348
 30
0.0
 11
-1.8
 21
2.3665509652
 31
0.0
  0
MTEXT
  5
FD
330
F7
100
AcDbEntity
  8
0
 62
     0
100
AcDbMText
 10
0.0
 20
4.0927900738
 30
0.0
 40
3.175
 41
0.0
 71
     1
 72
     1
  1
130
  7
SLDTEXTSTYLE0
 73
     1
 44
1.0
  0
ENDBLK
  5
F9
330
F7
100
AcDbEntity
  8
0
100
AcDbBlockEnd
  0
BLOCK
  5
100
330
FF
100
AcDbEntity
  8
0
100
AcDbBlockBegin
  2
SW_BLOCK_DIMENSION_14
 70
     0
 10
0.0
 20
0.0
 30
0.0
  3
SW_BLOCK_DIMENSION_14
  1

  0
INSERT
  5
102
330
FF
100
AcDbEntity
  8
0
 62
     0
100
AcDbBlockReference
  2
_Origin
 10
12.7419915825
 20
5.1887726877
 30
0.0
 41
1.8
 42
1.8
 50
0.0
  0
LINE
  5
103
330
FF
100
AcDbEntity
  8
0
 62
     0
100
AcDbLine
 10
3.2925925916
 20
9.671990294
 30
0.0
 11
2.2342592711
 21
9.671990294
 31
0.0
  0
LINE
  5
104
330
FF
100
AcDbEntity
  8
0
 62
     0
100
AcDbLine
 10
2.2342592711
 20
9.671990294
 30
0.0
 11
2.2342592711
 21
4.9388883635
 31
0.0
  0
LINE
  5
105
330
FF
100
AcDbEntity
  8
0
 62
     0
100
AcDbLine
 10
2.2342592711
 20
4.9388883635
 30
0.0
 11
3.2925925916
 21
4.9388883635
 31
0.0
  0
LINE
  5
106
330
FF
100
AcDbEntity
  8
0
 62
     0
100
AcDbLine
 10
7.6493982924
 20
9.671990294
 30
0.0
 11
8.707731613
 21
9.671990294
 31
0.0
  0
LINE
  5
107
330
FF
100
AcDbEntity
  8
0
 62
     0
100
AcDbLine
 10
8.707731613
 20
9.671990294
 30
0.0
 11
8.707731613
 21
4.9388883635
 31
0.0
  0
LINE
  5
108
330
FF
100
AcDbEntity
  8
0
 62
     0
100
AcDbLine
 10
8.707731613
 20
4.9388883635
 30
0.0
 11
7.6493982924
 21
4.9388883635
 31
0.0
  0
LINE
  5
109
330
FF
100
AcDbEntity
  8
0
 62
     0
100
AcDbLine
 10
21.5099578393
 20
5.1887726877
 30
0.0
 11
10.9419915825
 21
5.1887726877
 31
0.0
  0
MTEXT
  5
10A
330
FF
100
AcDbEntity
  8
0
 62
     0
100
AcDbMText
 10
1.190625
 20
4.0927900738
 30
0.0
 40
3.175
 41
0.0
 71
     1
 72
     1
  1

  7
SLDTEXTSTYLE0
 73
     1
 44
1.0
  0
MTEXT
  5
10B
330
FF
100
AcDbEntity
  8
0
 62
     0
100
AcDbMText
 10
3.2925925916
 20
9.0316784373
 30
0.0
 40
3.175
 41
0.0
 71
     1
 72
     1
  1
0"
  7
SLDTEXTSTYLE0
 73
     1
 44
1.0
  0
MTEXT
  5
10C
330
FF
100
AcDbEntity
  8
0
 62
     0
100
AcDbMText
 10
4.2950697243
 20
4.0927898409
 30
0.0
 40
3.175
 41
0.0
 71
     1
 72
     1
  1
0
  7
SLDTEXTSTYLE0
 73
     1
 44
1.0
  0
MTEXT
  5
10D
330
FF
100
AcDbEntity
  8
0
 62
     0
100
AcDbMText
 10
10.9566905156
 20
4.0927900738
 30
0.0
 40
3.175
 41
0.0
 71
     1
 72
     1
  1

  7
SLDTEXTSTYLE0
 73
     1
 44
1.0
  0
ENDBLK
  5
101
330
FF
100
AcDbEntity
  8
0
100
AcDbBlockEnd
  0
BLOCK
  5
110
330
10F
100
AcDbEntity
  8
0
100
AcDbBlockBegin
  2
SW_BLOCK_DIMENSION_15
 70
     0
 10
0.0
 20
0.0
 30
0.0
  3
SW_BLOCK_DIMENSION_15
  1

  0
SOLID
  5
112
330
10F
100
AcDbEntity
  8
0
 62
     0
100
AcDbTrace
 10
14.735185805
 20
5.1887726877
 30
0.0
 11
13.835185805
 21
0.1887726877
 31
0.0
 12
15.635185805
 22
0.1887726877
 32
0.0
 13
15.635185805
 23
0.1887726877
 33
0.0
  0
LINE
  5
113
330
10F
100
AcDbEntity
  8
0
 62
     0
100
AcDbLine
 10
4.2891897028
 20
9.671990294
 30
0.0
 11
3.2308563823
 21
9.671990294
 31
0.0
  0
LINE
  5
114
330
10F
100
AcDbEntity
  8
0
 62
     0
100
AcDbLine
 10
3.2308563823
 20
9.671990294
 30
0.0
 11
3.2308563823
 21
4.9388883635
 31
0.0
  0
LINE
  5
115
330
10F
100
AcDbEntity
  8
0
 62
     0
100
AcDbLine
 10
3.2308563823
 20
4.9388883635
 30
0.0
 11
4.2891897028
 21
4.9388883635
 31
0.0
  0
LINE
  5
116
330
10F
100
AcDbEntity
  8
0
 62
     0
100
AcDbLine
 10
8.6459954036
 20
9.671990294
 30
0.0
 11
9.7043287242
 21
9.671990294
 31
0.0
  0
LINE
  5
117
330
10F
100
AcDbEntity
  8
0
 62
     0
100
AcDbLine
 10
9.7043287242
 20
9.671990294
 30
0.0
 11
9.7043287242
 21
4.9388883635
 31
0.0
  0
LINE
  5
118
330
10F
100
AcDbEntity
  8
0
 62
     0
100
AcDbLine
 10
9.7043287242
 20
4.9388883635
 30
0.0
 11
8.6459954036
 21
4.9388883635
 31
0.0
  0
LINE
  5
119
330
10F
100
AcDbEntity
  8
0
 62
     0
100
AcDbLine
 10
22.7231520617
 20
5.1887726877
 30
0.0
 11
12.935185805
 21
5.1887726877
 31
0.0
  0
LINE
  5
11A
330
10F
100
AcDbEntity
  8
0
 62
     0
100
AcDbLine
 10
14.735185805
 20
-20.2112273123
 30
0.0
 11
14.735185805
 21
5.1887726877
 31
0.0
  0
MTEXT
  5
11B
330
10F
100
AcDbEntity
  8
0
 62
     0
100
AcDbMText
 10
1.190625
 20
4.0927900738
 30
0.0
 40
3.175
 41
0.0
 71
     1
 72
     1
  1

  7
SLDTEXTSTYLE0
 73
     1
 44
1.0
  0
MTEXT
  5
11C
330
10F
100
AcDbEntity
  8
0
 62
     0
100
AcDbMText
 10
4.2891897028
 20
9.0316784373
 30
0.0
 40
3.175
 41
0.0
 71
     1
 72
     1
  1
1"
  7
SLDTEXTSTYLE0
 73
     1
 44
1.0
  0
MTEXT
  5
11D
330
10F
100
AcDbEntity
  8
0
 62
     0
100
AcDbMText
 10
1.1759259505
 20
4.0927898409
 30
0.0
 40
3.175
 41
0.0
 71
     1
 72
     1
  1
25,40
  7
SLDTEXTSTYLE0
 73
     1
 44
1.0
  0
MTEXT
  5
11E
330
10F
100
AcDbEntity
  8
0
 62
     0
100
AcDbMText
 10
12.949884738
 20
4.0927900738
 30
0.0
 40
3.175
 41
0.0
 71
     1
 72
     1
  1

  7
SLDTEXTSTYLE0
 73
     1
 44
1.0
  0
ENDBLK
  5
111
330
10F
100
AcDbEntity
  8
0
100
AcDbBlockEnd
  0
BLOCK
  5
121
330
120
100
AcDbEntity
  8
0
100
AcDbBlockBegin
  2
SW_BLOCK_DIMENSION_16
 70
     0
 10
0.0
 20
0.0
 30
0.0
  3
SW_BLOCK_DIMENSION_16
  1

  0
SOLID
  5
123
330
120
100
AcDbEntity
  8
0
 62
     0
100
AcDbTrace
 10
14.735185805
 20
5.1887726877
 30
0.0
 11
13.835185805
 21
0.1887726877
 31
0.0
 12
15.635185805
 22
0.1887726877
 32
0.0
 13
15.635185805
 23
0.1887726877
 33
0.0
  0
LINE
  5
124
330
120
100
AcDbEntity
  8
0
 62
     0
100
AcDbLine
 10
4.2891897028
 20
9.671990294
 30
0.0
 11
3.2308563823
 21
9.671990294
 31
0.0
  0
LINE
  5
125
330
120
100
AcDbEntity
  8
0
 62
     0
100
AcDbLine
 10
3.2308563823
 20
9.671990294
 30
0.0
 11
3.2308563823
 21
4.9388883635
 31
0.0
  0
LINE
  5
126
330
120
100
AcDbEntity
  8
0
 62
     0
100
AcDbLine
 10
3.2308563823
 20
4.9388883635
 30
0.0
 11
4.2891897028
 21
4.9388883635
 31
0.0
  0
LINE
  5
127
330
120
100
AcDbEntity
  8
0
 62
     0
100
AcDbLine
 10
8.6459954036
 20
9.671990294
 30
0.0
 11
9.7043287242
 21
9.671990294
 31
0.0
  0
LINE
  5
128
330
120
100
AcDbEntity
  8
0
 62
     0
100
AcDbLine
 10
9.7043287242
 20
9.671990294
 30
0.0
 11
9.7043287242
 21
4.9388883635
 31
0.0
  0
LINE
  5
129
330
120
100
AcDbEntity
  8
0
 62
     0
100
AcDbLine
 10
9.7043287242
 20
4.9388883635
 30
0.0
 11
8.6459954036
 21
4.9388883635
 31
0.0
  0
LINE
  5
12A
330
120
100
AcDbEntity
  8
0
 62
     0
100
AcDbLine
 10
22.7231520617
 20
5.1887726877
 30
0.0
 11
12.935185805
 21
5.1887726877
 31
0.0
  0
LINE
  5
12B
330
120
100
AcDbEntity
  8
0
 62
     0
100
AcDbLine
 10
14.735185805
 20
-20.2112273123
 30
0.0
 11
14.735185805
 21
5.1887726877
 31
0.0
  0
MTEXT
  5
12C
330
120
100
AcDbEntity
  8
0
 62
     0
100
AcDbMText
 10
1.190625
 20
4.0927900738
 30
0.0
 40
3.175
 41
0.0
 71
     1
 72
     1
  1

  7
SLDTEXTSTYLE0
 73
     1
 44
1.0
  0
MTEXT
  5
12D
330
120
100
AcDbEntity
  8
0
 62
     0
100
AcDbMText
 10
4.2891897028
 20
9.0316784373
 30
0.0
 40
3.175
 41
0.0
 71
     1
 72
     1
  1
2"
  7
SLDTEXTSTYLE0
 73
     1
 44
1.0
  0
MTEXT
  5
12E
330
120
100
AcDbEntity
  8
0
 62
     0
100
AcDbMText
 10
1.1759259505
 20
4.0927898409
 30
0.0
 40
3.175
 41
0.0
 71
     1
 72
     1
  1
50,80
  7
SLDTEXTSTYLE0
 73
     1
 44
1.0
  0
MTEXT
  5
12F
330
120
100
AcDbEntity
  8
0
 62
     0
100
AcDbMText
 10
12.949884738
 20
4.0927900738
 30
0.0
 40
3.175
 41
0.0
 71
     1
 72
     1
  1

  7
SLDTEXTSTYLE0
 73
     1
 44
1.0
  0
ENDBLK
  5
122
330
120
100
AcDbEntity
  8
0
100
AcDbBlockEnd
  0
BLOCK
  5
132
330
131
100
AcDbEntity
  8
0
100
AcDbBlockBegin
  2
SW_BLOCK_DIMENSION_17
 70
     0
 10
0.0
 20
0.0
 30
0.0
  3
SW_BLOCK_DIMENSION_17
  1

  0
SOLID
  5
134
330
131
100
AcDbEntity
  8
0
 62
     0
100
AcDbTrace
 10
14.735185805
 20
5.1887726877
 30
0.0
 11
13.835185805
 21
0.1887726877
 31
0.0
 12
15.635185805
 22
0.1887726877
 32
0.0
 13
15.635185805
 23
0.1887726877
 33
0.0
  0
LINE
  5
135
330
131
100
AcDbEntity
  8
0
 62
     0
100
AcDbLine
 10
4.2891897028
 20
9.671990294
 30
0.0
 11
3.2308563823
 21
9.671990294
 31
0.0
  0
LINE
  5
136
330
131
100
AcDbEntity
  8
0
 62
     0
100
AcDbLine
 10
3.2308563823
 20
9.671990294
 30
0.0
 11
3.2308563823
 21
4.9388883635
 31
0.0
  0
LINE
  5
137
330
131
100
AcDbEntity
  8
0
 62
     0
100
AcDbLine
 10
3.2308563823
 20
4.9388883635
 30
0.0
 11
4.2891897028
 21
4.9388883635
 31
0.0
  0
LINE
  5
138
330
131
100
AcDbEntity
  8
0
 62
     0
100
AcDbLine
 10
8.6459954036
 20
9.671990294
 30
0.0
 11
9.7043287242
 21
9.671990294
 31
0.0
  0
LINE
  5
139
330
131
100
AcDbEntity
  8
0
 62
     0
100
AcDbLine
 10
9.7043287242
 20
9.671990294
 30
0.0
 11
9.7043287242
 21
4.9388883635
 31
0.0
  0
LINE
  5
13A
330
131
100
AcDbEntity
  8
0
 62
     0
100
AcDbLine
 10
9.7043287242
 20
4.9388883635
 30
0.0
 11
8.6459954036
 21
4.9388883635
 31
0.0
  0
LINE
  5
13B
330
131
100
AcDbEntity
  8
0
 62
     0
100
AcDbLine
 10
22.7231520617
 20
5.1887726877
 30
0.0
 11
12.935185805
 21
5.1887726877
 31
0.0
  0
LINE
  5
13C
330
131
100
AcDbEntity
  8
0
 62
     0
100
AcDbLine
 10
14.735185805
 20
-20.2112273123
 30
0.0
 11
14.735185805
 21
5.1887726877
 31
0.0
  0
MTEXT
  5
13D
330
131
100
AcDbEntity
  8
0
 62
     0
100
AcDbMText
 10
1.190625
 20
4.0927900738
 30
0.0
 40
3.175
 41
0.0
 71
     1
 72
     1
  1

  7
SLDTEXTSTYLE0
 73
     1
 44
1.0
  0
MTEXT
  5
13E
330
131
100
AcDbEntity
  8
0
 62
     0
100
AcDbMText
 10
4.2891897028
 20
9.0316784373
 30
0.0
 40
3.175
 41
0.0
 71
     1
 72
     1
  1
3"
  7
SLDTEXTSTYLE0
 73
     1
 44
1.0
  0
MTEXT
  5
13F
330
131
100
AcDbEntity
  8
0
 62
     0
100
AcDbMText
 10
1.1759259505
 20
4.0927898409
 30
0.0
 40
3.175
 41
0.0
 71
     1
 72
     1
  1
76,20
  7
SLDTEXTSTYLE0
 73
     1
 44
1.0
  0
MTEXT
  5
140
330
131
100
AcDbEntity
  8
0
 62
     0
100
AcDbMText
 10
12.949884738
 20
4.0927900738
 30
0.0
 40
3.175
 41
0.0
 71
     1
 72
     1
  1

  7
SLDTEXTSTYLE0
 73
     1
 44
1.0
  0
ENDBLK
  5
133
330
131
100
AcDbEntity
  8
0
100
AcDbBlockEnd
  0
BLOCK
  5
143
330
142
100
AcDbEntity
  8
0
100
AcDbBlockBegin
  2
SW_BLOCK_DIMENSION_18
 70
     0
 10
0.0
 20
0.0
 30
0.0
  3
SW_BLOCK_DIMENSION_18
  1

  0
SOLID
  5
145
330
142
100
AcDbEntity
  8
0
 62
     0
100
AcDbTrace
 10
17.0870379388
 20
5.1887726877
 30
0.0
 11
16.1870379388
 21
0.1887726877
 31
0.0
 12
17.9870379388
 22
0.1887726877
 32
0.0
 13
17.9870379388
 23
0.1887726877
 33
0.0
  0
LINE
  5
146
330
142
100
AcDbEntity
  8
0
 62
     0
100
AcDbLine
 10
5.4651157698
 20
9.671990294
 30
0.0
 11
4.4067824492
 21
9.671990294
 31
0.0
  0
LINE
  5
147
330
142
100
AcDbEntity
  8
0
 62
     0
100
AcDbLine
 10
4.4067824492
 20
9.671990294
 30
0.0
 11
4.4067824492
 21
4.9388883635
 31
0.0
  0
LINE
  5
148
330
142
100
AcDbEntity
  8
0
 62
     0
100
AcDbLine
 10
4.4067824492
 20
4.9388883635
 30
0.0
 11
5.4651157698
 21
4.9388883635
 31
0.0
  0
LINE
  5
149
330
142
100
AcDbEntity
  8
0
 62
     0
100
AcDbLine
 10
9.8219214706
 20
9.671990294
 30
0.0
 11
10.8802547911
 21
9.671990294
 31
0.0
  0
LINE
  5
14A
330
142
100
AcDbEntity
  8
0
 62
     0
100
AcDbLine
 10
10.8802547911
 20
9.671990294
 30
0.0
 11
10.8802547911
 21
4.9388883635
 31
0.0
  0
LINE
  5
14B
330
142
100
AcDbEntity
  8
0
 62
     0
100
AcDbLine
 10
10.8802547911
 20
4.9388883635
 30
0.0
 11
9.8219214706
 21
4.9388883635
 31
0.0
  0
LINE
  5
14C
330
142
100
AcDbEntity
  8
0
 62
     0
100
AcDbLine
 10
25.0750041956
 20
5.1887726877
 30
0.0
 11
15.2870379388
 21
5.1887726877
 31
0.0
  0
LINE
  5
14D
330
142
100
AcDbEntity
  8
0
 62
     0
100
AcDbLine
 10
17.0870379388
 20
-20.2112273123
 30
0.0
 11
17.0870379388
 21
5.1887726877
 31
0.0
  0
MTEXT
  5
14E
330
142
100
AcDbEntity
  8
0
 62
     0
100
AcDbMText
 10
1.190625
 20
4.0927900738
 30
0.0
 40
3.175
 41
0.0
 71
     1
 72
     1
  1

  7
SLDTEXTSTYLE0
 73
     1
 44
1.0
  0
MTEXT
  5
14F
330
142
100
AcDbEntity
  8
0
 62
     0
100
AcDbMText
 10
5.4651157698
 20
9.0316784373
 30
0.0
 40
3.175
 41
0.0
 71
     1
 72
     1
  1
4"
  7
SLDTEXTSTYLE0
 73
     1
 44
1.0
  0
MTEXT
  5
150
330
142
100
AcDbEntity
  8
0
 62
     0
100
AcDbMText
 10
1.1759259505
 20
4.0927898409
 30
0.0
 40
3.175
 41
0.0
 71
     1
 72
     1
  1
101,60
  7
SLDTEXTSTYLE0
 73
     1
 44
1.0
  0
MTEXT
  5
151
330
142
100
AcDbEntity
  8
0
 62
     0
100
AcDbMText
 10
15.3017368719
 20
4.0927900738
 30
0.0
 40
3.175
 41
0.0
 71
     1
 72
     1
  1

  7
SLDTEXTSTYLE0
 73
     1
 44
1.0
  0
ENDBLK
  5
144
330
142
100
AcDbEntity
  8
0
100
AcDbBlockEnd
  0
BLOCK
  5
154
330
153
100
AcDbEntity
  8
0
100
AcDbBlockBegin
  2
SW_BLOCK_DIMENSION_19
 70
     0
 10
0.0
 20
0.0
 30
0.0
  3
SW_BLOCK_DIMENSION_19
  1

  0
SOLID
  5
156
330
153
100
AcDbEntity
  8
0
 62
     0
100
AcDbTrace
 10
12.7419915825
 20
5.1887726877
 30
0.0
 11
11.8419915825
 21
0.1887726877
 31
0.0
 12
13.6419915825
 22
0.1887726877
 32
0.0
 13
13.6419915825
 23
0.1887726877
 33
0.0
  0
LINE
  5
157
330
153
100
AcDbEntity
  8
0
 62
     0
100
AcDbLine
 10
3.2925925916
 20
9.671990294
 30
0.0
 11
2.2342592711
 21
9.671990294
 31
0.0
  0
LINE
  5
158
330
153
100
AcDbEntity
  8
0
 62
     0
100
AcDbLine
 10
2.2342592711
 20
9.671990294
 30
0.0
 11
2.2342592711
 21
4.9388883635
 31
0.0
  0
LINE
  5
159
330
153
100
AcDbEntity
  8
0
 62
     0
100
AcDbLine
 10
2.2342592711
 20
4.9388883635
 30
0.0
 11
3.2925925916
 21
4.9388883635
 31
0.0
  0
LINE
  5
15A
330
153
100
AcDbEntity
  8
0
 62
     0
100
AcDbLine
 10
7.6493982924
 20
9.671990294
 30
0.0
 11
8.707731613
 21
9.671990294
 31
0.0
  0
LINE
  5
15B
330
153
100
AcDbEntity
  8
0
 62
     0
100
AcDbLine
 10
8.707731613
 20
9.671990294
 30
0.0
 11
8.707731613
 21
4.9388883635
 31
0.0
  0
LINE
  5
15C
330
153
100
AcDbEntity
  8
0
 62
     0
100
AcDbLine
 10
8.707731613
 20
4.9388883635
 30
0.0
 11
7.6493982924
 21
4.9388883635
 31
0.0
  0
LINE
  5
15D
330
153
100
AcDbEntity
  8
0
 62
     0
100
AcDbLine
 10
20.7299578393
 20
5.1887726877
 30
0.0
 11
10.9419915825
 21
5.1887726877
 31
0.0
  0
LINE
  5
15E
330
153
100
AcDbEntity
  8
0
 62
     0
100
AcDbLine
 10
12.7419915825
 20
-20.2112273123
 30
0.0
 11
12.7419915825
 21
5.1887726877
 31
0.0
  0
MTEXT
  5
15F
330
153
100
AcDbEntity
  8
0
 62
     0
100
AcDbMText
 10
1.190625
 20
4.0927900738
 30
0.0
 40
3.175
 41
0.0
 71
     1
 72
     1
  1

  7
SLDTEXTSTYLE0
 73
     1
 44
1.0
  0
MTEXT
  5
160
330
153
100
AcDbEntity
  8
0
 62
     0
100
AcDbMText
 10
3.2925925916
 20
9.0316784373
 30
0.0
 40
3.175
 41
0.0
 71
     1
 72
     1
  1
5"
  7
SLDTEXTSTYLE0
 73
     1
 44
1.0
  0
MTEXT
  5
161
330
153
100
AcDbEntity
  8
0
 62
     0
100
AcDbMText
 10
1.9432179397
 20
4.0927898409
 30
0.0
 40
3.175
 41
0.0
 71
     1
 72
     1
  1
127
  7
SLDTEXTSTYLE0
 73
     1
 44
1.0
  0
MTEXT
  5
162
330
153
100
AcDbEntity
  8
0
 62
     0
100
AcDbMText
 10
10.9566905156
 20
4.0927900738
 30
0.0
 40
3.175
 41
0.0
 71
     1
 72
     1
  1

  7
SLDTEXTSTYLE0
 73
     1
 44
1.0
  0
ENDBLK
  5
155
330
153
100
AcDbEntity
  8
0
100
AcDbBlockEnd
  0
BLOCK
  5
165
330
164
100
AcDbEntity
  8
0
100
AcDbBlockBegin
  2
SW_NOTE_0
 70
     0
 10
0.0
 20
0.0
 30
0.0
  3
SW_NOTE_0
  1

  0
MTEXT
  5
167
330
164
100
AcDbEntity
  8
0
 62
     0
100
AcDbMText
 10
6.9453125
 20
4.7749217527
 30
0.0
 40
3.7041666667
 41
0.0
 71
     2
 72
     1
  1
(Inch)
  7
SLDTEXTSTYLE0
 73
     1
 44
1.0
  0
MTEXT
  5
168
330
164
100
AcDbEntity
  8
0
 62
     0
100
AcDbMText
 10
6.9624612493
 20
-1.1639672404
 30
0.0
 40
3.7041666667
 41
0.0
 71
     2
 72
     1
  1
mm
  7
SLDTEXTSTYLE0
 73
     1
 44
1.0
  0
ENDBLK
  5
166
330
164
100
AcDbEntity
  8
0
100
AcDbBlockEnd
  0
BLOCK
  5
16B
330
16A
100
AcDbEntity
  8
0
100
AcDbBlockBegin
  2
SW_NOTE_0_1
 70
     0
 10
0.0
 20
0.0
 30
0.0
  3
SW_NOTE_0_1
  1

  0
MTEXT
  5
16D
330
16A
100
AcDbEntity
  8
0
 62
     0
100
AcDbMText
 10
0.0
 20
4.7749217527
 30
0.0
 40
3.7041666667
 41
0.0
 71
     1
 72
     1
  1
mm
  7
SLDTEXTSTYLE0
 73
     1
 44
1.0
  0
ENDBLK
  5
16C
330
16A
100
AcDbEntity
  8
0
100
AcDbBlockEnd
  0
BLOCK
  5
17A
330
179
100
AcDbEntity
  8
0
100
AcDbBlockBegin
  2
SW_NOTE_0_2
 70
     0
 10
0.0
 20
0.0
 30
0.0
  3
SW_NOTE_0_2
  1

  0
MTEXT
  5
17C
330
179
100
AcDbEntity
  8
0
  6
Continuous
 62
     0
370
     0
100
AcDbMText
 10
20.290234375
 20
4.0927900738
 30
0.0
 40
3.175
 41
0.0
 71
     2
 72
     1
  1
ABP-Beyerle GmbH
  7
SLDTEXTSTYLE0
 73
     1
 44
1.0
  0
MTEXT
  5
17D
330
179
100
AcDbEntity
  8
0
  6
Continuous
 62
     0
370
     0
100
AcDbMText
 10
21.2512009293
 20
-0.1405432084
 30
0.0
 40
3.175
 41
0.0
 71
     2
 72
     1
  1
Im Schollengarten 24b, 76646 Bruchsal
  7
SLDTEXTSTYLE0
 73
     1
 44
1.0
  0
MTEXT
  5
17E
330
179
100
AcDbEntity
  8
0
  6
Continuous
 62
     0
370
     0
100
AcDbMText
 10
21.3320523173
 20
-4.3738764906
 30
0.0
 40
3.175
 41
0.0
 71
     2
 72
     1
  1
Tel. +49 (0)7251-9127-0, Fax. +49 (0)7251-9127-29
  7
SLDTEXTSTYLE0
 73
     1
 44
1.0
  0
MTEXT
  5
17F
330
179
100
AcDbEntity
  8
0
  6
Continuous
 62
     0
370
     0
100
AcDbMText
 10
21.5337864727
 20
-8.6072097727
 30
0.0
 40
3.175
 41
0.0
 71
     2
 72
     1
  1
info@abp-beyerle.de, www.abp-beyerle.de
  7
SLDTEXTSTYLE0
 73
     1
 44
1.0
  0
ENDBLK
  5
17B
330
179
100
AcDbEntity
  8
0
100
AcDbBlockEnd
  0
BLOCK
  5
198
330
197
100
AcDbEntity
  8
0
100
AcDbBlockBegin
  2
_D
 70
     0
 10
0.0
 20
0.0
 30
0.0
  3
_D
  1

  0
SOLID
  5
19A
330
197
100
AcDbEntity
  8
0
100
AcDbTrace
 10
74.9902662005
 20
264.7047711429
 30
0.0
 11
79.9902662005
 21
263.8047711429
 31
0.0
 12
79.9902662005
 22
265.6047711429
 32
0.0
 13
79.9902662005
 23
265.6047711429
 33
0.0
  0
SOLID
  5
19B
330
197
100
AcDbEntity
  8
0
100
AcDbTrace
 10
210.9864179259
 20
264.7047711429
 30
0.0
 11
205.9864179259
 21
265.6047711429
 31
0.0
 12
205.9864179259
 22
263.8047711429
 32
0.0
 13
205.9864179259
 23
263.8047711429
 33
0.0
  0
LINE
  5
19C
330
197
100
AcDbEntity
  8
0
100
AcDbLine
 10
138.1654253627
 20
277.039563552
 30
0.0
 11
137.251362873
 21
277.039563552
 31
0.0
  0
LINE
  5
19D
330
197
100
AcDbEntity
  8
0
100
AcDbLine
 10
137.251362873
 20
277.039563552
 30
0.0
 11
137.251362873
 21
269.1933133532
 31
0.0
  0
LINE
  5
19E
330
197
100
AcDbEntity
  8
0
100
AcDbLine
 10
137.251362873
 20
269.1933133532
 30
0.0
 11
138.1654253627
 21
269.1933133532
 31
0.0
  0
LINE
  5
19F
330
197
100
AcDbEntity
  8
0
100
AcDbLine
 10
147.8112580652
 20
277.039563552
 30
0.0
 11
148.725320555
 21
277.039563552
 31
0.0
  0
LINE
  5
1A0
330
197
100
AcDbEntity
  8
0
100
AcDbLine
 10
148.725320555
 20
277.039563552
 30
0.0
 11
148.725320555
 21
269.1933133532
 31
0.0
  0
LINE
  5
1A1
330
197
100
AcDbEntity
  8
0
100
AcDbLine
 10
148.725320555
 20
269.1933133532
 30
0.0
 11
147.8112580652
 21
269.1933133532
 31
0.0
  0
LINE
  5
1A2
330
197
100
AcDbEntity
  8
0
100
AcDbLine
 10
140.8216753907
 20
273.4241468492
 30
0.0
 11
146.1341754465
 21
273.4241468492
 31
0.0
  0
LINE
  5
1A3
330
197
100
AcDbEntity
  8
0
100
AcDbLine
 10
74.9902662005
 20
238.8732834814
 30
0.0
 11
74.9902662005
 21
265.7047711429
 31
0.0
  0
LINE
  5
1A4
330
197
100
AcDbEntity
  8
0
100
AcDbLine
 10
210.9864179259
 20
238.7732834814
 30
0.0
 11
210.9864179259
 21
265.7047711429
 31
0.0
  0
LINE
  5
1A5
330
197
100
AcDbEntity
  8
0
100
AcDbLine
 10
74.9902662005
 20
264.7047711429
 30
0.0
 11
210.9864179259
 21
264.7047711429
 31
0.0
  0
MTEXT
  5
1A6
330
197
100
AcDbEntity
  8
0
100
AcDbMText
 10
136.3539670312
 20
268.6178076565
 30
0.0
 40
3.0
 41
0.0
 71
     1
 72
     1
  1

  7
SLDTEXTSTYLE1
 73
     1
 44
1.0
  0
MTEXT
  5
1A7
330
197
100
AcDbEntity
  8
0
100
AcDbMText
 10
138.1654253627
 20
274.8357250839
 30
0.0
 40
3.0
 41
0.0
 71
     1
 72
     1
  1
5
  7
SLDTEXTSTYLE1
 73
     1
 44
1.0
  0
MTEXT
  5
1A8
330
197
100
AcDbEntity
  8
0
100
AcDbMText
 10
141.2612587146
 20
277.0276000974
 30
0.0
 40
3.0
 41
0.0
 71
     1
 72
     1
  1
23
  7
SLDTEXTSTYLE1
 73
     1
 44
1.0
  0
MTEXT
  5
1A9
330
197
100
AcDbEntity
  8
0
100
AcDbMText
 10
141.2612587146
 20
273.0605167544
 30
0.0
 40
3.0
 41
0.0
 71
     1
 72
     1
  1
64
  7
SLDTEXTSTYLE1
 73
     1
 44
1.0
  0
MTEXT
  5
1AA
330
197
100
AcDbEntity
  8
0
100
AcDbMText
 10
146.5737585376
 20
274.8357250839
 30
0.0
 40
3.0
 41
0.0
 71
     1
 72
     1
  1
"
  7
SLDTEXTSTYLE1
 73
     1
 44
1.0
  0
MTEXT
  5
1AB
330
197
100
AcDbEntity
  8
0
100
AcDbMText
 10
139.6633420072
 20
268.5719748279
 30
0.0
 40
3.0
 41
0.0
 71
     1
 72
     1
  1
136
  7
SLDTEXTSTYLE1
 73
     1
 44
1.0
  0
MTEXT
  5
1AC
330
197
100
AcDbEntity
  8
0
100
AcDbMText
 10
150.7643836268
 20
268.6178076565
 30
0.0
 40
3.0
 41
0.0
 71
     1
 72
     1
  1

  7
SLDTEXTSTYLE1
 73
     1
 44
1.0
  0
ENDBLK
  5
199
330
197
100
AcDbEntity
  8
0
100
AcDbBlockEnd
  0
BLOCK
  5
1AF
330
1AE
100
AcDbEntity
  8
0
100
AcDbBlockBegin
  2
_D_1
 70
     0
 10
0.0
 20
0.0
 30
0.0
  3
_D_1
  1

  0
SOLID
  5
1B1
330
1AE
100
AcDbEntity
  8
0
100
AcDbTrace
 10
38.4926616841
 20
237.8732834814
 30
0.0
 11
37.5926616841
 21
232.8732834814
 31
0.0
 12
39.3926616841
 22
232.8732834814
 32
0.0
 13
39.3926616841
 23
232.8732834814
 33
0.0
  0
SOLID
  5
1B2
330
1AE
100
AcDbEntity
  8
0
100
AcDbTrace
 10
38.4926616841
 20
155.8732834814
 30
0.0
 11
39.3926616841
 21
160.8732834814
 31
0.0
 12
37.5926616841
 22
160.8732834814
 32
0.0
 13
37.5926616841
 23
160.8732834814
 33
0.0
  0
LINE
  5
1B3
330
1AE
100
AcDbEntity
  8
0
100
AcDbLine
 10
26.157869275
 20
192.0503667809
 30
0.0
 11
26.157869275
 21
191.1363042911
 31
0.0
  0
LINE
  5
1B4
330
1AE
100
AcDbEntity
  8
0
100
AcDbLine
 10
26.157869275
 20
191.1363042911
 30
0.0
 11
34.0041194738
 21
191.1363042911
 31
0.0
  0
LINE
  5
1B5
330
1AE
100
AcDbEntity
  8
0
100
AcDbLine
 10
34.0041194738
 20
191.1363042911
 30
0.0
 11
34.0041194738
 21
192.0503667809
 31
0.0
  0
LINE
  5
1B6
330
1AE
100
AcDbEntity
  8
0
100
AcDbLine
 10
26.157869275
 20
201.6961994834
 30
0.0
 11
26.157869275
 21
202.6102619731
 31
0.0
  0
LINE
  5
1B7
330
1AE
100
AcDbEntity
  8
0
100
AcDbLine
 10
26.157869275
 20
202.6102619731
 30
0.0
 11
34.0041194738
 21
202.6102619731
 31
0.0
  0
LINE
  5
1B8
330
1AE
100
AcDbEntity
  8
0
100
AcDbLine
 10
34.0041194738
 20
202.6102619731
 30
0.0
 11
34.0041194738
 21
201.6961994834
 31
0.0
  0
LINE
  5
1B9
330
1AE
100
AcDbEntity
  8
0
100
AcDbLine
 10
29.7732859778
 20
194.7066168088
 30
0.0
 11
29.7732859778
 21
200.0191168647
 31
0.0
  0
LINE
  5
1BA
330
1AE
100
AcDbEntity
  8
0
100
AcDbLine
 10
73.9902662005
 20
237.8732834814
 30
0.0
 11
37.4926616841
 21
237.8732834814
 31
0.0
  0
LINE
  5
1BB
330
1AE
100
AcDbEntity
  8
0
100
AcDbLine
 10
73.9902662005
 20
155.8732834814
 30
0.0
 11
37.4926616841
 21
155.8732834814
 31
0.0
  0
LINE
  5
1BC
330
1AE
100
AcDbEntity
  8
0
100
AcDbLine
 10
38.4926616841
 20
237.8732834814
 30
0.0
 11
38.4926616841
 21
155.8732834814
 31
0.0
  0
MTEXT
  5
1BD
330
1AE
100
AcDbEntity
  8
0
100
AcDbMText
 10
34.5796251705
 20
190.2389084493
 30
0.0
 40
3.0
 41
0.0
 71
     1
 72
     1
  1

  7
SLDTEXTSTYLE1
 11
-1.414962237524464E-14
 21
1.0
 31
0.0
 73
     1
 44
1.0
  0
MTEXT
  5
1BE
330
1AE
100
AcDbEntity
  8
0
100
AcDbMText
 10
28.3617077431
 20
192.0503667809
 30
0.0
 40
3.0
 41
0.0
 71
     1
 72
     1
  1
3
  7
SLDTEXTSTYLE1
 11
-1.414962237524464E-14
 21
1.0
 31
0.0
 73
     1
 44
1.0
  0
MTEXT
  5
1BF
330
1AE
100
AcDbEntity
  8
0
100
AcDbMText
 10
26.1698327296
 20
195.1462001327
 30
0.0
 40
3.0
 41
0.0
 71
     1
 72
     1
  1
15
  7
SLDTEXTSTYLE1
 11
-1.414962237524464E-14
 21
1.0
 31
0.0
 73
     1
 44
1.0
  0
MTEXT
  5
1C0
330
1AE
100
AcDbEntity
  8
0
100
AcDbMText
 10
30.1369160726
 20
195.1462001327
 30
0.0
 40
3.0
 41
0.0
 71
     1
 72
     1
  1
64
  7
SLDTEXTSTYLE1
 11
-1.414962237524464E-14
 21
1.0
 31
0.0
 73
     1
 44
1.0
  0
MTEXT
  5
1C1
330
1AE
100
AcDbEntity
  8
0
100
AcDbMText
 10
28.3617077431
 20
200.4586999557
 30
0.0
 40
3.0
 41
0.0
 71
     1
 72
     1
  1
"
  7
SLDTEXTSTYLE1
 11
-1.414962237524464E-14
 21
1.0
 31
0.0
 73
     1
 44
1.0
  0
MTEXT
  5
1C2
330
1AE
100
AcDbEntity
  8
0
100
AcDbMText
 10
34.6254579991
 20
194.6566166609
 30
0.0
 40
3.0
 41
0.0
 71
     1
 72
     1
  1
82
  7
SLDTEXTSTYLE1
 11
-1.414962237524464E-14
 21
1.0
 31
0.0
 73
     1
 44
1.0
  0
MTEXT
  5
1C3
330
1AE
100
AcDbEntity
  8
0
100
AcDbMText
 10
34.5796251705
 20
204.649325045
 30
0.0
 40
3.0
 41
0.0
 71
     1
 72
     1
  1

  7
SLDTEXTSTYLE1
 11
-1.414962237524464E-14
 21
1.0
 31
0.0
 73
     1
 44
1.0
  0
ENDBLK
  5
1B0
330
1AE
100
AcDbEntity
  8
0
100
AcDbBlockEnd
  0
BLOCK
  5
1C6
330
1C5
100
AcDbEntity
  8
0
100
AcDbBlockBegin
  2
_D_2
 70
     0
 10
0.0
 20
0.0
 30
0.0
  3
_D_2
  1

  0
SOLID
  5
1C8
330
1C5
100
AcDbEntity
  8
0
100
AcDbTrace
 10
250.9902662005
 20
217.8732834814
 30
0.0
 11
251.8902662005
 21
222.8732834814
 31
0.0
 12
250.0902662005
 22
222.8732834814
 32
0.0
 13
250.0902662005
 23
222.8732834814
 33
0.0
  0
SOLID
  5
1C9
330
1C5
100
AcDbEntity
  8
0
100
AcDbTrace
 10
250.9902662005
 20
257.8732834814
 30
0.0
 11
250.0902662005
 21
252.8732834814
 31
0.0
 12
251.8902662005
 22
252.8732834814
 32
0.0
 13
251.8902662005
 23
252.8732834814
 33
0.0
  0
LINE
  5
1CA
330
1C5
100
AcDbEntity
  8
0
100
AcDbLine
 10
238.6554737914
 20
233.0503667809
 30
0.0
 11
238.6554737914
 21
232.1363042911
 31
0.0
  0
LINE
  5
1CB
330
1C5
100
AcDbEntity
  8
0
100
AcDbLine
 10
238.6554737914
 20
232.1363042911
 30
0.0
 11
246.5017239902
 21
232.1363042911
 31
0.0
  0
LINE
  5
1CC
330
1C5
100
AcDbEntity
  8
0
100
AcDbLine
 10
246.5017239902
 20
232.1363042911
 30
0.0
 11
246.5017239902
 21
233.0503667809
 31
0.0
  0
LINE
  5
1CD
330
1C5
100
AcDbEntity
  8
0
100
AcDbLine
 10
238.6554737914
 20
242.6961994834
 30
0.0
 11
238.6554737914
 21
243.6102619731
 31
0.0
  0
LINE
  5
1CE
330
1C5
100
AcDbEntity
  8
0
100
AcDbLine
 10
238.6554737914
 20
243.6102619731
 30
0.0
 11
246.5017239902
 21
243.6102619731
 31
0.0
  0
LINE
  5
1CF
330
1C5
100
AcDbEntity
  8
0
100
AcDbLine
 10
246.5017239902
 20
243.6102619731
 30
0.0
 11
246.5017239902
 21
242.6961994834
 31
0.0
  0
LINE
  5
1D0
330
1C5
100
AcDbEntity
  8
0
100
AcDbLine
 10
242.2708904942
 20
235.7066168088
 30
0.0
 11
242.2708904942
 21
241.0191168647
 31
0.0
  0
LINE
  5
1D1
330
1C5
100
AcDbEntity
  8
0
100
AcDbLine
 10
234.9902662005
 20
217.8732834814
 30
0.0
 11
251.9902662005
 21
217.8732834814
 31
0.0
  0
LINE
  5
1D2
330
1C5
100
AcDbEntity
  8
0
100
AcDbLine
 10
234.9902662005
 20
257.8732834814
 30
0.0
 11
251.9902662005
 21
257.8732834814
 31
0.0
  0
LINE
  5
1D3
330
1C5
100
AcDbEntity
  8
0
100
AcDbLine
 10
250.9902662005
 20
217.8732834814
 30
0.0
 11
250.9902662005
 21
257.8732834814
 31
0.0
  0
MTEXT
  5
1D4
330
1C5
100
AcDbEntity
  8
0
100
AcDbMText
 10
247.0772296869
 20
231.2389084493
 30
0.0
 40
3.0
 41
0.0
 71
     1
 72
     1
  1

  7
SLDTEXTSTYLE1
 11
-6.822150412718603E-15
 21
1.0
 31
0.0
 73
     1
 44
1.0
  0
MTEXT
  5
1D5
330
1C5
100
AcDbEntity
  8
0
100
AcDbMText
 10
240.8593122595
 20
233.0503667809
 30
0.0
 40
3.0
 41
0.0
 71
     1
 72
     1
  1
1
  7
SLDTEXTSTYLE1
 11
-6.822150412718603E-15
 21
1.0
 31
0.0
 73
     1
 44
1.0
  0
MTEXT
  5
1D6
330
1C5
100
AcDbEntity
  8
0
100
AcDbMText
 10
238.667437246
 20
236.1462001327
 30
0.0
 40
3.0
 41
0.0
 71
     1
 72
     1
  1
37
  7
SLDTEXTSTYLE1
 11
-6.822150412718603E-15
 21
1.0
 31
0.0
 73
     1
 44
1.0
  0
MTEXT
  5
1D7
330
1C5
100
AcDbEntity
  8
0
100
AcDbMText
 10
242.634520589
 20
236.1462001327
 30
0.0
 40
3.0
 41
0.0
 71
     1
 72
     1
  1
64
  7
SLDTEXTSTYLE1
 11
-6.822150412718603E-15
 21
1.0
 31
0.0
 73
     1
 44
1.0
  0
MTEXT
  5
1D8
330
1C5
100
AcDbEntity
  8
0
100
AcDbMText
 10
240.8593122595
 20
241.4586999557
 30
0.0
 40
3.0
 41
0.0
 71
     1
 72
     1
  1
"
  7
SLDTEXTSTYLE1
 11
-6.822150412718603E-15
 21
1.0
 31
0.0
 73
     1
 44
1.0
  0
MTEXT
  5
1D9
330
1C5
100
AcDbEntity
  8
0
100
AcDbMText
 10
247.1230625155
 20
235.6566166609
 30
0.0
 40
3.0
 41
0.0
 71
     1
 72
     1
  1
40
  7
SLDTEXTSTYLE1
 11
-6.822150412718603E-15
 21
1.0
 31
0.0
 73
     1
 44
1.0
  0
MTEXT
  5
1DA
330
1C5
100
AcDbEntity
  8
0
100
AcDbMText
 10
247.0772296869
 20
245.649325045
 30
0.0
 40
3.0
 41
0.0
 71
     1
 72
     1
  1

  7
SLDTEXTSTYLE1
 11
-6.822150412718603E-15
 21
1.0
 31
0.0
 73
     1
 44
1.0
  0
ENDBLK
  5
1C7
330
1C5
100
AcDbEntity
  8
0
100
AcDbBlockEnd
  0
BLOCK
  5
239
330
238
100
AcDbEntity
  8
0
100
AcDbBlockBegin
  2
_D_3
 70
     0
 10
0.0
 20
0.0
 30
0.0
  3
_D_3
  1

  0
SOLID
  5
23B
330
238
100
AcDbEntity
  8
0
100
AcDbTrace
 10
83.9402662005
 20
55.9498173077
 30
0.0
 11
78.9402662005
 21
56.8498173077
 31
0.0
 12
78.9402662005
 22
55.0498173077
 32
0.0
 13
78.9402662005
 23
55.0498173077
 33
0.0
  0
SOLID
  5
23C
330
238
100
AcDbEntity
  8
0
100
AcDbTrace
 10
66.0402662005
 20
55.9498173077
 30
0.0
 11
71.0402662005
 21
55.0498173077
 31
0.0
 12
71.0402662005
 22
56.8498173077
 32
0.0
 13
71.0402662005
 23
56.8498173077
 33
0.0
  0
LINE
  5
23D
330
238
100
AcDbEntity
  8
0
100
AcDbLine
 10
91.8838975659
 20
69.1679431018
 30
0.0
 11
90.9698350762
 21
69.1679431018
 31
0.0
  0
LINE
  5
23E
330
238
100
AcDbEntity
  8
0
100
AcDbLine
 10
90.9698350762
 20
69.1679431018
 30
0.0
 11
90.9698350762
 21
61.321692903
 31
0.0
  0
LINE
  5
23F
330
238
100
AcDbEntity
  8
0
100
AcDbLine
 10
90.9698350762
 20
61.321692903
 30
0.0
 11
91.8838975659
 21
61.321692903
 31
0.0
  0
LINE
  5
240
330
238
100
AcDbEntity
  8
0
100
AcDbLine
 10
99.3130642629
 20
69.1679431018
 30
0.0
 11
100.2271267527
 21
69.1679431018
 31
0.0
  0
LINE
  5
241
330
238
100
AcDbEntity
  8
0
100
AcDbLine
 10
100.2271267527
 20
69.1679431018
 30
0.0
 11
100.2271267527
 21
61.321692903
 31
0.0
  0
LINE
  5
242
330
238
100
AcDbEntity
  8
0
100
AcDbLine
 10
100.2271267527
 20
61.321692903
 30
0.0
 11
99.3130642629
 21
61.321692903
 31
0.0
  0
LINE
  5
243
330
238
100
AcDbEntity
  8
0
100
AcDbLine
 10
92.3234808898
 20
65.552526399
 30
0.0
 11
97.6359809457
 21
65.552526399
 31
0.0
  0
LINE
  5
244
330
238
100
AcDbEntity
  8
0
100
AcDbLine
 10
83.9402662005
 20
85.4498173077
 30
0.0
 11
83.9402662005
 21
54.9498173077
 31
0.0
  0
LINE
  5
245
330
238
100
AcDbEntity
  8
0
100
AcDbLine
 10
66.0402662005
 20
85.4498173077
 30
0.0
 11
66.0402662005
 21
54.9498173077
 31
0.0
  0
LINE
  5
246
330
238
100
AcDbEntity
  8
0
100
AcDbLine
 10
83.9402662005
 20
55.9498173077
 30
0.0
 11
102.8481689456
 21
55.9498173077
 31
0.0
  0
LINE
  5
247
330
238
100
AcDbEntity
  8
0
100
AcDbLine
 10
83.9402662005
 20
55.9498173077
 30
0.0
 11
66.0402662005
 21
55.9498173077
 31
0.0
  0
MTEXT
  5
248
330
238
100
AcDbEntity
  8
0
100
AcDbMText
 10
92.7630642137
 20
69.1559796472
 30
0.0
 40
3.0
 41
0.0
 71
     1
 72
     1
  1
45
  7
SLDTEXTSTYLE1
 73
     1
 44
1.0
  0
MTEXT
  5
249
330
238
100
AcDbEntity
  8
0
100
AcDbMText
 10
92.7630642137
 20
65.1888963042
 30
0.0
 40
3.0
 41
0.0
 71
     1
 72
     1
  1
64
  7
SLDTEXTSTYLE1
 73
     1
 44
1.0
  0
MTEXT
  5
24A
330
238
100
AcDbEntity
  8
0
100
AcDbMText
 10
98.0755642696
 20
66.9641046337
 30
0.0
 40
3.0
 41
0.0
 71
     1
 72
     1
  1
"
  7
SLDTEXTSTYLE1
 73
     1
 44
1.0
  0
MTEXT
  5
24B
330
238
100
AcDbEntity
  8
0
100
AcDbMText
 10
88.3487933489
 20
59.8170209927
 30
0.0
 40
3.0
 41
0.0
 71
     1
 72
     1
  1
%%c
  7
SLDTEXTSTYLE1
 73
     1
 44
1.0
  0
MTEXT
  5
24C
330
238
100
AcDbEntity
  8
0
100
AcDbMText
 10
92.8731681953
 20
59.8170209927
 30
0.0
 40
3.0
 41
0.0
 71
     1
 72
     1
  1
17,90
  7
SLDTEXTSTYLE1
 73
     1
 44
1.0
  0
ENDBLK
  5
23A
330
238
100
AcDbEntity
  8
0
100
AcDbBlockEnd
  0
BLOCK
  5
24F
330
24E
100
AcDbEntity
  8
0
100
AcDbBlockBegin
  2
_D_4
 70
     0
 10
0.0
 20
0.0
 30
0.0
  3
_D_4
  1

  0
SOLID
  5
251
330
24E
100
AcDbEntity
  8
0
100
AcDbTrace
 10
219.9364179259
 20
55.9498173077
 30
0.0
 11
214.9364179259
 21
56.8498173077
 31
0.0
 12
214.9364179259
 22
55.0498173077
 32
0.0
 13
214.9364179259
 23
55.0498173077
 33
0.0
  0
SOLID
  5
252
330
24E
100
AcDbEntity
  8
0
100
AcDbTrace
 10
202.0364179259
 20
55.9498173077
 30
0.0
 11
207.0364179259
 21
55.0498173077
 31
0.0
 12
207.0364179259
 22
56.8498173077
 32
0.0
 13
207.0364179259
 23
56.8498173077
 33
0.0
  0
LINE
  5
253
330
24E
100
AcDbEntity
  8
0
100
AcDbLine
 10
228.1525631454
 20
69.1679431018
 30
0.0
 11
227.2385006556
 21
69.1679431018
 31
0.0
  0
LINE
  5
254
330
24E
100
AcDbEntity
  8
0
100
AcDbLine
 10
227.2385006556
 20
69.1679431018
 30
0.0
 11
227.2385006556
 21
61.321692903
 31
0.0
  0
LINE
  5
255
330
24E
100
AcDbEntity
  8
0
100
AcDbLine
 10
227.2385006556
 20
61.321692903
 30
0.0
 11
228.1525631454
 21
61.321692903
 31
0.0
  0
LINE
  5
256
330
24E
100
AcDbEntity
  8
0
100
AcDbLine
 10
235.5817298424
 20
69.1679431018
 30
0.0
 11
236.4957923321
 21
69.1679431018
 31
0.0
  0
LINE
  5
257
330
24E
100
AcDbEntity
  8
0
100
AcDbLine
 10
236.4957923321
 20
69.1679431018
 30
0.0
 11
236.4957923321
 21
61.321692903
 31
0.0
  0
LINE
  5
258
330
24E
100
AcDbEntity
  8
0
100
AcDbLine
 10
236.4957923321
 20
61.321692903
 30
0.0
 11
235.5817298424
 21
61.321692903
 31
0.0
  0
LINE
  5
259
330
24E
100
AcDbEntity
  8
0
100
AcDbLine
 10
228.5921464693
 20
65.552526399
 30
0.0
 11
233.9046465252
 21
65.552526399
 31
0.0
  0
LINE
  5
25A
330
24E
100
AcDbEntity
  8
0
100
AcDbLine
 10
219.9364179259
 20
77.9498173077
 30
0.0
 11
219.9364179259
 21
54.9498173077
 31
0.0
  0
LINE
  5
25B
330
24E
100
AcDbEntity
  8
0
100
AcDbLine
 10
202.0364179259
 20
77.9498173077
 30
0.0
 11
202.0364179259
 21
54.9498173077
 31
0.0
  0
LINE
  5
25C
330
24E
100
AcDbEntity
  8
0
100
AcDbLine
 10
219.9364179259
 20
55.9498173077
 30
0.0
 11
239.116834525
 21
55.9498173077
 31
0.0
  0
LINE
  5
25D
330
24E
100
AcDbEntity
  8
0
100
AcDbLine
 10
219.9364179259
 20
55.9498173077
 30
0.0
 11
202.0364179259
 21
55.9498173077
 31
0.0
  0
MTEXT
  5
25E
330
24E
100
AcDbEntity
  8
0
100
AcDbMText
 10
229.0317297932
 20
69.1559796472
 30
0.0
 40
3.0
 41
0.0
 71
     1
 72
     1
  1
45
  7
SLDTEXTSTYLE1
 73
     1
 44
1.0
  0
MTEXT
  5
25F
330
24E
100
AcDbEntity
  8
0
100
AcDbMText
 10
229.0317297932
 20
65.1888963042
 30
0.0
 40
3.0
 41
0.0
 71
     1
 72
     1
  1
64
  7
SLDTEXTSTYLE1
 73
     1
 44
1.0
  0
MTEXT
  5
260
330
24E
100
AcDbEntity
  8
0
100
AcDbMText
 10
234.3442298491
 20
66.9641046337
 30
0.0
 40
3.0
 41
0.0
 71
     1
 72
     1
  1
"
  7
SLDTEXTSTYLE1
 73
     1
 44
1.0
  0
MTEXT
  5
261
330
24E
100
AcDbEntity
  8
0
100
AcDbMText
 10
224.6174589284
 20
59.8170209927
 30
0.0
 40
3.0
 41
0.0
 71
     1
 72
     1
  1
%%c
  7
SLDTEXTSTYLE1
 73
     1
 44
1.0
  0
MTEXT
  5
262
330
24E
100
AcDbEntity
  8
0
100
AcDbMText
 10
229.1418337748
 20
59.8170209927
 30
0.0
 40
3.0
 41
0.0
 71
     1
 72
     1
  1
17,90
  7
SLDTEXTSTYLE1
 73
     1
 44
1.0
  0
ENDBLK
  5
250
330
24E
100
AcDbEntity
  8
0
100
AcDbBlockEnd
  0
ENDSEC
  0
SECTION
  2
ENTITIES
  0
LINE
  5
16F
330
1F
100
AcDbEntity
  8
0
100
AcDbLine
 10
127.4819306314
 20
27.1626886523
 30
0.0
 11
127.4819306314
 21
7.1626886523
 31
0.0
  0
LINE
  5
170
330
1F
100
AcDbEntity
  8
0
100
AcDbLine
 10
127.4819306314
 20
7.1626886523
 30
0.0
 11
231.2890403829
 21
7.1626886523
 31
0.0
  0
LINE
  5
171
330
1F
100
AcDbEntity
  8
0
100
AcDbLine
 10
231.2890403829
 20
7.1626886523
 30
0.0
 11
231.2890403829
 21
27.1626886523
 31
0.0
  0
LINE
  5
172
330
1F
100
AcDbEntity
  8
0
100
AcDbLine
 10
231.2890403829
 20
27.1626886523
 30
0.0
 11
127.4819306314
 21
27.1626886523
 31
0.0
  0
LINE
  5
173
330
1F
100
AcDbEntity
  8
0
100
AcDbLine
 10
231.2890403829
 20
17.1626886523
 30
0.0
 11
127.4819306314
 21
17.1626886523
 31
0.0
  0
LINE
  5
174
330
1F
100
AcDbEntity
  8
0
100
AcDbLine
 10
188.5336333335
 20
27.1626886523
 30
0.0
 11
188.5336333335
 21
7.1626886523
 31
0.0
  0
INSERT
  5
175
330
1F
100
AcDbEntity
  8
0
100
AcDbBlockReference
  2
Block5
 10
19.561342692
 20
-6.9223244521
 30
0.0
  0
MTEXT
  5
177
330
1F
100
AcDbEntity
  8
0
  6
Continuous
 62
     7
370
     0
100
AcDbMText
 10
402.5
 20
14.7189135832
 30
0.0
 40
6.35
 41
0.0
 71
     1
 72
     1
  1
1:1
  7
SLDTEXTSTYLE1
 73
     1
 44
1.0
  0
MTEXT
  5
178
330
1F
100
AcDbEntity
  8
0
  6
Continuous
 62
     7
370
     0
100
AcDbMText
 10
190.3749692016
 20
25.1056679674
 30
0.0
 40
4.2333333333
 41
0.0
 71
     1
 72
     1
  1
USO275L-EF
  7
SLDTEXTSTYLE1
 73
     1
 44
1.0
  0
INSERT
  5
180
330
1F
100
AcDbEntity
  8
0
  6
Continuous
 62
     7
370
     0
100
AcDbBlockReference
  2
SW_NOTE_0_2
 10
35.4202146835
 20
20.1681939512
 30
0.0
  0
MTEXT
  5
181
330
1F
100
AcDbEntity
  8
0
100
AcDbMText
 10
131.6112989967
 20
25.1056677346
 30
0.0
 40
4.2333333333
 41
0.0
 71
     1
 72
     1
  1
Artikelnummer
  7
SLDTEXTSTYLE1
 73
     1
 44
1.0
  0
MTEXT
  5
182
330
1F
100
AcDbEntity
  8
0
100
AcDbMText
 10
131.6112989967
 20
15.1068467326
 30
0.0
 40
4.2333333333
 41
0.0
 71
     1
 72
     1
  1
Index
  7
SLDTEXTSTYLE1
 73
     1
 44
1.0
  0
MTEXT
  5
183
330
1F
100
AcDbEntity
  8
0
100
AcDbMText
 10
191.3424447454
 20
14.5571014523
 30
0.0
 40
4.2333333333
 41
0.0
 71
     1
 72
     1
  1
0
  7
SLDTEXTSTYLE1
 73
     1
 44
1.0
  0
LINE
  5
184
330
1F
100
AcDbEntity
  8
0
  6
Continuous
 62
     7
370
    25
100
AcDbLine
 10
234.9902662005
 20
256.8732834814
 30
0.0
 11
234.9902662005
 21
218.8732834814
 31
0.0
  0
LINE
  5
185
330
1F
100
AcDbEntity
  8
0
  6
Continuous
 62
     7
370
    25
100
AcDbLine
 10
233.9902662005
 20
217.8732834814
 30
0.0
 11
234.9902662005
 21
218.8732834814
 31
0.0
  0
LINE
  5
186
330
1F
100
AcDbEntity
  8
0
  6
Continuous
 62
     7
370
    25
100
AcDbLine
 10
233.9902662005
 20
217.8732834814
 30
0.0
 11
94.9902662005
 21
217.8732834814
 31
0.0
  0
LINE
  5
187
330
1F
100
AcDbEntity
  8
0
  6
Continuous
 62
     7
370
    25
100
AcDbLine
 10
94.9902662005
 20
217.8732834814
 30
0.0
 11
94.9902662005
 21
133.8732834814
 31
0.0
  0
LINE
  5
188
330
1F
100
AcDbEntity
  8
0
  6
Continuous
 62
     7
370
    25
100
AcDbLine
 10
93.9902662005
 20
132.8732834814
 30
0.0
 11
55.9902662005
 21
132.8732834814
 31
0.0
  0
LINE
  5
189
330
1F
100
AcDbEntity
  8
0
  6
Continuous
 62
     7
370
    25
100
AcDbLine
 10
55.9902662005
 20
257.8732834814
 30
0.0
 11
54.9902662005
 21
256.8732834814
 31
0.0
  0
LINE
  5
18A
330
1F
100
AcDbEntity
  8
0
  6
Continuous
 62
     7
370
    25
100
AcDbLine
 10
55.9902662005
 20
257.8732834814
 30
0.0
 11
233.9902662005
 21
257.8732834814
 31
0.0
  0
LINE
  5
18B
330
1F
100
AcDbEntity
  8
0
  6
Continuous
 62
     7
370
    25
100
AcDbLine
 10
93.9902662005
 20
132.8732834814
 30
0.0
 11
94.9902662005
 21
133.8732834814
 31
0.0
  0
LINE
  5
18C
330
1F
100
AcDbEntity
  8
0
  6
Continuous
 62
     7
370
    25
100
AcDbLine
 10
234.9902662005
 20
256.8732834814
 30
0.0
 11
233.9902662005
 21
257.8732834814
 31
0.0
  0
LINE
  5
18D
330
1F
100
AcDbEntity
  8
0
  6
Continuous
 62
     7
370
    25
100
AcDbLine
 10
54.9902662005
 20
133.8732834814
 30
0.0
 11
55.9902662005
 21
132.8732834814
 31
0.0
  0
LINE
  5
18E
330
1F
100
AcDbEntity
  8
0
  6
Continuous
 62
     7
370
    25
100
AcDbLine
 10
54.9902662005
 20
133.8732834814
 30
0.0
 11
54.9902662005
 21
256.8732834814
 31
0.0
  0
CIRCLE
  5
18F
330
1F
100
AcDbEntity
  8
0
  6
Continuous
 62
     7
370
    25
100
AcDbCircle
 10
74.9902662005
 20
237.8732834814
 30
0.0
 40
18.75000000000038
  0
CIRCLE
  5
190
330
1F
100
AcDbEntity
  8
0
  6
Continuous
 62
     7
370
    25
100
AcDbCircle
 10
74.9902662005
 20
237.8732834814
 30
0.0
 40
18.00000000000037
  0
CIRCLE
  5
191
330
1F
100
AcDbEntity
  8
0
  6
Continuous
 62
     7
370
    25
100
AcDbCircle
 10
74.9902662005
 20
155.8732834814
 30
0.0
 40
18.75000000000038
  0
CIRCLE
  5
192
330
1F
100
AcDbEntity
  8
0
  6
Continuous
 62
     7
370
    25
100
AcDbCircle
 10
74.9902662005
 20
155.8732834814
 30
0.0
 40
18.00000000000037
  0
CIRCLE
  5
193
330
1F
100
AcDbEntity
  8
0
  6
Continuous
 62
     7
370
    25
100
AcDbCircle
 10
210.9864179259
 20
237.7732834814
 30
0.0
 40
18.00000000000037
  0
CIRCLE
  5
194
330
1F
100
AcDbEntity
  8
0
  6
Continuous
 62
     7
370
    25
100
AcDbCircle
 10
210.9864179259
 20
237.7732834814
 30
0.0
 40
18.75000000000037
  0
DIMENSION
  5
195
330
1F
100
AcDbEntity
  8
0
100
AcDbDimension
  2
_D
 10
210.9864179259
 20
264.7047711429
 30
0.0
 11
142.9883420632
 21
264.7047711429
 31
0.0
 70
   160
  1
<>
 71
     2
 42
-1.0
  3
SLDDIMSTYLE0
100
AcDbAlignedDimension
 13
74.9902662005
 23
237.8732834814
 33
0.0
 14
210.9864179259
 24
237.7732834814
 34
0.0
100
AcDbRotatedDimension
  0
DIMENSION
  5
1AD
330
1F
100
AcDbEntity
  8
0
100
AcDbDimension
  2
_D_1
 10
38.4926616841
 20
155.8732834814
 30
0.0
 11
38.4926616841
 21
196.8732834814
 31
0.0
 70
   160
  1
<>
 71
     2
 42
-1.0
  3
SLDDIMSTYLE0
100
AcDbAlignedDimension
 13
74.9902662005
 23
237.8732834814
 33
0.0
 14
74.9902662005
 24
155.8732834814
 34
0.0
 50
90.0
100
AcDbRotatedDimension
  0
DIMENSION
  5
1C4
330
1F
100
AcDbEntity
  8
0
100
AcDbDimension
  2
_D_2
 10
250.9902662005
 20
257.8732834814
 30
0.0
 11
250.9902662005
 21
237.8732834814
 31
0.0
 70
   160
  1
<>
 71
     2
 42
-1.0
  3
SLDDIMSTYLE0
100
AcDbAlignedDimension
 13
233.9902662005
 23
217.8732834814
 33
0.0
 14
233.9902662005
 24
257.8732834814
 34
0.0
 50
90.0
100
AcDbRotatedDimension
  0
LINE
  5
1DB
330
1F
100
AcDbEntity
  8
0
  6
Continuous
 62
     7
370
    25
100
AcDbLine
 10
205.9864179259
 20
88.4498173077
 30
0.0
 11
205.9864179259
 21
86.4498173077
 31
0.0
  0
LINE
  5
1DC
330
1F
100
AcDbEntity
  8
0
  6
Continuous
 62
     7
370
    25
100
AcDbLine
 10
215.9864179259
 20
86.4498173077
 30
0.0
 11
215.9864179259
 21
88.4498173077
 31
0.0
  0
LINE
  5
1DD
330
1F
100
AcDbEntity
  8
0
  6
Continuous
 62
     7
370
    25
100
AcDbLine
 10
69.9902662005
 20
88.4498173077
 30
0.0
 11
69.9902662005
 21
86.4498173077
 31
0.0
  0
LINE
  5
1DE
330
1F
100
AcDbEntity
  8
0
  6
Continuous
 62
     7
370
    25
100
AcDbLine
 10
79.9902662005
 20
86.4498173077
 30
0.0
 11
79.9902662005
 21
88.4498173077
 31
0.0
  0
LINE
  5
1DF
330
1F
100
AcDbEntity
  8
0
  6
Continuous
 62
     7
370
    25
100
AcDbLine
 10
219.9364179259
 20
78.9498173077
 30
0.0
 11
219.9364179259
 21
86.4498173077
 31
0.0
  0
LINE
  5
1E0
330
1F
100
AcDbEntity
  8
0
  6
Continuous
 62
     7
370
    25
100
AcDbLine
 10
202.0364179259
 20
86.4498173077
 30
0.0
 11
202.0364179259
 21
78.9498173077
 31
0.0
  0
LINE
  5
1E1
330
1F
100
AcDbEntity
  8
0
  6
Continuous
 62
     7
370
    25
100
AcDbLine
 10
83.9402662005
 20
78.9498173077
 30
0.0
 11
83.9402662005
 21
86.4498173077
 31
0.0
  0
LINE
  5
1E2
330
1F
100
AcDbEntity
  8
0
  6
Continuous
 62
     7
370
    25
100
AcDbLine
 10
66.0402662005
 20
86.4498173077
 30
0.0
 11
66.0402662005
 21
78.9498173077
 31
0.0
  0
LINE
  5
1E3
330
1F
100
AcDbEntity
  8
0
  6
Continuous
 62
     7
370
    25
100
AcDbLine
 10
228.4864179259
 20
88.9498173077
 30
0.0
 11
228.4864179259
 21
89.9498173077
 31
0.0
  0
LINE
  5
1E4
330
1F
100
AcDbEntity
  8
0
  6
Continuous
 62
     7
370
    25
100
AcDbLine
 10
193.4864179259
 20
89.9498173077
 30
0.0
 11
193.4864179259
 21
88.9498173077
 31
0.0
  0
LINE
  5
1E5
330
1F
100
AcDbEntity
  8
0
  6
Continuous
 62
     7
370
    25
100
AcDbLine
 10
228.4864179259
 20
77.9498173077
 30
0.0
 11
228.4864179259
 21
78.9498173077
 31
0.0
  0
LINE
  5
1E6
330
1F
100
AcDbEntity
  8
0
  6
Continuous
 62
     7
370
    25
100
AcDbLine
 10
193.4864179259
 20
78.9498173077
 30
0.0
 11
193.4864179259
 21
77.9498173077
 31
0.0
  0
LINE
  5
1E7
330
1F
100
AcDbEntity
  8
0
  6
Continuous
 62
     7
370
    25
100
AcDbLine
 10
92.4902662005
 20
77.9498173077
 30
0.0
 11
92.4902662005
 21
78.9498173077
 31
0.0
  0
LINE
  5
1E8
330
1F
100
AcDbEntity
  8
0
  6
Continuous
 62
     7
370
    25
100
AcDbLine
 10
57.4902662005
 20
78.9498173077
 30
0.0
 11
57.4902662005
 21
77.9498173077
 31
0.0
  0
LINE
  5
1E9
330
1F
100
AcDbEntity
  8
0
  6
Continuous
 62
     7
370
    25
100
AcDbLine
 10
92.4902662005
 20
88.9498173077
 30
0.0
 11
92.4902662005
 21
89.9498173077
 31
0.0
  0
LINE
  5
1EA
330
1F
100
AcDbEntity
  8
0
  6
Continuous
 62
     7
370
    25
100
AcDbLine
 10
57.4902662005
 20
89.9498173077
 30
0.0
 11
57.4902662005
 21
88.9498173077
 31
0.0
  0
LINE
  5
1EB
330
1F
100
AcDbEntity
  8
0
  6
Continuous
 62
     7
370
    25
100
AcDbLine
 10
192.2364179259
 20
101.1998173077
 30
0.0
 11
192.2364179259
 21
95.9498173077
 31
0.0
  0
LINE
  5
1EC
330
1F
100
AcDbEntity
  8
0
  6
Continuous
 62
     7
370
    25
100
AcDbLine
 10
229.7364179259
 20
95.9498173077
 30
0.0
 11
229.7364179259
 21
101.1998173077
 31
0.0
  0
LINE
  5
1ED
330
1F
100
AcDbEntity
  8
0
  6
Continuous
 62
     7
370
    25
100
AcDbLine
 10
229.7364179259
 20
101.1998173077
 30
0.0
 11
228.9864179259
 21
101.9498173077
 31
0.0
  0
LINE
  5
1EE
330
1F
100
AcDbEntity
  8
0
  6
Continuous
 62
     7
370
    25
100
AcDbLine
 10
192.9864179259
 20
101.9498173077
 30
0.0
 11
192.2364179259
 21
101.1998173077
 31
0.0
  0
LINE
  5
1EF
330
1F
100
AcDbEntity
  8
0
  6
Continuous
 62
     7
370
    25
100
AcDbLine
 10
204.7364179259
 20
88.9498173077
 30
0.0
 11
204.7364179259
 21
88.4498173077
 31
0.0
  0
LINE
  5
1F0
330
1F
100
AcDbEntity
  8
0
  6
Continuous
 62
     7
370
    25
100
AcDbLine
 10
217.2364179259
 20
88.4498173077
 30
0.0
 11
217.2364179259
 21
88.9498173077
 31
0.0
  0
LINE
  5
1F1
330
1F
100
AcDbEntity
  8
0
  6
Continuous
 62
     7
370
    25
100
AcDbLine
 10
93.7402662005
 20
77.343394758
 30
0.0
 11
93.7402662005
 21
77.9498173077
 31
0.0
  0
LINE
  5
1F2
330
1F
100
AcDbEntity
  8
0
  6
Continuous
 62
     7
370
    25
100
AcDbLine
 10
93.7402662005
 20
72.6998173077
 30
0.0
 11
93.7402662005
 21
73.1498173077
 31
0.0
  0
LINE
  5
1F3
330
1F
100
AcDbEntity
  8
0
  6
Continuous
 62
     7
370
    25
100
AcDbLine
 10
56.2402662005
 20
73.1539907812
 30
0.0
 11
56.2402662005
 21
72.6998173077
 31
0.0
  0
LINE
  5
1F4
330
1F
100
AcDbEntity
  8
0
  6
Continuous
 62
     7
370
    25
100
AcDbLine
 10
56.2402662005
 20
77.9498173077
 30
0.0
 11
56.2402662005
 21
77.3498173077
 31
0.0
  0
LINE
  5
1F5
330
1F
100
AcDbEntity
  8
0
  6
Continuous
 62
     7
370
    25
100
AcDbLine
 10
56.2402662005
 20
72.6998173077
 30
0.0
 11
56.9902662005
 21
71.9498173077
 31
0.0
  0
LINE
  5
1F6
330
1F
100
AcDbEntity
  8
0
  6
Continuous
 62
     7
370
    25
100
AcDbLine
 10
92.9902662005
 20
71.9498173077
 30
0.0
 11
93.7402662005
 21
72.6998173077
 31
0.0
  0
LINE
  5
1F7
330
1F
100
AcDbEntity
  8
0
  6
Continuous
 62
     7
370
    25
100
AcDbLine
 10
56.2402662005
 20
101.1998173077
 30
0.0
 11
56.2402662005
 21
95.9498173077
 31
0.0
  0
LINE
  5
1F8
330
1F
100
AcDbEntity
  8
0
  6
Continuous
 62
     7
370
    25
100
AcDbLine
 10
93.7402662005
 20
95.9498173077
 30
0.0
 11
93.7402662005
 21
101.1998173077
 31
0.0
  0
LINE
  5
1F9
330
1F
100
AcDbEntity
  8
0
  6
Continuous
 62
     7
370
    25
100
AcDbLine
 10
93.7402662005
 20
101.1998173077
 30
0.0
 11
92.9902662005
 21
101.9498173077
 31
0.0
  0
LINE
  5
1FA
330
1F
100
AcDbEntity
  8
0
  6
Continuous
 62
     7
370
    25
100
AcDbLine
 10
56.9902662005
 20
101.9498173077
 30
0.0
 11
56.2402662005
 21
101.1998173077
 31
0.0
  0
LINE
  5
1FB
330
1F
100
AcDbEntity
  8
0
  6
Continuous
 62
     7
370
    25
100
AcDbLine
 10
68.7402662005
 20
88.9498173077
 30
0.0
 11
68.7402662005
 21
88.4498173077
 31
0.0
  0
LINE
  5
1FC
330
1F
100
AcDbEntity
  8
0
  6
Continuous
 62
     7
370
    25
100
AcDbLine
 10
81.2402662005
 20
88.4498173077
 30
0.0
 11
81.2402662005
 21
88.9498173077
 31
0.0
  0
LINE
  5
1FD
330
1F
100
AcDbEntity
  8
0
  6
Continuous
 62
     7
370
    25
100
AcDbLine
 10
229.7364179259
 20
77.343394758
 30
0.0
 11
229.7364179259
 21
77.9498173077
 31
0.0
  0
LINE
  5
1FE
330
1F
100
AcDbEntity
  8
0
  6
Continuous
 62
     7
370
    25
100
AcDbLine
 10
229.7364179259
 20
72.6998173077
 30
0.0
 11
229.7364179259
 21
73.1498173077
 31
0.0
  0
LINE
  5
1FF
330
1F
100
AcDbEntity
  8
0
  6
Continuous
 62
     7
370
    25
100
AcDbLine
 10
192.2364179259
 20
73.1539907812
 30
0.0
 11
192.2364179259
 21
72.6998173077
 31
0.0
  0
LINE
  5
200
330
1F
100
AcDbEntity
  8
0
  6
Continuous
 62
     7
370
    25
100
AcDbLine
 10
192.2364179259
 20
77.9498173077
 30
0.0
 11
192.2364179259
 21
77.3498173077
 31
0.0
  0
LINE
  5
201
330
1F
100
AcDbEntity
  8
0
  6
Continuous
 62
     7
370
    25
100
AcDbLine
 10
192.2364179259
 20
72.6998173077
 30
0.0
 11
192.9864179259
 21
71.9498173077
 31
0.0
  0
LINE
  5
202
330
1F
100
AcDbEntity
  8
0
  6
Continuous
 62
     7
370
    25
100
AcDbLine
 10
228.9864179259
 20
71.9498173077
 30
0.0
 11
229.7364179259
 21
72.6998173077
 31
0.0
  0
LINE
  5
203
330
1F
100
AcDbEntity
  8
0
  6
Continuous
 62
     7
370
    25
100
AcDbLine
 10
233.9902662005
 20
89.9498173077
 30
0.0
 11
233.9902662005
 21
94.9498173077
 31
0.0
  0
LINE
  5
204
330
1F
100
AcDbEntity
  8
0
  6
Continuous
 62
     7
370
    25
100
AcDbLine
 10
55.9902662005
 20
89.9498173077
 30
0.0
 11
233.9902662005
 21
89.9498173077
 31
0.0
  0
LINE
  5
205
330
1F
100
AcDbEntity
  8
0
  6
Continuous
 62
     7
370
    25
100
AcDbLine
 10
55.9902662005
 20
94.9498173077
 30
0.0
 11
55.9902662005
 21
89.9498173077
 31
0.0
  0
LINE
  5
206
330
1F
100
AcDbEntity
  8
0
  6
Continuous
 62
     7
370
    25
100
AcDbLine
 10
233.9902662005
 20
94.9498173077
 30
0.0
 11
55.9902662005
 21
94.9498173077
 31
0.0
  0
LINE
  5
207
330
1F
100
AcDbEntity
  8
0
  6
Continuous
 62
     7
370
    25
100
AcDbLine
 10
233.9902662005
 20
94.9498173077
 30
0.0
 11
233.9902662005
 21
95.9498173077
 31
0.0
  0
LINE
  5
208
330
1F
100
AcDbEntity
  8
0
  6
Continuous
 62
     7
370
    25
100
AcDbLine
 10
234.9902662005
 20
94.9498173077
 30
0.0
 11
233.9902662005
 21
95.9498173077
 31
0.0
  0
LINE
  5
209
330
1F
100
AcDbEntity
  8
0
  6
Continuous
 62
     7
370
    25
100
AcDbLine
 10
233.9902662005
 20
94.9498173077
 30
0.0
 11
234.9902662005
 21
94.9498173077
 31
0.0
  0
LINE
  5
20A
330
1F
100
AcDbEntity
  8
0
  6
Continuous
 62
     7
370
    25
100
AcDbLine
 10
234.9902662005
 20
94.9498173077
 30
0.0
 11
234.9902662005
 21
89.9498173077
 31
0.0
  0
LINE
  5
20B
330
1F
100
AcDbEntity
  8
0
  6
Continuous
 62
     7
370
    25
100
AcDbLine
 10
234.9902662005
 20
89.9498173077
 30
0.0
 11
233.9902662005
 21
89.9498173077
 31
0.0
  0
LINE
  5
20C
330
1F
100
AcDbEntity
  8
0
  6
Continuous
 62
     7
370
    25
100
AcDbLine
 10
55.9902662005
 20
94.9498173077
 30
0.0
 11
55.9902662005
 21
95.9498173077
 31
0.0
  0
LINE
  5
20D
330
1F
100
AcDbEntity
  8
0
  6
Continuous
 62
     7
370
    25
100
AcDbLine
 10
55.9902662005
 20
95.9498173077
 30
0.0
 11
233.9902662005
 21
95.9498173077
 31
0.0
  0
LINE
  5
20E
330
1F
100
AcDbEntity
  8
0
  6
Continuous
 62
     7
370
    25
100
AcDbLine
 10
54.9902662005
 20
89.9498173077
 30
0.0
 11
54.9902662005
 21
94.9498173077
 31
0.0
  0
LINE
  5
20F
330
1F
100
AcDbEntity
  8
0
  6
Continuous
 62
     7
370
    25
100
AcDbLine
 10
55.9902662005
 20
94.9498173077
 30
0.0
 11
54.9902662005
 21
94.9498173077
 31
0.0
  0
LINE
  5
210
330
1F
100
AcDbEntity
  8
0
  6
Continuous
 62
     7
370
    25
100
AcDbLine
 10
55.9902662005
 20
89.9498173077
 30
0.0
 11
54.9902662005
 21
89.9498173077
 31
0.0
  0
LINE
  5
211
330
1F
100
AcDbEntity
  8
0
  6
Continuous
 62
     7
370
    25
100
AcDbLine
 10
55.9902662005
 20
95.9498173077
 30
0.0
 11
54.9902662005
 21
94.9498173077
 31
0.0
  0
LINE
  5
212
330
1F
100
AcDbEntity
  8
0
  6
Continuous
 62
     7
370
    25
100
AcDbLine
 10
202.0364179259
 20
86.4498173077
 30
0.0
 11
219.9364179259
 21
86.4498173077
 31
0.0
  0
LINE
  5
213
330
1F
100
AcDbEntity
  8
0
  6
Continuous
 62
     7
370
    25
100
AcDbLine
 10
66.0402662005
 20
86.4498173077
 30
0.0
 11
83.9402662005
 21
86.4498173077
 31
0.0
  0
LINE
  5
214
330
1F
100
AcDbEntity
  8
0
  6
Continuous
 62
     7
370
    25
100
AcDbLine
 10
193.4864179259
 20
88.9498173077
 30
0.0
 11
228.4864179259
 21
88.9498173077
 31
0.0
  0
LINE
  5
215
330
1F
100
AcDbEntity
  8
0
  6
Continuous
 62
     7
370
    25
100
AcDbLine
 10
193.4864179259
 20
78.9498173077
 30
0.0
 11
228.4864179259
 21
78.9498173077
 31
0.0
  0
LINE
  5
216
330
1F
100
AcDbEntity
  8
0
  6
Continuous
 62
     7
370
    25
100
AcDbLine
 10
57.4902662005
 20
78.9498173077
 30
0.0
 11
92.4902662005
 21
78.9498173077
 31
0.0
  0
LINE
  5
217
330
1F
100
AcDbEntity
  8
0
  6
Continuous
 62
     7
370
    25
100
AcDbLine
 10
59.1412270756
 20
88.9498173077
 30
0.0
 11
92.4902662005
 21
88.9498173077
 31
0.0
  0
LINE
  5
218
330
1F
100
AcDbEntity
  8
0
  6
Continuous
 62
     7
370
    25
100
AcDbLine
 10
57.4902662005
 20
88.9498173077
 30
0.0
 11
59.1412270756
 21
88.9498173077
 31
0.0
  0
SPLINE
  5
219
330
1F
100
AcDbEntity
  8
0
  6
Continuous
 62
     7
370
    25
100
AcDbSpline
210
0.0
220
0.0
230
1.0
 70
    11
 71
     3
 72
    66
 73
    62
 74
     0
 42
0.000000001
 43
0.00000001
 40
0.0
 40
0.0
 40
0.0
 40
0.0
 40
0.0131332459492482
 40
0.0263581345991531
 40
0.0398717221720122
 40
0.0534848673906236
 40
0.0799145595444409
 40
0.0933284383252451
 40
0.1069361305807538
 40
0.1334686058942141
 40
0.146934866720056
 40
0.1605964210040984
 40
0.1738131448687559
 40
0.1871221037442594
 40
0.2007228223696384
 40
0.2144247576054092
 40
0.2409115859832043
 40
0.2543576239496103
 40
0.2680015752462401
 40
0.2943710462318262
 40
0.307755023646031
 40
0.3213330260816223
 40
0.3477639758050959
 40
0.3611777688355488
 40
0.3747847819081321
 40
0.4013598094435571
 40
0.4148485612171858
 40
0.4285340085122133
 40
0.4551117498176
 40
0.4686041127980021
 40
0.4822955609740993
 40
0.5087311207760113
 40
0.5221504413572223
 40
0.5357663917073332
 40
0.5621367392674362
 40
0.575520403030771
 40
0.5890973019132001
 40
0.615578927926513
 40
0.6290187463752992
 40
0.6426526424897695
 40
0.6692510497258032
 40
0.6827525823337122
 40
0.6964520326384557
 40
0.7229901052425999
 40
0.736462464297089
 40
0.7501336202362868
 40
0.7765268315484496
 40
0.7899237898332839
 40
0.8035160068443153
 40
0.8299064904970543
 40
0.8432998520887575
 40
0.8568861153233948
 40
0.8834194116339255
 40
0.8968861029383004
 40
0.9105481125783896
 40
0.9237647024827049
 40
0.9370735301860729
 40
0.9506741195887632
 40
0.9643759212448881
 40
0.9820747863160328
 40
1.0
 40
1.0
 40
1.0
 40
1.0
 10
193.1928025222647
 20
100.749817307692
 30
0.0
 10
193.2111696884643
 20
100.7484383508896
 30
0.0
 10
193.2480321854255
 20
100.7456708150387
 30
0.0
 10
193.3053499754086
 20
100.723115407075
 30
0.0
 10
193.3639700117195
 20
100.6866180395799
 30
0.0
 10
193.4420732983788
 20
100.6184001824744
 30
0.0
 10
193.5195428631727
 20
100.5222733130914
 30
0.0
 10
193.5940587005003
 20
100.4005157693512
 30
0.0
 10
193.6660551599262
 20
100.2619608326709
 30
0.0
 10
193.7331237759368
 20
100.0996954906069
 30
0.0
 10
193.7928508501928
 20
99.91775001832755
 30
0.0
 10
193.8335524897569
 20
99.77178049003491
 30
0.0
 10
193.8694340102054
 20
99.61841985249977
 30
0.0
 10
193.90025804062
 20
99.45847909965136
 30
0.0
 10
193.9259350396533
 20
99.2907242003373
 30
0.0
 10
193.9520899693559
 20
99.06237234614146
 30
0.0
 10
193.9661276656472
 20
98.82749917685749
 30
0.0
 10
193.9676103562786
 20
98.59161798287205
 30
0.0
 10
193.9606537417355
 20
98.35680062717461
 30
0.0
 10
193.9412827663165
 20
98.12520394432207
 30
0.0
 10
193.9103994641712
 20
97.90250461487189
 30
0.0
 10
193.8720565250324
 20
97.68665045965628
 30
0.0
 10
193.8232342193746
 20
97.48319918258763
 30
0.0
 10
193.7658505595501
 20
97.29704976870038
 30
0.0
 10
193.7031436364644
 20
97.12323057857643
 30
0.0
 10
193.633563040722
 20
96.9699260052505
 30
0.0
 10
193.5595844656303
 20
96.84089295053616
 30
0.0
 10
193.4833817465621
 20
96.72912710325396
 30
0.0
 10
193.4048938735496
 20
96.64413620048403
 30
0.0
 10
193.3265971116603
 20
96.58794416432995
 30
0.0
 10
193.2492221521881
 20
96.55161332903921
 30
0.0
 10
193.1738591860983
 20
96.54492821593209
 30
0.0
 10
193.102405514573
 20
96.56777572774864
 30
0.0
 10
193.0339571010901
 20
96.61032608995602
 30
0.0
 10
192.9703850421734
 20
96.68180154465163
 30
0.0
 10
192.9127656672925
 20
96.78019727542237
 30
0.0
 10
192.8591342074332
 20
96.89642698750079
 30
0.0
 10
192.8117275399156
 20
97.03812236753022
 30
0.0
 10
192.7709393923895
 20
97.20178004676363
 30
0.0
 10
192.7345295060844
 20
97.37957849761887
 30
0.0
 10
192.7046773903335
 20
97.57665863044329
 30
0.0
 10
192.6813796452714
 20
97.78818212571807
 30
0.0
 10
192.662470425894
 20
98.00779110199899
 30
0.0
 10
192.6499365061793
 20
98.23769967128591
 30
0.0
 10
192.6436668524774
 20
98.47213496542591
 30
0.0
 10
192.6416013559554
 20
98.70766587455958
 30
0.0
 10
192.6457174700103
 20
98.94328355331537
 30
0.0
 10
192.6559815111675
 20
99.17315062470928
 30
0.0
 10
192.6704513629626
 20
99.39801867884826
 30
0.0
 10
192.69127089151
 20
99.61342565526718
 30
0.0
 10
192.7184709904261
 20
99.81417632433116
 30
0.0
 10
192.7501418851056
 20
100.0044271991934
 30
0.0
 10
192.7885542340849
 20
100.176736032087
 30
0.0
 10
192.8335446993391
 20
100.326899572323
 30
0.0
 10
192.8707014436488
 20
100.4278250164957
 30
0.0
 10
192.9109126613438
 20
100.5157487280655
 30
0.0
 10
192.9541163304686
 20
100.5904977171741
 30
0.0
 10
193.000814923552
 20
100.6523264551978
 30
0.0
 10
193.0557185462855
 20
100.7043060362931
 30
0.0
 10
193.1193104046955
 20
100.7421591195602
 30
0.0
 10
193.1682016012905
 20
100.7472537881301
 30
0.0
 10
193.1928025222647
 20
100.749817307692
 30
0.0
  0
SPLINE
  5
21A
330
1F
100
AcDbEntity
  8
0
  6
Continuous
 62
     7
370
    25
100
AcDbSpline
210
0.0
220
0.0
230
1.0
 70
    11
 71
     3
 72
    66
 73
    62
 74
     0
 42
0.000000001
 43
0.00000001
 40
0.0
 40
0.0
 40
0.0
 40
0.0
 40
0.013133245949251
 40
0.0263581345991612
 40
0.0398717221720293
 40
0.0534848673906441
 40
0.0799145595444616
 40
0.0933284383252657
 40
0.1069361305807755
 40
0.1334686058942209
 40
0.1469348667200565
 40
0.1605964210040947
 40
0.1738131448687535
 40
0.1871221037442704
 40
0.2007228223696496
 40
0.2144247576054247
 40
0.240911585983215
 40
0.2543576239496211
 40
0.2680015752462525
 40
0.2943710462318379
 40
0.3077550236460362
 40
0.3213330260816295
 40
0.3477639758051003
 40
0.3611777688355485
 40
0.3747847819081324
 40
0.4013598094435639
 40
0.4148485612171977
 40
0.4285340085122284
 40
0.4551117498176092
 40
0.4686041127980004
 40
0.4822955609740965
 40
0.5087311207760037
 40
0.52215044135722
 40
0.5357663917073395
 40
0.5621367392674408
 40
0.5755204030307789
 40
0.5890973019132144
 40
0.6155789279265179
 40
0.6290187463753052
 40
0.6426526424897636
 40
0.6692510497258102
 40
0.6827525823337165
 40
0.6964520326384662
 40
0.7229901052426105
 40
0.7364624642971009
 40
0.7501336202362976
 40
0.7765268315484595
 40
0.7899237898332947
 40
0.8035160068443276
 40
0.8299064904970626
 40
0.8432998520887623
 40
0.8568861153234054
 40
0.8834194116339379
 40
0.8968861029383183
 40
0.9105481125784067
 40
0.9237647024827121
 40
0.9370735301860766
 40
0.9506741195887669
 40
0.9643759212448788
 40
0.9820747863160333
 40
1.0
 40
1.0
 40
1.0
 40
1.0
 10
216.8982493567311
 20
100.749817307692
 30
0.0
 10
216.9530407638977
 20
100.7484383508896
 30
0.0
 10
217.0630059081245
 20
100.7456708150386
 30
0.0
 10
217.2275493692787
 20
100.723115407075
 30
0.0
 10
217.3912647925138
 20
100.6866180395799
 30
0.0
 10
217.6030721714736
 20
100.6184001824746
 30
0.0
 10
217.8047039294442
 20
100.5222733130913
 30
0.0
 10
217.9918223352044
 20
100.4005157693511
 30
0.0
 10
218.1685298506493
 20
100.261960832671
 30
0.0
 10
218.3278682628289
 20
100.0996954906068
 30
0.0
 10
218.466234610782
 20
99.91775001832768
 30
0.0
 10
218.5590463799381
 20
99.77178049003479
 30
0.0
 10
218.6397535113392
 20
99.6184198524998
 30
0.0
 10
218.7082834913423
 20
99.45847909965143
 30
0.0
 10
218.7648138449559
 20
99.2907242003372
 30
0.0
 10
218.8219419548192
 20
99.0623723461415
 30
0.0
 10
218.852305812883
 20
98.82749917685743
 30
0.0
 10
218.8555159651728
 20
98.59161798287202
 30
0.0
 10
218.8404632971908
 20
98.3568006271746
 30
0.0
 10
218.7984456871938
 20
98.12520394432211
 30
0.0
 10
218.7306699626637
 20
97.90250461487183
 30
0.0
 10
218.6457549486184
 20
97.6866504596563
 30
0.0
 10
218.5359785441107
 20
97.48319918258763
 30
0.0
 10
218.4038944051215
 20
97.29704976870045
 30
0.0
 10
218.2571008530991
 20
97.12323057857631
 30
0.0
 10
218.0897471022075
 20
96.9699260052505
 30
0.0
 10
217.9056592735519
 20
96.84089295053609
 30
0.0
 10
217.7114376531619
 20
96.72912710325399
 30
0.0
 10
217.5037087277979
 20
96.64413620048401
 30
0.0
 10
217.2874914391789
 20
96.58794416432997
 30
0.0
 10
217.067401354648
 20
96.55161332903917
 30
0.0
 10
216.8429694110946
 20
96.54492821593207
 30
0.0
 10
216.619799768689
 20
96.56777572774861
 30
0.0
 10
216.3988788863392
 20
96.61032608995598
 30
0.0
 10
216.1830819633897
 20
96.6818015446516
 30
0.0
 10
215.9778041120061
 20
96.78019727542242
 30
0.0
 10
215.780346611046
 20
96.89642698750062
 30
0.0
 10
215.5968780200279
 20
97.0381223675303
 30
0.0
 10
215.4320797334121
 20
97.20178004676342
 30
0.0
 10
215.280703722378
 20
97.37957849761912
 30
0.0
 10
215.1512659906773
 20
97.576658630443
 30
0.0
 10
215.0471938968293
 20
97.78818212571811
 30
0.0
 10
214.9611192412676
 20
98.00779110199895
 30
0.0
 10
214.9025999981442
 20
98.23769967128592
 30
0.0
 10
214.8730705326226
 20
98.4721349654259
 30
0.0
 10
214.8632887871873
 20
98.70766587455958
 30
0.0
 10
214.8828130506519
 20
98.94328355331538
 30
0.0
 10
214.9308147005389
 20
99.17315062470925
 30
0.0
 10
214.9976887172614
 20
99.39801867884817
 30
0.0
 10
215.0920078416697
 20
99.61342565526714
 30
0.0
 10
215.2110917311321
 20
99.8141763243312
 30
0.0
 10
215.3464523348124
 20
100.0044271991933
 30
0.0
 10
215.5045939150952
 20
100.1767360320871
 30
0.0
 10
215.6813626260802
 20
100.326899572323
 30
0.0
 10
215.8228269483599
 20
100.4278250164956
 30
0.0
 10
215.9710633441637
 20
100.5157487280655
 30
0.0
 10
216.1252420263831
 20
100.5904977171741
 30
0.0
 10
216.2864799772627
 20
100.6523264551977
 30
0.0
 10
216.4695943911049
 20
100.7043060362931
 30
0.0
 10
216.6743217040413
 20
100.7421591195602
 30
0.0
 10
216.8232912976908
 20
100.7472537881301
 30
0.0
 10
216.8982493567311
 20
100.749817307692
 30
0.0
  0
LINE
  5
21B
330
1F
100
AcDbEntity
  8
0
  6
Continuous
 62
     7
370
    25
100
AcDbLine
 10
193.1928025223
 20
101.1998173077
 30
0.0
 11
192.2364179259
 21
101.1998173077
 31
0.0
  0
LINE
  5
21C
330
1F
100
AcDbEntity
  8
0
  6
Continuous
 62
     7
370
    25
100
AcDbLine
 10
229.7364179259
 20
101.1998173077
 30
0.0
 11
193.1928025223
 21
101.1998173077
 31
0.0
  0
LINE
  5
21D
330
1F
100
AcDbEntity
  8
0
  6
Continuous
 62
     7
370
    25
100
AcDbLine
 10
193.9045471384
 20
101.9498173077
 30
0.0
 11
228.9864179259
 21
101.9498173077
 31
0.0
  0
LINE
  5
21E
330
1F
100
AcDbEntity
  8
0
  6
Continuous
 62
     7
370
    25
100
AcDbLine
 10
192.9864179259
 20
101.9498173077
 30
0.0
 11
193.9045471384
 21
101.9498173077
 31
0.0
  0
ARC
  5
21F
330
1F
100
AcDbEntity
  8
0
  6
Continuous
 62
     7
370
    25
100
AcDbCircle
 10
215.1879761037
 20
98.6497486062
 30
0.0
 40
2.13722641011183
100
AcDbArc
 50
294.8729917129
 51
65.2856686395
  0
LINE
  5
220
330
1F
100
AcDbEntity
  8
0
  6
Continuous
 62
     7
370
    25
100
AcDbLine
 10
205.0552127914
 20
88.4498173077
 30
0.0
 11
204.7364179259
 21
88.4498173077
 31
0.0
  0
LINE
  5
221
330
1F
100
AcDbEntity
  8
0
  6
Continuous
 62
     7
370
    25
100
AcDbLine
 10
217.2364179259
 20
88.4498173077
 30
0.0
 11
205.0552127914
 21
88.4498173077
 31
0.0
  0
LINE
  5
222
330
1F
100
AcDbEntity
  8
0
  6
Continuous
 62
     7
370
    25
100
AcDbLine
 10
56.2402662005
 20
77.9498173077
 30
0.0
 11
93.7402662005
 21
77.9498173077
 31
0.0
  0
SPLINE
  5
223
330
1F
100
AcDbEntity
  8
0
  6
Continuous
 62
     7
370
    25
100
AcDbSpline
210
0.0
220
0.0
230
1.0
 70
     8
 71
     3
 72
    37
 73
    33
 74
     0
 42
0.000000001
 43
0.00000001
 40
0.0
 40
0.0
 40
0.0
 40
0.0
 40
0.0262669638229548
 40
0.0527172163402714
 40
0.0797448770774827
 40
0.1069716566836584
 40
0.1598319907045774
 40
0.186660230274784
 40
0.2138761037588099
 40
0.2669420077923823
 40
0.2938750133349383
 40
0.3211986128114875
 40
0.3476325354649198
 40
0.3742509314543782
 40
0.401452857427558
 40
0.4288572202585959
 40
0.4818318287805791
 40
0.5087243878775839
 40
0.5360127807467696
 40
0.5887526702672646
 40
0.6155211060298094
 40
0.6426775988071403
 40
0.6955404480125603
 40
0.7223685160789837
 40
0.7495830311727536
 40
0.8027340411793081
 40
0.8297120294256177
 40
0.8570834157826989
 40
0.9102398534266904
 40
0.9372250642163118
 40
0.9646084525511648
 40
1.0
 40
1.0
 40
1.0
 40
1.0
 10
93.740266200501
 20
73.14981730769219
 30
0.0
 10
93.74011149498703
 20
73.15119626449459
 30
0.0
 10
93.73980100443688
 20
73.15396380034555
 30
0.0
 10
93.73728700415074
 20
73.17651920830923
 30
0.0
 10
93.73327610301567
 20
73.21301657580429
 30
0.0
 10
93.7259390190494
 20
73.28123443290983
 30
0.0
 10
93.71599498293112
 20
73.3773613022928
 30
0.0
 10
93.7042779867478
 20
73.49911884603297
 30
0.0
 10
93.6916693325832
 20
73.63767378271336
 30
0.0
 10
93.6782607285462
 20
73.79993912477732
 30
0.0
 10
93.66520675181519
 20
73.98188459705668
 30
0.0
 10
93.65584452319354
 20
74.12785412534927
 30
0.0
 10
93.64723998885468
 20
74.28121476288452
 30
0.0
 10
93.63959554871299
 20
74.44115551573265
 30
0.0
 10
93.63305215008747
 20
74.60891041504773
 30
0.0
 10
93.62624366984303
 20
74.83726226923852
 30
0.0
 10
93.62249565072672
 20
75.0721354385524
 30
0.0
 10
93.62210074151062
 20
75.30801663246727
 30
0.0
 10
93.62395644756924
 20
75.54283398845179
 30
0.0
 10
93.62909130920124
 20
75.7744306695957
 30
0.0
 10
93.63702981323725
 20
75.99713000307743
 30
0.0
 10
93.64664347878835
 20
76.21298414183278
 30
0.0
 10
93.65836326213916
 20
76.416435517587
 30
0.0
 10
93.67117409529268
 20
76.60258469840925
 30
0.0
 10
93.68439895558811
 20
76.7764048414778
 30
0.0
 10
93.69766355335294
 20
76.92970368211691
 30
0.0
 10
93.70982773628525
 20
77.05875028395175
 30
0.0
 10
93.72089978252036
 20
77.1704608828666
 30
0.0
 10
93.72992461860356
 20
77.25578225565226
 30
0.0
 10
93.7359678355879
 20
77.31119384125518
 30
0.0
 10
93.73964095265485
 20
77.34425986757829
 30
0.0
 10
93.73958184828965
 20
77.34370665231374
 30
0.0
 10
93.73954852615368
 20
77.34339475801961
 30
0.0
  0
SPLINE
  5
224
330
1F
100
AcDbEntity
  8
0
  6
Continuous
 62
     7
370
    25
100
AcDbSpline
210
0.0
220
0.0
230
1.0
 70
    11
 71
     3
 72
    66
 73
    62
 74
     0
 42
0.000000001
 43
0.00000001
 40
0.0
 40
0.0
 40
0.0
 40
0.0
 40
0.0131332459492523
 40
0.0263581345991618
 40
0.0398717221720297
 40
0.0534848673906445
 40
0.0799145595444615
 40
0.0933284383252668
 40
0.106936130580776
 40
0.1334686058942213
 40
0.1469348667200572
 40
0.1605964210040949
 40
0.1738131448687542
 40
0.1871221037442707
 40
0.2007228223696502
 40
0.214424757605425
 40
0.2409115859832154
 40
0.2543576239496215
 40
0.2680015752462529
 40
0.2943710462318382
 40
0.3077550236460367
 40
0.3213330260816299
 40
0.3477639758051008
 40
0.3611777688355493
 40
0.3747847819081329
 40
0.4013598094435643
 40
0.4148485612171974
 40
0.4285340085122282
 40
0.45511174981761
 40
0.4686041127980001
 40
0.4822955609740965
 40
0.5087311207760041
 40
0.52215044135722
 40
0.5357663917073405
 40
0.5621367392674406
 40
0.5755204030307789
 40
0.5890973019132153
 40
0.6155789279265185
 40
0.6290187463753049
 40
0.6426526424897636
 40
0.6692510497258101
 40
0.6827525823337168
 40
0.6964520326384666
 40
0.7229901052426109
 40
0.7364624642971013
 40
0.7501336202362979
 40
0.7765268315484599
 40
0.7899237898332948
 40
0.8035160068443277
 40
0.8299064904970627
 40
0.8432998520887629
 40
0.8568861153234061
 40
0.8834194116339381
 40
0.8968861029383195
 40
0.9105481125784067
 40
0.9237647024827131
 40
0.9370735301860764
 40
0.9506741195887674
 40
0.9643759212448795
 40
0.9820747863160336
 40
1.0
 40
1.0
 40
1.0
 40
1.0
 10
74.99026620050053
 20
73.1498173076922
 30
0.0
 10
74.93247842359474
 20
73.1511962644946
 30
0.0
 10
74.81649963147018
 20
73.15396380034558
 30
0.0
 10
74.64227690201247
 20
73.17651920830922
 30
0.0
 10
74.46842937935482
 20
73.21301657580436
 30
0.0
 10
74.24279991237908
 20
73.28123443290966
 30
0.0
 10
74.0270268477086
 20
73.37736130229291
 30
0.0
 10
73.82595815350864
 20
73.49911884603308
 30
0.0
 10
73.63556367348156
 20
73.63767378271324
 30
0.0
 10
73.46320608534792
 20
73.79993912477742
 30
0.0
 10
73.31306560667353
 20
73.98188459705652
 30
0.0
 10
73.21215477161466
 20
74.12785412534944
 30
0.0
 10
73.12425092324862
 20
74.28121476288442
 30
0.0
 10
73.04949771900215
 20
74.4411555157328
 30
0.0
 10
72.98775492109438
 20
74.60891041504702
 30
0.0
 10
72.92529416636732
 20
74.83726226924271
 30
0.0
 10
72.89205303000956
 20
75.0721354385268
 30
0.0
 10
72.8885391296197
 20
75.30801663251219
 30
0.0
 10
72.90501740788002
 20
75.54283398820962
 30
0.0
 10
72.95099944168228
 20
75.7744306710621
 30
0.0
 10
73.02505555113854
 20
75.99713000051237
 30
0.0
 10
73.11772872952096
 20
76.21298415572791
 30
0.0
 10
73.23729930889775
 20
76.41643543279659
 30
0.0
 10
73.38073914323742
 20
76.60258484668378
 30
0.0
 10
73.53981651749068
 20
76.77640403680789
 30
0.0
 10
73.72057262589674
 20
76.9297086101337
 30
0.0
 10
73.91859592664481
 20
77.05874166484813
 30
0.0
 10
74.12693739043138
 20
77.17050751213024
 30
0.0
 10
74.34881769340505
 20
77.2554984149002
 30
0.0
 10
74.57869313528126
 20
77.31169045105423
 30
0.0
 10
74.81195319051692
 20
77.34802128634504
 30
0.0
 10
75.04869926195889
 20
77.35470639945214
 30
0.0
 10
75.28301482718072
 20
77.33185888763562
 30
0.0
 10
75.5142487843748
 20
77.28930852542825
 30
0.0
 10
75.7390826376167
 20
77.21783307073261
 30
0.0
 10
75.95205710000874
 20
77.1194373399618
 30
0.0
 10
76.15635272564802
 20
77.00320762788361
 30
0.0
 10
76.34541031360983
 20
76.86151224785392
 30
0.0
 10
76.51466311274471
 20
76.69785456862081
 30
0.0
 10
76.66979781311443
 20
76.52005611776511
 30
0.0
 10
76.80204559406242
 20
76.32297598494121
 30
0.0
 10
76.90815498892728
 20
76.11145248966612
 30
0.0
 10
76.9958012521012
 20
75.89184351338527
 30
0.0
 10
77.05528750950775
 20
75.66193494409829
 30
0.0
 10
77.08528756755497
 20
75.42749964995832
 30
0.0
 10
77.09522162000899
 20
75.19196874082465
 30
0.0
 10
77.07539543293832
 20
74.95635106206885
 30
0.0
 10
77.02660598344777
 20
74.72648399067495
 30
0.0
 10
76.95858071098355
 20
74.50161593653604
 30
0.0
 10
76.86250819001442
 20
74.2862089601171
 30
0.0
 10
76.74092230577124
 20
74.085458291053
 30
0.0
 10
76.60248030506152
 20
73.8952074161909
 30
0.0
 10
76.44029375621318
 20
73.72289858329712
 30
0.0
 10
76.25835612926686
 20
73.5727350430612
 30
0.0
 10
76.11239206778055
 20
73.47180959888863
 30
0.0
 10
75.95903828877276
 20
73.3838858873187
 30
0.0
 10
75.79910180963068
 20
73.30913689821008
 30
0.0
 10
75.63136419380166
 20
73.24730816018652
 30
0.0
 10
75.44027894487803
 20
73.1953285790911
 30
0.0
 10
75.22594382934162
 20
73.15747549582404
 30
0.0
 10
75.06915747366371
 20
73.15238082725415
 30
0.0
 10
74.99026620050053
 20
73.1498173076922
 30
0.0
  0
SPLINE
  5
225
330
1F
100
AcDbEntity
  8
0
  6
Continuous
 62
     7
370
    25
100
AcDbSpline
210
0.0
220
0.0
230
1.0
 70
     8
 71
     3
 72
    38
 73
    34
 74
     0
 42
0.000000001
 43
0.00000001
 40
0.0
 40
0.0
 40
0.0
 40
0.0
 40
0.0526683249483505
 40
0.0796943771369344
 40
0.1069195363439569
 40
0.1332792650985469
 40
0.1866022843068324
 40
0.213816538040775
 40
0.2402788546097673
 40
0.2938094525178505
 40
0.3211314258329914
 40
0.374134509272439
 40
0.4013348163256265
 40
0.4287375481886633
 40
0.4551534138394616
 40
0.5085986433804246
 40
0.5358854121835426
 40
0.5621848825581842
 40
0.6153878973742194
 40
0.6425427739355002
 40
0.6689040310712122
 40
0.7222278438350098
 40
0.7494407392595458
 40
0.775945263718796
 40
0.8026347803782211
 40
0.8296111630321622
 40
0.856980920383823
 40
0.883487482175585
 40
0.9101808618542533
 40
0.9371644666216479
 40
0.964546225236801
 40
0.990911123607663
 40
1.0
 40
1.0
 40
1.0
 40
1.0
 10
56.24026620050029
 20
77.34981730769191
 30
0.0
 10
56.24086641871251
 20
77.34449839508225
 30
0.0
 10
56.24177463093714
 20
77.33645015303381
 30
0.0
 10
56.24728766685431
 20
77.28634069565369
 30
0.0
 10
56.25277405565396
 20
77.23531781373124
 30
0.0
 10
56.26183920993226
 20
77.1485454548378
 30
0.0
 10
56.27313417037887
 20
77.03479966294022
 30
0.0
 10
56.28573445533816
 20
76.8963340654431
 30
0.0
 10
56.29886312924247
 20
76.74213840209455
 30
0.0
 10
56.31224418697244
 20
76.56579960699568
 30
0.0
 10
56.32776774730469
 20
76.32378650818347
 30
0.0
 10
56.33881510369079
 20
76.11291797480789
 30
0.0
 10
56.34747978964837
 20
75.89074863888861
 30
0.0
 10
56.35260686579947
 20
75.71868592879514
 30
0.0
 10
56.35736745957974
 20
75.48652410358773
 30
0.0
 10
56.35889840801947
 20
75.24989586417722
 30
0.0
 10
56.35703104185448
 20
75.01482796221552
 30
0.0
 10
56.35300040167036
 20
74.78255105936891
 30
0.0
 10
56.34588541946962
 20
74.55589668079496
 30
0.0
 10
56.33627100862983
 20
74.34018745088731
 30
0.0
 10
56.32526898139482
 20
74.132829914005
 30
0.0
 10
56.31262600576106
 20
73.93996845394466
 30
0.0
 10
56.2994192522028
 20
73.76642459236638
 30
0.0
 10
56.28949658297336
 20
73.64652454841237
 30
0.0
 10
56.27987722994139
 20
73.5381964170502
 30
0.0
 10
56.27070480234493
 20
73.44088558423533
 30
0.0
 10
56.26237406695278
 20
73.35682977521518
 30
0.0
 10
56.25511736690077
 20
73.28650670896351
 30
0.0
 10
56.24914536486222
 20
73.23043179978886
 30
0.0
 10
56.24446348724374
 20
73.18753871860375
 30
0.0
 10
56.24163988033458
 20
73.16208814696296
 30
0.0
 10
56.23995968536265
 20
73.14706640879687
 30
0.0
 10
56.24057421743984
 20
73.15257787099183
 30
0.0
 10
56.24073175795918
 20
73.15399078115347
 30
0.0
  0
LINE
  5
226
330
1F
100
AcDbEntity
  8
0
  6
Continuous
 62
     7
370
    25
100
AcDbLine
 10
56.2402662005
 20
72.6998173077
 30
0.0
 11
93.7402662005
 21
72.6998173077
 31
0.0
  0
LINE
  5
227
330
1F
100
AcDbEntity
  8
0
  6
Continuous
 62
     7
370
    25
100
AcDbLine
 10
92.9902662005
 20
71.9498173077
 30
0.0
 11
56.9902662005
 21
71.9498173077
 31
0.0
  0
SPLINE
  5
228
330
1F
100
AcDbEntity
  8
0
  6
Continuous
 62
     7
370
    25
100
AcDbSpline
210
0.0
220
0.0
230
1.0
 70
    11
 71
     3
 72
    66
 73
    62
 74
     0
 42
0.000000001
 43
0.00000001
 40
0.0
 40
0.0
 40
0.0
 40
0.0
 40
0.0131332459492483
 40
0.0263581345991528
 40
0.0398717221720127
 40
0.0534848673906237
 40
0.079914559544441
 40
0.0933284383252451
 40
0.1069361305807535
 40
0.1334686058942144
 40
0.1469348667200561
 40
0.1605964210040986
 40
0.1738131448687559
 40
0.1871221037442594
 40
0.2007228223696384
 40
0.2144247576054093
 40
0.2409115859832043
 40
0.2543576239496103
 40
0.2680015752462401
 40
0.2943710462318263
 40
0.3077550236460309
 40
0.3213330260816225
 40
0.3477639758050957
 40
0.3611777688355489
 40
0.374784781908132
 40
0.4013598094435573
 40
0.4148485612171856
 40
0.4285340085122134
 40
0.4551117498175995
 40
0.4686041127980021
 40
0.4822955609740994
 40
0.5087311207760115
 40
0.522150441357222
 40
0.5357663917073328
 40
0.5621367392674358
 40
0.5755204030307711
 40
0.5890973019131999
 40
0.6155789279265128
 40
0.6290187463752991
 40
0.6426526424897693
 40
0.669251049725803
 40
0.682752582333712
 40
0.6964520326384556
 40
0.7229901052425999
 40
0.736462464297089
 40
0.7501336202362868
 40
0.7765268315484496
 40
0.7899237898332838
 40
0.8035160068443153
 40
0.8299064904970542
 40
0.8432998520887576
 40
0.8568861153233948
 40
0.8834194116339255
 40
0.8968861029383004
 40
0.9105481125783893
 40
0.9237647024827048
 40
0.9370735301860729
 40
0.9506741195887637
 40
0.964375921244888
 40
0.9820747863160328
 40
0.9999999999999999
 40
0.9999999999999999
 40
0.9999999999999999
 40
0.9999999999999999
 10
57.67037055668064
 20
100.749817307692
 30
0.0
 10
57.69264904843298
 20
100.7484383508896
 30
0.0
 10
57.73736148940478
 20
100.7456708150387
 30
0.0
 10
57.80641969155763
 20
100.723115407075
 30
0.0
 10
57.87671689976793
 20
100.6866180395799
 30
0.0
 10
57.96992164950372
 20
100.6184001824744
 30
0.0
 10
58.06175902217567
 20
100.5222733130914
 30
0.0
 10
58.14960162377239
 20
100.4005157693512
 30
0.0
 10
58.23417912092496
 20
100.2619608326709
 30
0.0
 10
58.31258652940531
 20
100.0996954906069
 30
0.0
 10
58.38215610346416
 20
99.91775001832754
 30
0.0
 10
58.42945811101322
 20
99.77178049003491
 30
0.0
 10
58.47107789400599
 20
99.61841985249976
 30
0.0
 10
58.50677346209908
 20
99.45847909965136
 30
0.0
 10
58.53646833636904
 20
99.2907242003373
 30
0.0
 10
58.56668308697681
 20
99.06237234614146
 30
0.0
 10
58.58287824095542
 20
98.82749917685749
 30
0.0
 10
58.58458902776508
 20
98.59161798287205
 30
0.0
 10
58.57656286235709
 20
98.35680062717461
 30
0.0
 10
58.55420624734253
 20
98.12520394432205
 30
0.0
 10
58.51850606657422
 20
97.90250461487187
 30
0.0
 10
58.47412722931418
 20
97.68665045965628
 30
0.0
 10
58.41749988519786
 20
97.48319918258761
 30
0.0
 10
58.35072156486797
 20
97.29704976870038
 30
0.0
 10
58.27757096463242
 20
97.12323057857641
 30
0.0
 10
58.19607893817605
 20
96.9699260052505
 30
0.0
 10
58.10899119016624
 20
96.84089295053616
 30
0.0
 10
58.0189528235313
 20
96.72912710325396
 30
0.0
 10
57.92565921058211
 20
96.64413620048401
 30
0.0
 10
57.83194282199866
 20
96.58794416432995
 30
0.0
 10
57.73886596949583
 20
96.55161332903921
 30
0.0
 10
57.64748209843076
 20
96.54492821593209
 30
0.0
 10
57.56008851832417
 20
96.56777572774863
 30
0.0
 10
57.47585483971133
 20
96.610326089956
 30
0.0
 10
57.3968550354651
 20
96.68180154465162
 30
0.0
 10
57.32455248342779
 20
96.78019727542235
 30
0.0
 10
57.25679253581548
 20
96.89642698750079
 30
0.0
 10
57.19625197521845
 20
97.0381223675302
 30
0.0
 10
57.1436617874467
 20
97.20178004676362
 30
0.0
 10
57.09640833680038
 20
97.37957849761887
 30
0.0
 10
57.05728081915998
 20
97.57665863044329
 30
0.0
 10
57.02652351174373
 20
97.78818212571805
 30
0.0
 10
57.00144379004193
 20
98.00779110199898
 30
0.0
 10
56.98471391344371
 20
98.2376996712859
 30
0.0
 10
56.97632678884587
 20
98.47213496542591
 30
0.0
 10
56.97355984253143
 20
98.70766587455957
 30
0.0
 10
56.97907606041408
 20
98.94328355331537
 30
0.0
 10
56.99278196906057
 20
99.17315062470928
 30
0.0
 10
57.01204645024388
 20
99.39801867884825
 30
0.0
 10
57.0396272497514
 20
99.61342565526716
 30
0.0
 10
57.07536149319084
 20
99.81417632433114
 30
0.0
 10
57.11673103417218
 20
100.0044271991934
 30
0.0
 10
57.16647060678806
 20
100.176736032087
 30
0.0
 10
57.22411713431791
 20
100.326899572323
 30
0.0
 10
57.27139925078976
 20
100.4278250164957
 30
0.0
 10
57.32221721965758
 20
100.5157487280655
 30
0.0
 10
57.37644921893523
 20
100.5904977171741
 30
0.0
 10
57.43467712303124
 20
100.6523264551978
 30
0.0
 10
57.50266944577731
 20
100.7043060362931
 30
0.0
 10
57.58088908425862
 20
100.7421591195602
 30
0.0
 10
57.6404173221772
 20
100.7472537881301
 30
0.0
 10
57.67037055668064
 20
100.749817307692
 30
0.0
  0
SPLINE
  5
229
330
1F
100
AcDbEntity
  8
0
  6
Continuous
 62
     7
370
    25
100
AcDbSpline
210
0.0
220
0.0
230
1.0
 70
    11
 71
     3
 72
    66
 73
    62
 74
     0
 42
0.000000001
 43
0.00000001
 40
0.0
 40
0.0
 40
0.0
 40
0.0
 40
0.0131332459492524
 40
0.0263581345991619
 40
0.0398717221720298
 40
0.0534848673906447
 40
0.0799145595444615
 40
0.0933284383252668
 40
0.1069361305807762
 40
0.1334686058942213
 40
0.1469348667200573
 40
0.160596421004095
 40
0.1738131448687543
 40
0.1871221037442708
 40
0.2007228223696503
 40
0.214424757605425
 40
0.2409115859832155
 40
0.2543576239496216
 40
0.268001575246253
 40
0.2943710462318384
 40
0.3077550236460367
 40
0.32133302608163
 40
0.3477639758051009
 40
0.3611777688355494
 40
0.3747847819081329
 40
0.4013598094435643
 40
0.4148485612171975
 40
0.4285340085122282
 40
0.45511174981761
 40
0.4686041127980003
 40
0.4822955609740965
 40
0.5087311207760041
 40
0.5221504413572202
 40
0.5357663917073406
 40
0.5621367392674407
 40
0.5755204030307791
 40
0.5890973019132154
 40
0.6155789279265186
 40
0.6290187463753049
 40
0.6426526424897637
 40
0.6692510497258102
 40
0.6827525823337167
 40
0.6964520326384666
 40
0.7229901052426109
 40
0.7364624642971013
 40
0.7501336202362979
 40
0.7765268315484599
 40
0.7899237898332948
 40
0.8035160068443277
 40
0.8299064904970629
 40
0.843299852088763
 40
0.8568861153234063
 40
0.883419411633938
 40
0.8968861029383194
 40
0.9105481125784066
 40
0.9237647024827131
 40
0.9370735301860764
 40
0.9506741195887672
 40
0.9643759212448794
 40
0.9820747863160335
 40
1.0
 40
1.0
 40
1.0
 40
1.0
 10
82.17244657189256
 20
100.749817307692
 30
0.0
 10
82.22576748616405
 20
100.7484383508896
 30
0.0
 10
82.33278138362309
 20
100.7456708150386
 30
0.0
 10
82.49275276972875
 20
100.723115407075
 30
0.0
 10
82.65180417959353
 20
100.6866180395799
 30
0.0
 10
82.85741391621967
 20
100.6184001824746
 30
0.0
 10
83.05292042831685
 20
100.5222733130913
 30
0.0
 10
83.23416497342525
 20
100.4005157693511
 30
0.0
 10
83.40520790125339
 20
100.261960832671
 30
0.0
 10
83.5592832307026
 20
100.0996954906068
 30
0.0
 10
83.69297183908166
 20
99.9177500183277
 30
0.0
 10
83.78259978137042
 20
99.77178049003479
 30
0.0
 10
83.86050304338386
 20
99.61841985249981
 30
0.0
 10
83.92662645397888
 20
99.45847909965141
 30
0.0
 10
83.98115354450402
 20
99.2907242003372
 30
0.0
 10
84.03624229226621
 20
99.0623723461415
 30
0.0
 10
84.06551237564993
 20
98.82749917685743
 30
0.0
 10
84.06860699319088
 20
98.59161798287202
 30
0.0
 10
84.05409637748653
 20
98.3568006271746
 30
0.0
 10
84.01358840291803
 20
98.12520394432211
 30
0.0
 10
83.94822155902848
 20
97.90250461487183
 30
0.0
 10
83.86629928247588
 20
97.6866504596563
 30
0.0
 10
83.76033787244991
 20
97.48319918258763
 30
0.0
 10
83.63274570920575
 20
97.29704976870045
 30
0.0
 10
83.4908672583987
 20
97.12323057857631
 30
0.0
 10
83.32897906591583
 20
96.9699260052505
 30
0.0
 10
83.15071835129167
 20
96.84089295053609
 30
0.0
 10
82.96251105931285
 20
96.72912710325399
 30
0.0
 10
82.76099690490724
 20
96.64413620048403
 30
0.0
 10
82.55100276848661
 20
96.58794416432997
 30
0.0
 10
82.33707934950155
 20
96.55161332903917
 30
0.0
 10
82.11868003161301
 20
96.54492821593207
 30
0.0
 10
81.90125722089145
 20
96.56777572774861
 30
0.0
 10
81.68586012491788
 20
96.61032608995596
 30
0.0
 10
81.47522121692965
 20
96.6818015446516
 30
0.0
 10
81.27464372666923
 20
96.78019727542242
 30
0.0
 10
81.08157796670208
 20
96.89642698750062
 30
0.0
 10
80.90201472843255
 20
97.03812236753029
 30
0.0
 10
80.74059471604166
 20
97.20178004676342
 30
0.0
 10
80.59224550660876
 20
97.37957849761912
 30
0.0
 10
80.46530334432252
 20
97.57665863044302
 30
0.0
 10
80.36318687315648
 20
97.7881821257181
 30
0.0
 10
80.27870366496164
 20
98.00779110199895
 30
0.0
 10
80.22124313774388
 20
98.23769967128592
 30
0.0
 10
80.19224393029754
 20
98.4721349654259
 30
0.0
 10
80.18263701467713
 20
98.70766587455958
 30
0.0
 10
80.20181279625236
 20
98.94328355331537
 30
0.0
 10
80.24894725287298
 20
99.17315062470925
 30
0.0
 10
80.31460081704364
 20
99.39801867884817
 30
0.0
 10
80.4071688973771
 20
99.61342565526714
 30
0.0
 10
80.52397592608826
 20
99.8141763243312
 30
0.0
 10
80.65669404722294
 20
100.0044271991933
 30
0.0
 10
80.81164643631202
 20
100.1767360320871
 30
0.0
 10
80.98470191010823
 20
100.326899572323
 30
0.0
 10
81.12311137361313
 20
100.4278250164956
 30
0.0
 10
81.2680544835203
 20
100.5157487280655
 30
0.0
 10
81.41870810389193
 20
100.5904977171741
 30
0.0
 10
81.57614998708834
 20
100.6523264551977
 30
0.0
 10
81.75481822823278
 20
100.7043060362931
 30
0.0
 10
81.95441503500601
 20
100.7421591195602
 30
0.0
 10
82.09946219225803
 20
100.7472537881301
 30
0.0
 10
82.17244657189256
 20
100.749817307692
 30
0.0
  0
LINE
  5
22A
330
1F
100
AcDbEntity
  8
0
  6
Continuous
 62
     7
370
    25
100
AcDbLine
 10
57.6703705567
 20
101.1998173077
 30
0.0
 11
56.2402662005
 21
101.1998173077
 31
0.0
  0
LINE
  5
22B
330
1F
100
AcDbEntity
  8
0
  6
Continuous
 62
     7
370
    25
100
AcDbLine
 10
93.7402662005
 20
101.1998173077
 30
0.0
 11
57.6703705567
 21
101.1998173077
 31
0.0
  0
LINE
  5
22C
330
1F
100
AcDbEntity
  8
0
  6
Continuous
 62
     7
370
    25
100
AcDbLine
 10
58.3631663824
 20
101.9498173077
 30
0.0
 11
92.9902662005
 21
101.9498173077
 31
0.0
  0
LINE
  5
22D
330
1F
100
AcDbEntity
  8
0
  6
Continuous
 62
     7
370
    25
100
AcDbLine
 10
56.9902662005
 20
101.9498173077
 30
0.0
 11
58.3631663824
 21
101.9498173077
 31
0.0
  0
ARC
  5
22E
330
1F
100
AcDbEntity
  8
0
  6
Continuous
 62
     7
370
    25
100
AcDbCircle
 10
80.0373752366
 20
98.6495878386
 30
0.0
 40
2.172466904580196
100
AcDbArc
 50
302.4860100658
 51
57.9656016338
  0
LINE
  5
22F
330
1F
100
AcDbEntity
  8
0
  6
Continuous
 62
     7
370
    25
100
AcDbLine
 10
69.2169676526
 20
88.4498173077
 30
0.0
 11
68.7402662005
 21
88.4498173077
 31
0.0
  0
LINE
  5
230
330
1F
100
AcDbEntity
  8
0
  6
Continuous
 62
     7
370
    25
100
AcDbLine
 10
81.2402662005
 20
88.4498173077
 30
0.0
 11
69.2169676526
 21
88.4498173077
 31
0.0
  0
LINE
  5
231
330
1F
100
AcDbEntity
  8
0
  6
Continuous
 62
     7
370
    25
100
AcDbLine
 10
192.2364179259
 20
77.9498173077
 30
0.0
 11
229.7364179259
 21
77.9498173077
 31
0.0
  0
SPLINE
  5
232
330
1F
100
AcDbEntity
  8
0
  6
Continuous
 62
     7
370
    25
100
AcDbSpline
210
0.0
220
0.0
230
1.0
 70
     8
 71
     3
 72
    37
 73
    33
 74
     0
 42
0.000000001
 43
0.00000001
 40
0.0
 40
0.0
 40
0.0
 40
0.0
 40
0.0262669638229548
 40
0.0527172163402714
 40
0.0797448770774827
 40
0.1069716566836584
 40
0.1598319907045774
 40
0.186660230274784
 40
0.2138761037588099
 40
0.2669420077923823
 40
0.2938750133349383
 40
0.3211986128114875
 40
0.3476325354649198
 40
0.3742509314543782
 40
0.401452857427558
 40
0.4288572202585959
 40
0.4818318287805791
 40
0.5087243878775839
 40
0.5360127807467696
 40
0.5887526702672646
 40
0.6155211060298094
 40
0.6426775988071403
 40
0.6955404480125603
 40
0.7223685160789837
 40
0.7495830311727536
 40
0.8027340411793081
 40
0.8297120294256177
 40
0.8570834157826989
 40
0.9102398534266904
 40
0.9372250642163118
 40
0.9646084525511648
 40
1.0
 40
1.0
 40
1.0
 40
1.0
 10
229.7364179259413
 20
73.14981730769219
 30
0.0
 10
229.7362632204273
 20
73.1511962644946
 30
0.0
 10
229.7359527298772
 20
73.15396380034555
 30
0.0
 10
229.733438729591
 20
73.17651920830923
 30
0.0
 10
229.729427828456
 20
73.21301657580429
 30
0.0
 10
229.7220907444898
 20
73.28123443290983
 30
0.0
 10
229.7121467083714
 20
73.3773613022928
 30
0.0
 10
229.7004297121881
 20
73.49911884603297
 30
0.0
 10
229.6878210580235
 20
73.63767378271336
 30
0.0
 10
229.6744124539865
 20
73.79993912477732
 30
0.0
 10
229.6613584772555
 20
73.98188459705669
 30
0.0
 10
229.6519962486338
 20
74.12785412534927
 30
0.0
 10
229.6433917142949
 20
74.28121476288452
 30
0.0
 10
229.6357472741533
 20
74.44115551573265
 30
0.0
 10
229.6292038755278
 20
74.60891041504773
 30
0.0
 10
229.6223953952833
 20
74.83726226923854
 30
0.0
 10
229.618647376167
 20
75.0721354385524
 30
0.0
 10
229.6182524669509
 20
75.30801663246727
 30
0.0
 10
229.6201081730095
 20
75.54283398845179
 30
0.0
 10
229.6252430346416
 20
75.77443066959572
 30
0.0
 10
229.6331815386776
 20
75.99713000307743
 30
0.0
 10
229.6427952042287
 20
76.21298414183279
 30
0.0
 10
229.6545149875794
 20
76.416435517587
 30
0.0
 10
229.667325820733
 20
76.60258469840925
 30
0.0
 10
229.6805506810284
 20
76.7764048414778
 30
0.0
 10
229.6938152787933
 20
76.92970368211691
 30
0.0
 10
229.7059794617255
 20
77.05875028395175
 30
0.0
 10
229.7170515079607
 20
77.1704608828666
 30
0.0
 10
229.7260763440439
 20
77.25578225565228
 30
0.0
 10
229.7321195610282
 20
77.31119384125518
 30
0.0
 10
229.7357926780951
 20
77.34425986757829
 30
0.0
 10
229.7357335737299
 20
77.34370665231374
 30
0.0
 10
229.735700251594
 20
77.34339475801961
 30
0.0
  0
SPLINE
  5
233
330
1F
100
AcDbEntity
  8
0
  6
Continuous
 62
     7
370
    25
100
AcDbSpline
210
0.0
220
0.0
230
1.0
 70
    11
 71
     3
 72
    66
 73
    62
 74
     0
 42
0.000000001
 43
0.00000001
 40
0.0
 40
0.0
 40
0.0
 40
0.0
 40
0.0131332459492523
 40
0.0263581345991618
 40
0.0398717221720297
 40
0.0534848673906445
 40
0.0799145595444615
 40
0.0933284383252668
 40
0.106936130580776
 40
0.1334686058942213
 40
0.1469348667200572
 40
0.1605964210040949
 40
0.1738131448687542
 40
0.1871221037442707
 40
0.2007228223696502
 40
0.214424757605425
 40
0.2409115859832154
 40
0.2543576239496215
 40
0.2680015752462529
 40
0.2943710462318382
 40
0.3077550236460367
 40
0.3213330260816299
 40
0.3477639758051008
 40
0.3611777688355493
 40
0.3747847819081329
 40
0.4013598094435643
 40
0.4148485612171974
 40
0.4285340085122282
 40
0.45511174981761
 40
0.4686041127980001
 40
0.4822955609740965
 40
0.5087311207760041
 40
0.52215044135722
 40
0.5357663917073405
 40
0.5621367392674406
 40
0.5755204030307789
 40
0.5890973019132153
 40
0.6155789279265185
 40
0.6290187463753049
 40
0.6426526424897636
 40
0.6692510497258101
 40
0.6827525823337168
 40
0.6964520326384666
 40
0.7229901052426109
 40
0.7364624642971013
 40
0.7501336202362979
 40
0.7765268315484599
 40
0.7899237898332948
 40
0.8035160068443277
 40
0.8299064904970627
 40
0.8432998520887629
 40
0.8568861153234061
 40
0.8834194116339381
 40
0.8968861029383195
 40
0.9105481125784067
 40
0.9237647024827131
 40
0.9370735301860764
 40
0.9506741195887674
 40
0.9643759212448795
 40
0.9820747863160336
 40
1.0
 40
1.0
 40
1.0
 40
1.0
 10
210.9864179259408
 20
73.1498173076922
 30
0.0
 10
210.9286301490351
 20
73.15119626449462
 30
0.0
 10
210.8126513569105
 20
73.15396380034558
 30
0.0
 10
210.6384286274528
 20
73.17651920830922
 30
0.0
 10
210.4645811047951
 20
73.21301657580437
 30
0.0
 10
210.2389516378194
 20
73.28123443290966
 30
0.0
 10
210.0231785731489
 20
73.37736130229293
 30
0.0
 10
209.8221098789489
 20
73.4991188460331
 30
0.0
 10
209.6317153989218
 20
73.63767378271324
 30
0.0
 10
209.4593578107882
 20
73.79993912477742
 30
0.0
 10
209.3092173321138
 20
73.98188459705652
 30
0.0
 10
209.208306497055
 20
74.12785412534944
 30
0.0
 10
209.1204026486889
 20
74.28121476288442
 30
0.0
 10
209.0456494444425
 20
74.4411555157328
 30
0.0
 10
208.9839066465346
 20
74.60891041504702
 30
0.0
 10
208.9214458918077
 20
74.83726226924273
 30
0.0
 10
208.8882047554498
 20
75.0721354385268
 30
0.0
 10
208.8846908550601
 20
75.30801663251219
 30
0.0
 10
208.9011691333203
 20
75.54283398820962
 30
0.0
 10
208.9471511671226
 20
75.7744306710621
 30
0.0
 10
209.0212072765788
 20
75.99713000051239
 30
0.0
 10
209.1138804549612
 20
76.21298415572792
 30
0.0
 10
209.2334510343381
 20
76.41643543279659
 30
0.0
 10
209.3768908686777
 20
76.60258484668378
 30
0.0
 10
209.535968242931
 20
76.77640403680789
 30
0.0
 10
209.7167243513371
 20
76.9297086101337
 30
0.0
 10
209.9147476520851
 20
77.05874166484814
 30
0.0
 10
210.1230891158717
 20
77.17050751213024
 30
0.0
 10
210.3449694188454
 20
77.2554984149002
 30
0.0
 10
210.5748448607216
 20
77.31169045105425
 30
0.0
 10
210.8081049159572
 20
77.34802128634506
 30
0.0
 10
211.0448509873992
 20
77.35470639945214
 30
0.0
 10
211.279166552621
 20
77.33185888763562
 30
0.0
 10
211.5104005098151
 20
77.28930852542825
 30
0.0
 10
211.735234363057
 20
77.21783307073262
 30
0.0
 10
211.948208825449
 20
77.1194373399618
 30
0.0
 10
212.1525044510884
 20
77.00320762788361
 30
0.0
 10
212.3415620390501
 20
76.86151224785394
 30
0.0
 10
212.510814838185
 20
76.69785456862081
 30
0.0
 10
212.6659495385548
 20
76.52005611776511
 30
0.0
 10
212.7981973195027
 20
76.32297598494121
 30
0.0
 10
212.9043067143676
 20
76.11145248966614
 30
0.0
 10
212.9919529775415
 20
75.89184351338527
 30
0.0
 10
213.051439234948
 20
75.6619349440983
 30
0.0
 10
213.0814392929953
 20
75.42749964995834
 30
0.0
 10
213.0913733454493
 20
75.19196874082465
 30
0.0
 10
213.0715471583786
 20
74.95635106206885
 30
0.0
 10
213.0227577088881
 20
74.72648399067495
 30
0.0
 10
212.9547324364239
 20
74.50161593653604
 30
0.0
 10
212.8586599154548
 20
74.2862089601171
 30
0.0
 10
212.7370740312115
 20
74.085458291053
 30
0.0
 10
212.5986320305018
 20
73.8952074161909
 30
0.0
 10
212.4364454816535
 20
73.72289858329712
 30
0.0
 10
212.2545078547072
 20
73.5727350430612
 30
0.0
 10
212.1085437932208
 20
73.47180959888863
 30
0.0
 10
211.9551900142131
 20
73.38388588731871
 30
0.0
 10
211.795253535071
 20
73.3091368982101
 30
0.0
 10
211.6275159192419
 20
73.24730816018652
 30
0.0
 10
211.4364306703183
 20
73.1953285790911
 30
0.0
 10
211.2220955547819
 20
73.15747549582404
 30
0.0
 10
211.065309199104
 20
73.15238082725415
 30
0.0
 10
210.9864179259408
 20
73.1498173076922
 30
0.0
  0
SPLINE
  5
234
330
1F
100
AcDbEntity
  8
0
  6
Continuous
 62
     7
370
    25
100
AcDbSpline
210
0.0
220
0.0
230
1.0
 70
     8
 71
     3
 72
    38
 73
    34
 74
     0
 42
0.000000001
 43
0.00000001
 40
0.0
 40
0.0
 40
0.0
 40
0.0
 40
0.0526683249483505
 40
0.0796943771369344
 40
0.1069195363439569
 40
0.1332792650985469
 40
0.1866022843068324
 40
0.213816538040775
 40
0.2402788546097673
 40
0.2938094525178505
 40
0.3211314258329914
 40
0.374134509272439
 40
0.4013348163256265
 40
0.4287375481886633
 40
0.4551534138394616
 40
0.5085986433804246
 40
0.5358854121835426
 40
0.5621848825581842
 40
0.6153878973742194
 40
0.6425427739355002
 40
0.6689040310712122
 40
0.7222278438350098
 40
0.7494407392595458
 40
0.775945263718796
 40
0.8026347803782211
 40
0.8296111630321622
 40
0.856980920383823
 40
0.883487482175585
 40
0.9101808618542533
 40
0.9371644666216479
 40
0.964546225236801
 40
0.990911123607663
 40
1.0
 40
1.0
 40
1.0
 40
1.0
 10
192.2364179259406
 20
77.34981730769191
 30
0.0
 10
192.2370181441528
 20
77.34449839508227
 30
0.0
 10
192.2379263563775
 20
77.33645015303381
 30
0.0
 10
192.2434393922946
 20
77.2863406956537
 30
0.0
 10
192.2489257810943
 20
77.23531781373124
 30
0.0
 10
192.2579909353726
 20
77.1485454548378
 30
0.0
 10
192.2692858958191
 20
77.03479966294022
 30
0.0
 10
192.2818861807785
 20
76.8963340654431
 30
0.0
 10
192.2950148546828
 20
76.74213840209455
 30
0.0
 10
192.3083959124128
 20
76.56579960699568
 30
0.0
 10
192.323919472745
 20
76.32378650818347
 30
0.0
 10
192.3349668291311
 20
76.1129179748079
 30
0.0
 10
192.3436315150886
 20
75.89074863888861
 30
0.0
 10
192.3487585912398
 20
75.71868592879514
 30
0.0
 10
192.35351918502
 20
75.48652410358773
 30
0.0
 10
192.3550501334598
 20
75.24989586417722
 30
0.0
 10
192.3531827672948
 20
75.01482796221552
 30
0.0
 10
192.3491521271106
 20
74.78255105936893
 30
0.0
 10
192.3420371449099
 20
74.55589668079497
 30
0.0
 10
192.3324227340701
 20
74.34018745088731
 30
0.0
 10
192.3214207068351
 20
74.132829914005
 30
0.0
 10
192.3087777312013
 20
73.93996845394466
 30
0.0
 10
192.2955709776432
 20
73.76642459236638
 30
0.0
 10
192.2856483084137
 20
73.64652454841239
 30
0.0
 10
192.2760289553817
 20
73.5381964170502
 30
0.0
 10
192.2668565277852
 20
73.44088558423533
 30
0.0
 10
192.2585257923931
 20
73.35682977521518
 30
0.0
 10
192.2512690923411
 20
73.28650670896351
 30
0.0
 10
192.2452970903025
 20
73.23043179978887
 30
0.0
 10
192.240615212684
 20
73.18753871860375
 30
0.0
 10
192.2377916057749
 20
73.16208814696296
 30
0.0
 10
192.2361114108029
 20
73.14706640879687
 30
0.0
 10
192.2367259428801
 20
73.15257787099183
 30
0.0
 10
192.2368834833995
 20
73.15399078115347
 30
0.0
  0
LINE
  5
235
330
1F
100
AcDbEntity
  8
0
  6
Continuous
 62
     7
370
    25
100
AcDbLine
 10
192.2364179259
 20
72.6998173077
 30
0.0
 11
229.7364179259
 21
72.6998173077
 31
0.0
  0
LINE
  5
236
330
1F
100
AcDbEntity
  8
0
  6
Continuous
 62
     7
370
    25
100
AcDbLine
 10
228.9864179259
 20
71.9498173077
 30
0.0
 11
192.9864179259
 21
71.9498173077
 31
0.0
  0
DIMENSION
  5
237
330
1F
100
AcDbEntity
  8
0
100
AcDbDimension
  2
_D_3
 10
66.0402662005
 20
55.9498173077
 30
0.0
 11
95.5984811472
 21
55.9498173077
 31
0.0
 70
   160
  1
%%c<>
 71
     2
 42
-1.0
  3
SLDDIMSTYLE0
100
AcDbAlignedDimension
 13
83.9402662005
 23
86.4498173077
 33
0.0
 14
66.0402662005
 24
86.4498173077
 34
0.0
 50
0.0
100
AcDbRotatedDimension
  0
DIMENSION
  5
24D
330
1F
100
AcDbEntity
  8
0
100
AcDbDimension
  2
_D_4
 10
202.0364179259
 20
55.9498173077
 30
0.0
 11
231.8671467267
 21
55.9498173077
 31
0.0
 70
   160
  1
%%c<>
 71
     2
 42
-1.0
  3
SLDDIMSTYLE0
100
AcDbAlignedDimension
 13
219.9364179259
 23
78.9498173077
 33
0.0
 14
202.0364179259
 24
78.9498173077
 34
0.0
 50
0.0
100
AcDbRotatedDimension
  0
ENDSEC
  0
SECTION
  2
OBJECTS
  0
DICTIONARY
  5
C
330
0
100
AcDbDictionary
281
     1
  3
ACAD_GROUP
350
D
  3
ACAD_LAYOUT
350
1A
  3
ACAD_MLINESTYLE
350
17
  3
ACAD_PLOTSETTINGS
350
19
  3
ACAD_PLOTSTYLENAME
350
E
  3
ACAD_SCALELIST
350
47
  0
DICTIONARY
  5
D
102
{ACAD_REACTORS
330
C
102
}
330
C
100
AcDbDictionary
281
     1
  0
DICTIONARY
  5
1A
102
{ACAD_REACTORS
330
C
102
}
330
C
100
AcDbDictionary
281
     1
  3
Layout1
350
1E
  3
Layout2
350
26
  3
Model
350
22
  0
DICTIONARY
  5
17
102
{ACAD_REACTORS
330
C
102
}
330
C
100
AcDbDictionary
281
     1
  3
Standard
350
18
  0
DICTIONARY
  5
19
102
{ACAD_REACTORS
330
C
102
}
330
C
100
AcDbDictionary
281
     1
  0
ACDBDICTIONARYWDFLT
  5
E
102
{ACAD_REACTORS
330
C
102
}
330
C
100
AcDbDictionary
281
     1
  3
Normal
350
F
100
AcDbDictionaryWithDefault
340
F
  0
DICTIONARY
  5
47
102
{ACAD_REACTORS
330
C
102
}
330
C
100
AcDbDictionary
281
     1
  3
A0
350
48
  3
A1
350
49
  3
A2
350
4A
  3
A3
350
4B
  3
A4
350
4C
  3
A5
350
4D
  3
A6
350
4E
  3
A7
350
4F
  3
A8
350
50
  3
A9
350
51
  3
B0
350
52
  3
B1
350
53
  3
B2
350
54
  3
B3
350
55
  3
B4
350
56
  3
B5
350
57
  3
B6
350
58
  3
B7
350
59
  3
B8
350
5A
  3
B9
350
5B
  3
C0
350
5C
  3
C1
350
5D
  3
C2
350
5E
  3
C3
350
5F
  3
C4
350
60
  3
C5
350
61
  3
C6
350
62
  3
C7
350
63
  3
C8
350
64
  3
C9
350
65
  3
D0
350
66
  3
D1
350
67
  3
D2
350
68
  0
LAYOUT
  5
1E
102
{ACAD_REACTORS
330
1A
102
}
330
1A
100
AcDbPlotSettings
  1

  2
none_device
  4

  6

 40
0.0
 41
0.0
 42
0.0
 43
0.0
 44
0.0
 45
0.0
 46
0.0
 47
0.0
 48
0.0
 49
0.0
140
0.0
141
0.0
142
1.0
143
1.0
 70
   688
 72
     1
 73
     0
 74
     5
  7

 75
    16
147
1.0
148
0.0
149
0.0
100
AcDbLayout
  1
Layout1
 70
     1
 71
     1
 10
0.0
 20
0.0
 11
420.0
 21
297.0
 12
0.0
 22
0.0
 32
0.0
 14
1.0000000000E+20
 24
1.0000000000E+20
 34
1.0000000000E+20
 15
-1.0000000000E+20
 25
-1.0000000000E+20
 35
-1.0000000000E+20
146
0.0
 13
0.0
 23
0.0
 33
0.0
 16
1.0
 26
0.0
 36
0.0
 17
0.0
 27
1.0
 37
0.0
 76
     0
330
1B
  0
LAYOUT
  5
26
102
{ACAD_REACTORS
330
1A
102
}
330
1A
100
AcDbPlotSettings
  1

  2
none_device
  4

  6

 40
0.0
 41
0.0
 42
0.0
 43
0.0
 44
0.0
 45
0.0
 46
0.0
 47
0.0
 48
0.0
 49
0.0
140
0.0
141
0.0
142
1.0
143
1.0
 70
   688
 72
     1
 73
     0
 74
     5
  7

 75
    16
147
1.0
148
0.0
149
0.0
100
AcDbLayout
  1
Layout2
 70
     1
 71
     2
 10
0.0
 20
0.0
 11
0.0
 21
0.0
 12
0.0
 22
0.0
 32
0.0
 14
0.0
 24
0.0
 34
0.0
 15
0.0
 25
0.0
 35
0.0
146
0.0
 13
0.0
 23
0.0
 33
0.0
 16
1.0
 26
0.0
 36
0.0
 17
0.0
 27
1.0
 37
0.0
 76
     0
330
23
  0
LAYOUT
  5
22
102
{ACAD_REACTORS
330
1A
102
}
330
1A
100
AcDbPlotSettings
  1

  2
none_device
  4
Letter_(8.50_x_11.00_Inches)
  6

 40
6.35
 41
6.35
 42
6.35000508
 43
6.35000508
 44
215.9
 45
279.4
 46
0.0
 47
0.0
 48
0.0
 49
0.0
140
0.0
141
0.0
142
1.0
143
1.0
 70
  1712
 72
     1
 73
     0
 74
     0
  7

 75
     0
147
1.0
148
0.0
149
0.0
100
AcDbLayout
  1
Model
 70
     1
 71
     0
 10
0.0
 20
0.0
 11
431.8
 21
279.4
 12
0.0
 22
0.0
 32
0.0
 14
0.0
 24
0.0
 34
0.0
 15
431.8
 25
279.4
 35
0.0
146
0.0
 13
0.0
 23
0.0
 33
0.0
 16
1.0
 26
0.0
 36
0.0
 17
0.0
 27
1.0
 37
0.0
 76
     0
330
1F
331
29
  0
MLINESTYLE
  5
18
102
{ACAD_REACTORS
330
17
102
}
330
17
100
AcDbMlineStyle
  2
Standard
 70
     0
  3

 62
   256
 51
90.0
 52
90.0
 71
     2
 49
0.5
 62
   256
  6
BYLAYER
 49
-0.5
 62
   256
  6
BYLAYER
  0
ACDBPLACEHOLDER
  5
F
102
{ACAD_REACTORS
330
E
102
}
330
E
  0
SCALE
  5
48
102
{ACAD_REACTORS
330
47
102
}
330
47
100
AcDbScale
 70
     0
300
1:1
140
1.0
141
1.0
290
     1
  0
SCALE
  5
49
102
{ACAD_REACTORS
330
47
102
}
330
47
100
AcDbScale
 70
     0
300
1:2
140
1.0
141
2.0
290
     0
  0
SCALE
  5
4A
102
{ACAD_REACTORS
330
47
102
}
330
47
100
AcDbScale
 70
     0
300
1:4
140
1.0
141
4.0
290
     0
  0
SCALE
  5
4B
102
{ACAD_REACTORS
330
47
102
}
330
47
100
AcDbScale
 70
     0
300
1:5
140
1.0
141
5.0
290
     0
  0
SCALE
  5
4C
102
{ACAD_REACTORS
330
47
102
}
330
47
100
AcDbScale
 70
     0
300
1:8
140
1.0
141
8.0
290
     0
  0
SCALE
  5
4D
102
{ACAD_REACTORS
330
47
102
}
330
47
100
AcDbScale
 70
     0
300
1:10
140
1.0
141
10.0
290
     0
  0
SCALE
  5
4E
102
{ACAD_REACTORS
330
47
102
}
330
47
100
AcDbScale
 70
     0
300
1:16
140
1.0
141
16.0
290
     0
  0
SCALE
  5
4F
102
{ACAD_REACTORS
330
47
102
}
330
47
100
AcDbScale
 70
     0
300
1:20
140
1.0
141
20.0
290
     0
  0
SCALE
  5
50
102
{ACAD_REACTORS
330
47
102
}
330
47
100
AcDbScale
 70
     0
300
1:30
140
1.0
141
30.0
290
     0
  0
SCALE
  5
51
102
{ACAD_REACTORS
330
47
102
}
330
47
100
AcDbScale
 70
     0
300
1:40
140
1.0
141
40.0
290
     0
  0
SCALE
  5
52
102
{ACAD_REACTORS
330
47
102
}
330
47
100
AcDbScale
 70
     0
300
1:50
140
1.0
141
50.0
290
     0
  0
SCALE
  5
53
102
{ACAD_REACTORS
330
47
102
}
330
47
100
AcDbScale
 70
     0
300
1:100
140
1.0
141
100.0
290
     0
  0
SCALE
  5
54
102
{ACAD_REACTORS
330
47
102
}
330
47
100
AcDbScale
 70
     0
300
2:1
140
2.0
141
1.0
290
     0
  0
SCALE
  5
55
102
{ACAD_REACTORS
330
47
102
}
330
47
100
AcDbScale
 70
     0
300
4:1
140
4.0
141
1.0
290
     0
  0
SCALE
  5
56
102
{ACAD_REACTORS
330
47
102
}
330
47
100
AcDbScale
 70
     0
300
8:1
140
8.0
141
1.0
290
     0
  0
SCALE
  5
57
102
{ACAD_REACTORS
330
47
102
}
330
47
100
AcDbScale
 70
     0
300
10:1
140
10.0
141
1.0
290
     0
  0
SCALE
  5
58
102
{ACAD_REACTORS
330
47
102
}
330
47
100
AcDbScale
 70
     0
300
100:1
140
100.0
141
1.0
290
     0
  0
SCALE
  5
59
102
{ACAD_REACTORS
330
47
102
}
330
47
100
AcDbScale
 70
     0
300
1/128" = 1'-0"
140
0.0078125
141
12.0
290
     0
  0
SCALE
  5
5A
102
{ACAD_REACTORS
330
47
102
}
330
47
100
AcDbScale
 70
     0
300
1/64" = 1'-0"
140
0.015625
141
12.0
290
     0
  0
SCALE
  5
5B
102
{ACAD_REACTORS
330
47
102
}
330
47
100
AcDbScale
 70
     0
300
1/32" = 1'-0"
140
0.03125
141
12.0
290
     0
  0
SCALE
  5
5C
102
{ACAD_REACTORS
330
47
102
}
330
47
100
AcDbScale
 70
     0
300
1/16" = 1'-0"
140
0.0625
141
12.0
290
     0
  0
SCALE
  5
5D
102
{ACAD_REACTORS
330
47
102
}
330
47
100
AcDbScale
 70
     0
300
3/32" = 1'-0"
140
0.09375
141
12.0
290
     0
  0
SCALE
  5
5E
102
{ACAD_REACTORS
330
47
102
}
330
47
100
AcDbScale
 70
     0
300
1/8" = 1'-0"
140
0.125
141
12.0
290
     0
  0
SCALE
  5
5F
102
{ACAD_REACTORS
330
47
102
}
330
47
100
AcDbScale
 70
     0
300
3/16" = 1'-0"
140
0.1875
141
12.0
290
     0
  0
SCALE
  5
60
102
{ACAD_REACTORS
330
47
102
}
330
47
100
AcDbScale
 70
     0
300
1/4" = 1'-0"
140
0.25
141
12.0
290
     0
  0
SCALE
  5
61
102
{ACAD_REACTORS
330
47
102
}
330
47
100
AcDbScale
 70
     0
300
3/8" = 1'-0"
140
0.375
141
12.0
290
     0
  0
SCALE
  5
62
102
{ACAD_REACTORS
330
47
102
}
330
47
100
AcDbScale
 70
     0
300
1/2" = 1'-0"
140
0.5
141
12.0
290
     0
  0
SCALE
  5
63
102
{ACAD_REACTORS
330
47
102
}
330
47
100
AcDbScale
 70
     0
300
3/4" = 1'-0"
140
0.75
141
12.0
290
     0
  0
SCALE
  5
64
102
{ACAD_REACTORS
330
47
102
}
330
47
100
AcDbScale
 70
     0
300
1" = 1'-0"
140
1.0
141
12.0
290
     0
  0
SCALE
  5
65
102
{ACAD_REACTORS
330
47
102
}
330
47
100
AcDbScale
 70
     0
300
1-1/2" = 1'-0"
140
1.5
141
12.0
290
     0
  0
SCALE
  5
66
102
{ACAD_REACTORS
330
47
102
}
330
47
100
AcDbScale
 70
     0
300
3" = 1'-0"
140
3.0
141
12.0
290
     0
  0
SCALE
  5
67
102
{ACAD_REACTORS
330
47
102
}
330
47
100
AcDbScale
 70
     0
300
6" = 1'-0"
140
6.0
141
12.0
290
     0
  0
SCALE
  5
68
102
{ACAD_REACTORS
330
47
102
}
330
47
100
AcDbScale
 70
     0
300
1'-0" = 1'-0"
140
12.0
141
12.0
290
     0
  0
ENDSEC
  0
EOF
