  0
SECTION
  2
HEADER
  9
$ACADVER
  1
AC1015
  9
$ACADMAINTVER
 70
     6
  9
$DWGCODEPAGE
  3
ANSI_1252
  9
$INSBASE
 10
0.0
 20
0.0
 30
0.0
  9
$EXTMIN
 10
0.0
 20
0.0
 30
0.0
  9
$EXTMAX
 10
431.8
 20
279.4
 30
0.0
  9
$LIMMIN
 10
0.0
 20
0.0
  9
$LIMMAX
 10
431.8
 20
279.4
  9
$ORTHOMODE
 70
     0
  9
$REGENMODE
 70
     1
  9
$FILLMODE
 70
     1
  9
$QTEXTMODE
 70
     0
  9
$MIRRTEXT
 70
     1
  9
$LTSCALE
 40
1.0
  9
$ATTMODE
 70
     1
  9
$TEXTSIZE
 40
3.5
  9
$TRACEWID
 40
1.0
  9
$TEXTSTYLE
  7
Standard
  9
$CLAYER
  8
0
  9
$CELTYPE
  6
ByLayer
  9
$CECOLOR
 62
   256
  9
$CELTSCALE
 40
1.0
  9
$DISPSILH
 70
     0
  9
$DIMSCALE
 40
1.0
  9
$DIMASZ
 40
5.0
  9
$DIMEXO
 40
1.0
  9
$DIMDLI
 40
3.75
  9
$DIMRND
 40
0.0
  9
$DIMDLE
 40
0.0
  9
$DIMEXE
 40
1.0
  9
$DIMTP
 40
0.0
  9
$DIMTM
 40
0.0
  9
$DIMTXT
 40
3.0
  9
$DIMCEN
 40
2.5
  9
$DIMTSZ
 40
0.0
  9
$DIMTOL
 70
     0
  9
$DIMLIM
 70
     0
  9
$DIMTIH
 70
     1
  9
$DIMTOH
 70
     1
  9
$DIMSE1
 70
     0
  9
$DIMSE2
 70
     0
  9
$DIMTAD
 70
     1
  9
$DIMZIN
 70
     0
  9
$DIMBLK
  1

  9
$DIMASO
 70
     1
  9
$DIMSHO
 70
     1
  9
$DIMPOST
  1

  9
$DIMAPOST
  1

  9
$DIMALT
 70
     0
  9
$DIMALTD
 70
     3
  9
$DIMALTF
 40
0.0393700787
  9
$DIMLFAC
 40
1.0
  9
$DIMTOFL
 70
     1
  9
$DIMTVP
 40
0.0
  9
$DIMTIX
 70
     0
  9
$DIMSOXD
 70
     0
  9
$DIMSAH
 70
     0
  9
$DIMBLK1
  1

  9
$DIMBLK2
  1

  9
$DIMSTYLE
  2
ISO-25
  9
$DIMCLRD
 70
     0
  9
$DIMCLRE
 70
     0
  9
$DIMCLRT
 70
     0
  9
$DIMTFAC
 40
1.0
  9
$DIMGAP
 40
1.524
  9
$DIMJUST
 70
     0
  9
$DIMSD1
 70
     0
  9
$DIMSD2
 70
     0
  9
$DIMTOLJ
 70
     0
  9
$DIMTZIN
 70
     0
  9
$DIMALTZ
 70
     0
  9
$DIMALTTZ
 70
     0
  9
$DIMUPT
 70
     0
  9
$DIMDEC
 70
     2
  9
$DIMTDEC
 70
     2
  9
$DIMALTU
 70
     2
  9
$DIMALTTD
 70
     3
  9
$DIMTXSTY
  7
Standard
  9
$DIMAUNIT
 70
     0
  9
$DIMADEC
 70
     0
  9
$DIMALTRND
 40
0.0
  9
$DIMAZIN
 70
     0
  9
$DIMDSEP
 70
    44
  9
$DIMATFIT
 70
     3
  9
$DIMFRAC
 70
     0
  9
$DIMLDRBLK
  1

  9
$DIMLUNIT
 70
     2
  9
$DIMLWD
 70
    -2
  9
$DIMLWE
 70
    -2
  9
$DIMTMOVE
 70
     0
  9
$LUNITS
 70
     2
  9
$LUPREC
 70
     2
  9
$SKETCHINC
 40
1.0
  9
$FILLETRAD
 40
10.0
  9
$AUNITS
 70
     0
  9
$AUPREC
 70
     0
  9
$MENU
  1
.
  9
$ELEVATION
 40
0.0
  9
$PELEVATION
 40
0.0
  9
$THICKNESS
 40
0.0
  9
$LIMCHECK
 70
     0
  9
$CHAMFERA
 40
0.0
  9
$CHAMFERB
 40
0.0
  9
$CHAMFERC
 40
0.0
  9
$CHAMFERD
 40
0.0
  9
$SKPOLY
 70
     0
  9
$TDCREATE
 40
2459936.370916563
  9
$TDUCREATE
 40
2459936.329249896
  9
$TDUPDATE
 40
2459936.370922986
  9
$TDUUPDATE
 40
2459936.329256319
  9
$TDINDWG
 40
0.0000000116
  9
$TDUSRTIMER
 40
0.0000000116
  9
$USRTIMER
 70
     1
  9
$ANGBASE
 50
0.0
  9
$ANGDIR
 70
     0
  9
$PDMODE
 70
     0
  9
$PDSIZE
 40
-1.0
  9
$PLINEWID
 40
0.0
  9
$SPLFRAME
 70
     0
  9
$SPLINETYPE
 70
     6
  9
$SPLINESEGS
 70
     8
  9
$HANDSEED
  5
365
  9
$SURFTAB1
 70
     6
  9
$SURFTAB2
 70
     6
  9
$SURFTYPE
 70
     6
  9
$SURFU
 70
     6
  9
$SURFV
 70
     6
  9
$UCSBASE
  2

  9
$UCSNAME
  2

  9
$UCSORG
 10
0.0
 20
0.0
 30
0.0
  9
$UCSXDIR
 10
1.0
 20
0.0
 30
0.0
  9
$UCSYDIR
 10
0.0
 20
1.0
 30
0.0
  9
$UCSORTHOREF
  2

  9
$UCSORTHOVIEW
 70
     0
  9
$UCSORGTOP
 10
0.0
 20
0.0
 30
0.0
  9
$UCSORGBOTTOM
 10
0.0
 20
0.0
 30
0.0
  9
$UCSORGLEFT
 10
0.0
 20
0.0
 30
0.0
  9
$UCSORGRIGHT
 10
0.0
 20
0.0
 30
0.0
  9
$UCSORGFRONT
 10
0.0
 20
0.0
 30
0.0
  9
$UCSORGBACK
 10
0.0
 20
0.0
 30
0.0
  9
$PUCSBASE
  2

  9
$PUCSNAME
  2

  9
$PUCSORG
 10
0.0
 20
0.0
 30
0.0
  9
$PUCSXDIR
 10
1.0
 20
0.0
 30
0.0
  9
$PUCSYDIR
 10
0.0
 20
1.0
 30
0.0
  9
$PUCSORTHOREF
  2

  9
$PUCSORTHOVIEW
 70
     0
  9
$PUCSORGTOP
 10
0.0
 20
0.0
 30
0.0
  9
$PUCSORGBOTTOM
 10
0.0
 20
0.0
 30
0.0
  9
$PUCSORGLEFT
 10
0.0
 20
0.0
 30
0.0
  9
$PUCSORGRIGHT
 10
0.0
 20
0.0
 30
0.0
  9
$PUCSORGFRONT
 10
0.0
 20
0.0
 30
0.0
  9
$PUCSORGBACK
 10
0.0
 20
0.0
 30
0.0
  9
$USERI1
 70
     0
  9
$USERI2
 70
     0
  9
$USERI3
 70
     0
  9
$USERI4
 70
     0
  9
$USERI5
 70
     0
  9
$USERR1
 40
0.0
  9
$USERR2
 40
0.0
  9
$USERR3
 40
0.0
  9
$USERR4
 40
0.0
  9
$USERR5
 40
0.0
  9
$WORLDVIEW
 70
     1
  9
$SHADEDGE
 70
     3
  9
$SHADEDIF
 70
    70
  9
$TILEMODE
 70
     1
  9
$MAXACTVP
 70
    64
  9
$PINSBASE
 10
0.0
 20
0.0
 30
0.0
  9
$PLIMCHECK
 70
     0
  9
$PEXTMIN
 10
1.0000000000E+20
 20
1.0000000000E+20
 30
1.0000000000E+20
  9
$PEXTMAX
 10
-1.0000000000E+20
 20
-1.0000000000E+20
 30
-1.0000000000E+20
  9
$PLIMMIN
 10
0.0
 20
0.0
  9
$PLIMMAX
 10
420.0
 20
297.0
  9
$UNITMODE
 70
     0
  9
$VISRETAIN
 70
     1
  9
$PLINEGEN
 70
     0
  9
$PSLTSCALE
 70
     1
  9
$TREEDEPTH
 70
  3020
  9
$CMLSTYLE
  2
Standard
  9
$CMLJUST
 70
     0
  9
$CMLSCALE
 40
20.0
  9
$PROXYGRAPHICS
 70
     1
  9
$MEASUREMENT
 70
     1
  9
$CELWEIGHT
370
    -1
  9
$ENDCAPS
280
     0
  9
$JOINSTYLE
280
     0
  9
$LWDISPLAY
290
     1
  9
$INSUNITS
 70
     4
  9
$HYPERLINKBASE
  1

  9
$STYLESHEET
  1

  9
$XEDIT
290
     1
  9
$CEPSNTYPE
380
     0
  9
$PSTYLEMODE
290
     1
  9
$FINGERPRINTGUID
  2
{bea6ce4b-c8a9-41d1-8b36-4cf8dc8855d8}
  9
$VERSIONGUID
  2
{FAEB1C32-E019-11D5-929B-00C0DF256EC4}
  9
$EXTNAMES
290
     1
  9
$PSVPSCALE
 40
0.0
  9
$OLESTARTUP
290
     0
  0
ENDSEC
  0
SECTION
  2
CLASSES
  0
CLASS
  1
ACDBDICTIONARYWDFLT
  2
AcDbDictionaryWithDefault
  3
ObjectDBX Classes
 90
        0
280
     0
281
     0
  0
CLASS
  1
VISUALSTYLE
  2
AcDbVisualStyle
  3
ObjectDBX Classes
 90
     4095
280
     0
281
     0
  0
CLASS
  1
MATERIAL
  2
AcDbMaterial
  3
ObjectDBX Classes
 90
     1153
280
     0
281
     0
  0
CLASS
  1
SCALE
  2
AcDbScale
  3
ObjectDBX Classes
 90
     1153
280
     0
281
     0
  0
CLASS
  1
TABLESTYLE
  2
AcDbTableStyle
  3
ObjectDBX Classes
 90
     4095
280
     0
281
     0
  0
CLASS
  1
MLEADERSTYLE
  2
AcDbMLeaderStyle
  3
ACDB_MLEADERSTYLE_CLASS
 90
     4095
280
     0
281
     0
  0
CLASS
  1
SUN
  2
AcDbSun
  3
SCENEOE
 90
     1153
280
     0
281
     0
  0
CLASS
  1
ACDBPLACEHOLDER
  2
AcDbPlaceHolder
  3
ObjectDBX Classes
 90
        0
280
     0
281
     0
  0
CLASS
  1
LAYOUT
  2
AcDbLayout
  3
ObjectDBX Classes
 90
        0
280
     0
281
     0
  0
ENDSEC
  0
SECTION
  2
TABLES
  0
TABLE
  2
VPORT
  5
8
330
0
100
AcDbSymbolTable
 70
     1
  0
VPORT
  5
29
330
8
100
AcDbSymbolTableRecord
100
AcDbViewportTableRecord
  2
*Active
 70
     0
 10
0.0
 20
0.0
 11
1.0
 21
1.0
 12
215.9
 22
139.7
 13
0.0
 23
0.0
 14
10.0
 24
10.0
 15
10.0
 25
10.0
 16
0.0
 26
0.0
 36
1.0
 17
0.0
 27
0.0
 37
0.0
 40
279.4
 41
1.5454545455
 42
50.0
 43
0.0
 44
0.0
 50
0.0
 51
0.0
 71
     0
 72
  2000
 73
     1
 74
     3
 75
     0
 76
     0
 77
     0
 78
     0
281
     0
 65
     1
110
0.0
120
0.0
130
0.0
111
1.0
121
0.0
131
0.0
112
0.0
122
1.0
132
0.0
 79
     0
146
0.0
  0
ENDTAB
  0
TABLE
  2
LTYPE
  5
5
330
0
100
AcDbSymbolTable
 70
     6
  0
LTYPE
  5
14
330
5
100
AcDbSymbolTableRecord
100
AcDbLinetypeTableRecord
  2
ByBlock
 70
     0
  3

 72
    65
 73
     0
 40
0.0
  0
LTYPE
  5
15
330
5
100
AcDbSymbolTableRecord
100
AcDbLinetypeTableRecord
  2
ByLayer
 70
     0
  3

 72
    65
 73
     0
 40
0.0
  0
LTYPE
  5
16
330
5
100
AcDbSymbolTableRecord
100
AcDbLinetypeTableRecord
  2
Continuous
 70
     0
  3
Solid line
 72
    65
 73
     0
 40
0.0
  0
LTYPE
  5
6E
330
5
100
AcDbSymbolTableRecord
100
AcDbLinetypeTableRecord
  2
HIDDEN
 70
     0
  3
Hidden __ __ __ __ __ __ __ __ __ __ __ __ __ __
 72
    65
 73
     2
 40
1.905
 49
1.27
 74
     0
 49
-0.635
 74
     0
  0
LTYPE
  5
6F
330
5
100
AcDbSymbolTableRecord
100
AcDbLinetypeTableRecord
  2
PHANTOM
 70
     0
  3
Phantom ______  __  __  ______  __  __  ______
 72
    65
 73
     6
 40
12.7
 49
6.35
 74
     0
 49
-1.27
 74
     0
 49
1.27
 74
     0
 49
-1.27
 74
     0
 49
1.27
 74
     0
 49
-1.27
 74
     0
  0
LTYPE
  5
70
330
5
100
AcDbSymbolTableRecord
100
AcDbLinetypeTableRecord
  2
CENTER
 70
     0
  3
Center ____ _ ____ _ ____ _ ____ _ ____ _ ____
 72
    65
 73
     4
 40
10.16
 49
6.35
 74
     0
 49
-1.27
 74
     0
 49
1.27
 74
     0
 49
-1.27
 74
     0
  0
LTYPE
  5
71
330
5
100
AcDbSymbolTableRecord
100
AcDbLinetypeTableRecord
  2
CENTERX2
 70
     0
  3
Center (2x) ________  __  ________  __  _____
 72
    65
 73
     4
 40
20.32
 49
12.7
 74
     0
 49
-2.54
 74
     0
 49
2.54
 74
     0
 49
-2.54
 74
     0
  0
LTYPE
  5
72
330
5
100
AcDbSymbolTableRecord
100
AcDbLinetypeTableRecord
  2
DOT2
 70
     0
  3
Dot (.5x) ........................................
 72
    65
 73
     2
 40
0.635
 49
0.0
 74
     0
 49
-0.635
 74
     0
  0
ENDTAB
  0
TABLE
  2
LAYER
  5
2
330
0
100
AcDbSymbolTable
 70
     1
  0
LAYER
  5
10
330
2
100
AcDbSymbolTableRecord
100
AcDbLayerTableRecord
  2
0
 70
     0
 62
     7
  6
Continuous
370
    -3
390
F
  0
ENDTAB
  0
TABLE
  2
STYLE
  5
3
330
0
100
AcDbSymbolTable
 70
     3
  0
STYLE
  5
11
330
3
100
AcDbSymbolTableRecord
100
AcDbTextStyleTableRecord
  2
Standard
 70
     0
 40
0.0
 41
1.0
 50
0.0
 71
     0
 42
3.5
  3
txt
  4

  0
STYLE
  5
94
330
3
100
AcDbSymbolTableRecord
100
AcDbTextStyleTableRecord
  2
SLDTEXTSTYLE0
 70
     0
 40
0.0
 41
0.605
 50
0.0
 71
     0
 42
3.5
  3
TXT
  4

  0
STYLE
  5
26C
330
3
100
AcDbSymbolTableRecord
100
AcDbTextStyleTableRecord
  2
SLDTEXTSTYLE1
 70
     0
 40
0.0
 41
0.75
 50
0.0
 71
     0
 42
3.5
  3
TXT
  4

  0
ENDTAB
  0
TABLE
  2
VIEW
  5
6
330
0
100
AcDbSymbolTable
 70
     0
  0
ENDTAB
  0
TABLE
  2
UCS
  5
7
330
0
100
AcDbSymbolTable
 70
     0
  0
ENDTAB
  0
TABLE
  2
APPID
  5
9
330
0
100
AcDbSymbolTable
 70
     1
  0
APPID
  5
12
330
9
100
AcDbSymbolTableRecord
100
AcDbRegAppTableRecord
  2
ACAD
 70
     0
  0
ENDTAB
  0
TABLE
  2
DIMSTYLE
  5
A
330
0
100
AcDbSymbolTable
 70
     3
100
AcDbDimStyleTable
  0
DIMSTYLE
105
27
330
A
100
AcDbSymbolTableRecord
100
AcDbDimStyleTableRecord
  2
ISO-25
 70
     0
 41
2.5
 42
0.625
 43
3.75
 44
1.25
 73
     0
 74
     0
 77
     1
 78
     8
140
2.5
141
2.5
143
0.0393700787
147
0.625
171
     3
172
     1
178
     0
271
     2
272
     2
274
     3
278
    44
283
     0
284
     8
340
11
  0
DIMSTYLE
105
29B
102
{ACAD_REACTORS
330
29A
330
335
330
34C
102
}
330
A
100
AcDbSymbolTableRecord
100
AcDbDimStyleTableRecord
  2
SLDDIMSTYLE0
 70
     0
 41
5.0
 44
0.0
 45
0.000000001
 73
     0
 74
     0
 77
     1
 78
    12
 79
     3
140
3.0
143
0.0393700787
147
0.75
148
0.000000001
170
     1
171
     3
173
     1
178
     0
271
     2
272
     2
274
     3
276
     2
284
    12
340
26C
  0
DIMSTYLE
105
307
102
{ACAD_REACTORS
330
306
330
31E
102
}
330
A
100
AcDbSymbolTableRecord
100
AcDbDimStyleTableRecord
  2
SLDDIMSTYLE1
 70
     0
 41
5.0
 44
0.0
 45
0.000000001
 73
     0
 74
     0
 77
     1
 78
    12
 79
     3
140
3.0
143
0.0393700787
147
0.75
148
0.000000001
170
     1
171
     3
172
     1
173
     1
178
     0
271
     2
272
     2
274
     3
276
     2
284
    12
289
     0
340
26C
  0
ENDTAB
  0
TABLE
  2
BLOCK_RECORD
  5
1
330
0
100
AcDbSymbolTable
 70
    54
  0
BLOCK_RECORD
  5
1F
330
1
100
AcDbSymbolTableRecord
100
AcDbBlockTableRecord
  2
*Model_Space
340
22
  0
BLOCK_RECORD
  5
1B
330
1
100
AcDbSymbolTableRecord
100
AcDbBlockTableRecord
  2
*Paper_Space
340
1E
  0
BLOCK_RECORD
  5
23
330
1
100
AcDbSymbolTableRecord
100
AcDbBlockTableRecord
  2
*Paper_Space0
340
26
  0
BLOCK_RECORD
  5
73
330
1
100
AcDbSymbolTableRecord
100
AcDbBlockTableRecord
  2
Block5
340
0
102
{BLKREFS
331
26B
102
}
  0
BLOCK_RECORD
  5
8A
330
1
100
AcDbSymbolTableRecord
100
AcDbBlockTableRecord
  2
SW_BLOCK_DIMENSION_0
340
0
102
{BLKREFS
331
96
102
}
  0
BLOCK_RECORD
  5
8D
330
1
100
AcDbSymbolTableRecord
100
AcDbBlockTableRecord
  2
_Origin
340
0
102
{BLKREFS
331
92
331
102
331
189
331
1F8
102
}
  0
BLOCK_RECORD
  5
97
330
1
100
AcDbSymbolTableRecord
100
AcDbBlockTableRecord
  2
SW_BLOCK_DIMENSION_1
340
0
102
{BLKREFS
331
9E
102
}
  0
BLOCK_RECORD
  5
9F
330
1
100
AcDbSymbolTableRecord
100
AcDbBlockTableRecord
  2
SW_BLOCK_DIMENSION_2
340
0
102
{BLKREFS
331
A6
102
}
  0
BLOCK_RECORD
  5
A7
330
1
100
AcDbSymbolTableRecord
100
AcDbBlockTableRecord
  2
SW_BLOCK_DIMENSION_3
340
0
102
{BLKREFS
331
AE
102
}
  0
BLOCK_RECORD
  5
AF
330
1
100
AcDbSymbolTableRecord
100
AcDbBlockTableRecord
  2
SW_BLOCK_DIMENSION_4
340
0
102
{BLKREFS
331
B6
102
}
  0
BLOCK_RECORD
  5
B7
330
1
100
AcDbSymbolTableRecord
100
AcDbBlockTableRecord
  2
SW_BLOCK_DIMENSION_5
340
0
102
{BLKREFS
331
BE
102
}
  0
BLOCK_RECORD
  5
BF
330
1
100
AcDbSymbolTableRecord
100
AcDbBlockTableRecord
  2
SW_BLOCK_DIMENSION_6
340
0
102
{BLKREFS
331
C6
102
}
  0
BLOCK_RECORD
  5
C7
330
1
100
AcDbSymbolTableRecord
100
AcDbBlockTableRecord
  2
SW_BLOCK_DIMENSION_7
340
0
102
{BLKREFS
331
CE
102
}
  0
BLOCK_RECORD
  5
CF
330
1
100
AcDbSymbolTableRecord
100
AcDbBlockTableRecord
  2
SW_BLOCK_DIMENSION_8
340
0
102
{BLKREFS
331
D6
102
}
  0
BLOCK_RECORD
  5
D7
330
1
100
AcDbSymbolTableRecord
100
AcDbBlockTableRecord
  2
SW_BLOCK_DIMENSION_9
340
0
102
{BLKREFS
331
DE
102
}
  0
BLOCK_RECORD
  5
DF
330
1
100
AcDbSymbolTableRecord
100
AcDbBlockTableRecord
  2
SW_BLOCK_DIMENSION_10
340
0
102
{BLKREFS
331
E6
102
}
  0
BLOCK_RECORD
  5
E7
330
1
100
AcDbSymbolTableRecord
100
AcDbBlockTableRecord
  2
SW_BLOCK_DIMENSION_11
340
0
102
{BLKREFS
331
EE
102
}
  0
BLOCK_RECORD
  5
EF
330
1
100
AcDbSymbolTableRecord
100
AcDbBlockTableRecord
  2
SW_BLOCK_DIMENSION_12
340
0
102
{BLKREFS
331
F6
102
}
  0
BLOCK_RECORD
  5
F7
330
1
100
AcDbSymbolTableRecord
100
AcDbBlockTableRecord
  2
SW_BLOCK_DIMENSION_13
340
0
102
{BLKREFS
331
FE
102
}
  0
BLOCK_RECORD
  5
FF
330
1
100
AcDbSymbolTableRecord
100
AcDbBlockTableRecord
  2
SW_BLOCK_DIMENSION_14
340
0
102
{BLKREFS
331
10E
102
}
  0
BLOCK_RECORD
  5
10F
330
1
100
AcDbSymbolTableRecord
100
AcDbBlockTableRecord
  2
SW_BLOCK_DIMENSION_15
340
0
102
{BLKREFS
331
11F
102
}
  0
BLOCK_RECORD
  5
120
330
1
100
AcDbSymbolTableRecord
100
AcDbBlockTableRecord
  2
SW_BLOCK_DIMENSION_16
340
0
102
{BLKREFS
331
130
102
}
  0
BLOCK_RECORD
  5
131
330
1
100
AcDbSymbolTableRecord
100
AcDbBlockTableRecord
  2
SW_BLOCK_DIMENSION_17
340
0
102
{BLKREFS
331
141
102
}
  0
BLOCK_RECORD
  5
142
330
1
100
AcDbSymbolTableRecord
100
AcDbBlockTableRecord
  2
SW_BLOCK_DIMENSION_18
340
0
102
{BLKREFS
331
152
102
}
  0
BLOCK_RECORD
  5
153
330
1
100
AcDbSymbolTableRecord
100
AcDbBlockTableRecord
  2
SW_BLOCK_DIMENSION_19
340
0
102
{BLKREFS
331
163
102
}
  0
BLOCK_RECORD
  5
164
330
1
100
AcDbSymbolTableRecord
100
AcDbBlockTableRecord
  2
SW_NOTE_0
340
0
102
{BLKREFS
331
169
102
}
  0
BLOCK_RECORD
  5
16A
330
1
100
AcDbSymbolTableRecord
100
AcDbBlockTableRecord
  2
SW_NOTE_0_1
340
0
102
{BLKREFS
331
16E
102
}
  0
BLOCK_RECORD
  5
16F
330
1
100
AcDbSymbolTableRecord
100
AcDbBlockTableRecord
  2
Block5_1
340
0
  0
BLOCK_RECORD
  5
186
330
1
100
AcDbSymbolTableRecord
100
AcDbBlockTableRecord
  2
SW_BLOCK_DIMENSION_20
340
0
102
{BLKREFS
331
18C
102
}
  0
BLOCK_RECORD
  5
18D
330
1
100
AcDbSymbolTableRecord
100
AcDbBlockTableRecord
  2
SW_BLOCK_DIMENSION_21
340
0
102
{BLKREFS
331
194
102
}
  0
BLOCK_RECORD
  5
195
330
1
100
AcDbSymbolTableRecord
100
AcDbBlockTableRecord
  2
SW_BLOCK_DIMENSION_22
340
0
102
{BLKREFS
331
19C
102
}
  0
BLOCK_RECORD
  5
19D
330
1
100
AcDbSymbolTableRecord
100
AcDbBlockTableRecord
  2
SW_BLOCK_DIMENSION_23
340
0
102
{BLKREFS
331
1A4
102
}
  0
BLOCK_RECORD
  5
1A5
330
1
100
AcDbSymbolTableRecord
100
AcDbBlockTableRecord
  2
SW_BLOCK_DIMENSION_24
340
0
102
{BLKREFS
331
1AC
102
}
  0
BLOCK_RECORD
  5
1AD
330
1
100
AcDbSymbolTableRecord
100
AcDbBlockTableRecord
  2
SW_BLOCK_DIMENSION_25
340
0
102
{BLKREFS
331
1B4
102
}
  0
BLOCK_RECORD
  5
1B5
330
1
100
AcDbSymbolTableRecord
100
AcDbBlockTableRecord
  2
SW_BLOCK_DIMENSION_26
340
0
102
{BLKREFS
331
1BC
102
}
  0
BLOCK_RECORD
  5
1BD
330
1
100
AcDbSymbolTableRecord
100
AcDbBlockTableRecord
  2
SW_BLOCK_DIMENSION_27
340
0
102
{BLKREFS
331
1C4
102
}
  0
BLOCK_RECORD
  5
1C5
330
1
100
AcDbSymbolTableRecord
100
AcDbBlockTableRecord
  2
SW_BLOCK_DIMENSION_28
340
0
102
{BLKREFS
331
1CC
102
}
  0
BLOCK_RECORD
  5
1CD
330
1
100
AcDbSymbolTableRecord
100
AcDbBlockTableRecord
  2
SW_BLOCK_DIMENSION_29
340
0
102
{BLKREFS
331
1D4
102
}
  0
BLOCK_RECORD
  5
1D5
330
1
100
AcDbSymbolTableRecord
100
AcDbBlockTableRecord
  2
SW_BLOCK_DIMENSION_30
340
0
102
{BLKREFS
331
1DC
102
}
  0
BLOCK_RECORD
  5
1DD
330
1
100
AcDbSymbolTableRecord
100
AcDbBlockTableRecord
  2
SW_BLOCK_DIMENSION_31
340
0
102
{BLKREFS
331
1E4
102
}
  0
BLOCK_RECORD
  5
1E5
330
1
100
AcDbSymbolTableRecord
100
AcDbBlockTableRecord
  2
SW_BLOCK_DIMENSION_32
340
0
102
{BLKREFS
331
1EC
102
}
  0
BLOCK_RECORD
  5
1ED
330
1
100
AcDbSymbolTableRecord
100
AcDbBlockTableRecord
  2
SW_BLOCK_DIMENSION_33
340
0
102
{BLKREFS
331
1F4
102
}
  0
BLOCK_RECORD
  5
1F5
330
1
100
AcDbSymbolTableRecord
100
AcDbBlockTableRecord
  2
SW_BLOCK_DIMENSION_34
340
0
102
{BLKREFS
331
204
102
}
  0
BLOCK_RECORD
  5
205
330
1
100
AcDbSymbolTableRecord
100
AcDbBlockTableRecord
  2
SW_BLOCK_DIMENSION_35
340
0
102
{BLKREFS
331
215
102
}
  0
BLOCK_RECORD
  5
216
330
1
100
AcDbSymbolTableRecord
100
AcDbBlockTableRecord
  2
SW_BLOCK_DIMENSION_36
340
0
102
{BLKREFS
331
226
102
}
  0
BLOCK_RECORD
  5
227
330
1
100
AcDbSymbolTableRecord
100
AcDbBlockTableRecord
  2
SW_BLOCK_DIMENSION_37
340
0
102
{BLKREFS
331
237
102
}
  0
BLOCK_RECORD
  5
238
330
1
100
AcDbSymbolTableRecord
100
AcDbBlockTableRecord
  2
SW_BLOCK_DIMENSION_38
340
0
102
{BLKREFS
331
248
102
}
  0
BLOCK_RECORD
  5
249
330
1
100
AcDbSymbolTableRecord
100
AcDbBlockTableRecord
  2
SW_BLOCK_DIMENSION_39
340
0
102
{BLKREFS
331
259
102
}
  0
BLOCK_RECORD
  5
25A
330
1
100
AcDbSymbolTableRecord
100
AcDbBlockTableRecord
  2
SW_NOTE_0_2
340
0
102
{BLKREFS
331
25F
102
}
  0
BLOCK_RECORD
  5
260
330
1
100
AcDbSymbolTableRecord
100
AcDbBlockTableRecord
  2
SW_NOTE_0_3
340
0
102
{BLKREFS
331
264
102
}
  0
BLOCK_RECORD
  5
26F
330
1
100
AcDbSymbolTableRecord
100
AcDbBlockTableRecord
  2
SW_NOTE_0_4
340
0
102
{BLKREFS
331
276
102
}
  0
BLOCK_RECORD
  5
29C
330
1
100
AcDbSymbolTableRecord
100
AcDbBlockTableRecord
  2
_D
340
0
  0
BLOCK_RECORD
  5
308
330
1
100
AcDbSymbolTableRecord
100
AcDbBlockTableRecord
  2
_D_1
340
0
  0
BLOCK_RECORD
  5
31F
330
1
100
AcDbSymbolTableRecord
100
AcDbBlockTableRecord
  2
_D_2
340
0
  0
BLOCK_RECORD
  5
336
330
1
100
AcDbSymbolTableRecord
100
AcDbBlockTableRecord
  2
_D_3
340
0
  0
BLOCK_RECORD
  5
34D
330
1
100
AcDbSymbolTableRecord
100
AcDbBlockTableRecord
  2
_D_4
340
0
  0
ENDTAB
  0
ENDSEC
  0
SECTION
  2
BLOCKS
  0
BLOCK
  5
20
330
1F
100
AcDbEntity
  8
0
100
AcDbBlockBegin
  2
*Model_Space
 70
     0
 10
0.0
 20
0.0
 30
0.0
  3
*Model_Space
  1

  0
ENDBLK
  5
21
330
1F
100
AcDbEntity
  8
0
100
AcDbBlockEnd
  0
BLOCK
  5
1C
330
1B
100
AcDbEntity
 67
     1
  8
0
100
AcDbBlockBegin
  2
*Paper_Space
 70
     0
 10
0.0
 20
0.0
 30
0.0
  3
*Paper_Space
  1

  0
ENDBLK
  5
1D
330
1B
100
AcDbEntity
 67
     1
  8
0
100
AcDbBlockEnd
  0
BLOCK
  5
24
330
23
100
AcDbEntity
  8
0
100
AcDbBlockBegin
  2
*Paper_Space0
 70
     0
 10
0.0
 20
0.0
 30
0.0
  3
*Paper_Space0
  1

  0
ENDBLK
  5
25
330
23
100
AcDbEntity
  8
0
100
AcDbBlockEnd
  0
BLOCK
  5
74
330
73
100
AcDbEntity
  8
0
100
AcDbBlockBegin
  2
Block5
 70
     0
 10
0.0
 20
0.0
 30
0.0
  3
Block5
  1

  0
LINE
  5
76
330
73
100
AcDbEntity
  8
0
100
AcDbLine
 10
363.6834285714
 20
41.3579706949
 30
0.0
 11
388.6834285714
 21
41.3579706949
 31
0.0
  0
LINE
  5
77
330
73
100
AcDbEntity
  8
0
100
AcDbLine
 10
374.9034285714
 20
41.3579706949
 30
0.0
 11
374.9034285714
 21
171.3579706949
 31
0.0
  0
LINE
  5
78
330
73
100
AcDbEntity
  8
0
100
AcDbLine
 10
374.9034285714
 20
51.3579706949
 30
0.0
 11
384.9034285714
 21
51.3579706949
 31
0.0
  0
LINE
  5
79
330
73
100
AcDbEntity
  8
0
100
AcDbLine
 10
374.9034285714
 20
61.3579706949
 30
0.0
 11
384.9034285714
 21
61.3579706949
 31
0.0
  0
LINE
  5
7A
330
73
100
AcDbEntity
  8
0
100
AcDbLine
 10
374.9034285714
 20
71.3579706949
 30
0.0
 11
384.9034285714
 21
71.3579706949
 31
0.0
  0
LINE
  5
7B
330
73
100
AcDbEntity
  8
0
100
AcDbLine
 10
374.9034285714
 20
81.3579706949
 30
0.0
 11
384.9034285714
 21
81.3579706949
 31
0.0
  0
LINE
  5
7C
330
73
100
AcDbEntity
  8
0
100
AcDbLine
 10
374.9034285714
 20
91.3579706949
 30
0.0
 11
384.9034285714
 21
91.3579706949
 31
0.0
  0
LINE
  5
7D
330
73
100
AcDbEntity
  8
0
100
AcDbLine
 10
374.9034285714
 20
101.3579706949
 30
0.0
 11
384.9034285714
 21
101.3579706949
 31
0.0
  0
LINE
  5
7E
330
73
100
AcDbEntity
  8
0
100
AcDbLine
 10
374.9034285714
 20
111.3579706949
 30
0.0
 11
384.9034285714
 21
111.3579706949
 31
0.0
  0
LINE
  5
7F
330
73
100
AcDbEntity
  8
0
100
AcDbLine
 10
374.9034285714
 20
121.3579706949
 30
0.0
 11
384.9034285714
 21
121.3579706949
 31
0.0
  0
LINE
  5
80
330
73
100
AcDbEntity
  8
0
100
AcDbLine
 10
374.9034285714
 20
131.3579706949
 30
0.0
 11
384.9034285714
 21
131.3579706949
 31
0.0
  0
LINE
  5
81
330
73
100
AcDbEntity
  8
0
100
AcDbLine
 10
374.9034285714
 20
141.3579706949
 30
0.0
 11
384.9034285714
 21
141.3579706949
 31
0.0
  0
LINE
  5
82
330
73
100
AcDbEntity
  8
0
100
AcDbLine
 10
374.9034285714
 20
151.3579706949
 30
0.0
 11
384.9034285714
 21
151.3579706949
 31
0.0
  0
LINE
  5
83
330
73
100
AcDbEntity
  8
0
100
AcDbLine
 10
374.9034285714
 20
161.3579706949
 30
0.0
 11
384.9034285714
 21
161.3579706949
 31
0.0
  0
LINE
  5
84
330
73
100
AcDbEntity
  8
0
100
AcDbLine
 10
374.9034285714
 20
171.3579706949
 30
0.0
 11
384.9034285714
 21
171.3579706949
 31
0.0
  0
LINE
  5
85
330
73
100
AcDbEntity
  8
0
100
AcDbLine
 10
374.9034285714
 20
66.7579706949
 30
0.0
 11
362.9034285714
 21
66.7579706949
 31
0.0
  0
LINE
  5
86
330
73
100
AcDbEntity
  8
0
100
AcDbLine
 10
374.9034285714
 20
92.1579706949
 30
0.0
 11
362.9034285714
 21
92.1579706949
 31
0.0
  0
LINE
  5
87
330
73
100
AcDbEntity
  8
0
100
AcDbLine
 10
374.9034285714
 20
117.5579706949
 30
0.0
 11
362.9034285714
 21
117.5579706949
 31
0.0
  0
LINE
  5
88
330
73
100
AcDbEntity
  8
0
100
AcDbLine
 10
374.9034285714
 20
142.9579706949
 30
0.0
 11
362.9034285714
 21
142.9579706949
 31
0.0
  0
LINE
  5
89
330
73
100
AcDbEntity
  8
0
100
AcDbLine
 10
374.9034285714
 20
168.3579706949
 30
0.0
 11
362.9034285714
 21
168.3579706949
 31
0.0
  0
INSERT
  5
96
330
73
100
AcDbEntity
  8
0
100
AcDbBlockReference
  2
SW_BLOCK_DIMENSION_0
 10
397.2096946378
 20
38.9914197296
 30
0.0
  0
INSERT
  5
9E
330
73
100
AcDbEntity
  8
0
100
AcDbBlockReference
  2
SW_BLOCK_DIMENSION_1
 10
397.2096946378
 20
48.9914197296
 30
0.0
  0
INSERT
  5
A6
330
73
100
AcDbEntity
  8
0
100
AcDbBlockReference
  2
SW_BLOCK_DIMENSION_2
 10
397.2096946378
 20
58.9914197296
 30
0.0
  0
INSERT
  5
AE
330
73
100
AcDbEntity
  8
0
100
AcDbBlockReference
  2
SW_BLOCK_DIMENSION_3
 10
397.2096946378
 20
68.9914197296
 30
0.0
  0
INSERT
  5
B6
330
73
100
AcDbEntity
  8
0
100
AcDbBlockReference
  2
SW_BLOCK_DIMENSION_4
 10
397.2096946378
 20
78.9914197296
 30
0.0
  0
INSERT
  5
BE
330
73
100
AcDbEntity
  8
0
100
AcDbBlockReference
  2
SW_BLOCK_DIMENSION_5
 10
397.2096946378
 20
88.9914197296
 30
0.0
  0
INSERT
  5
C6
330
73
100
AcDbEntity
  8
0
100
AcDbBlockReference
  2
SW_BLOCK_DIMENSION_6
 10
397.2096946378
 20
98.9914197296
 30
0.0
  0
INSERT
  5
CE
330
73
100
AcDbEntity
  8
0
100
AcDbBlockReference
  2
SW_BLOCK_DIMENSION_7
 10
397.2096946378
 20
108.9914197296
 30
0.0
  0
INSERT
  5
D6
330
73
100
AcDbEntity
  8
0
100
AcDbBlockReference
  2
SW_BLOCK_DIMENSION_8
 10
397.2096946378
 20
118.9914197296
 30
0.0
  0
INSERT
  5
DE
330
73
100
AcDbEntity
  8
0
100
AcDbBlockReference
  2
SW_BLOCK_DIMENSION_9
 10
397.2096946378
 20
128.9914197296
 30
0.0
  0
INSERT
  5
E6
330
73
100
AcDbEntity
  8
0
100
AcDbBlockReference
  2
SW_BLOCK_DIMENSION_10
 10
397.2096946378
 20
138.9914197296
 30
0.0
  0
INSERT
  5
EE
330
73
100
AcDbEntity
  8
0
100
AcDbBlockReference
  2
SW_BLOCK_DIMENSION_11
 10
397.2096946378
 20
148.9914197296
 30
0.0
  0
INSERT
  5
F6
330
73
100
AcDbEntity
  8
0
100
AcDbBlockReference
  2
SW_BLOCK_DIMENSION_12
 10
397.2096946378
 20
158.9914197296
 30
0.0
  0
INSERT
  5
FE
330
73
100
AcDbEntity
  8
0
100
AcDbBlockReference
  2
SW_BLOCK_DIMENSION_13
 10
397.2096946378
 20
168.9914197296
 30
0.0
  0
INSERT
  5
10E
330
73
100
AcDbEntity
  8
0
100
AcDbBlockReference
  2
SW_BLOCK_DIMENSION_14
 10
341.1734707322
 20
36.1691980072
 30
0.0
  0
INSERT
  5
11F
330
73
100
AcDbEntity
  8
0
100
AcDbBlockReference
  2
SW_BLOCK_DIMENSION_15
 10
339.1802765097
 20
61.5691980072
 30
0.0
  0
INSERT
  5
130
330
73
100
AcDbEntity
  8
0
100
AcDbBlockReference
  2
SW_BLOCK_DIMENSION_16
 10
339.1802765097
 20
86.9691980072
 30
0.0
  0
INSERT
  5
141
330
73
100
AcDbEntity
  8
0
100
AcDbBlockReference
  2
SW_BLOCK_DIMENSION_17
 10
339.1802765097
 20
112.3691980072
 30
0.0
  0
INSERT
  5
152
330
73
100
AcDbEntity
  8
0
100
AcDbBlockReference
  2
SW_BLOCK_DIMENSION_18
 10
336.8284243759
 20
137.7691980072
 30
0.0
  0
INSERT
  5
163
330
73
100
AcDbEntity
  8
0
100
AcDbBlockReference
  2
SW_BLOCK_DIMENSION_19
 10
341.1734707322
 20
163.1691980072
 30
0.0
  0
INSERT
  5
169
330
73
100
AcDbEntity
  8
0
 62
     7
100
AcDbBlockReference
  2
SW_NOTE_0
 10
337.5586028241
 20
28.8175207347
 30
0.0
  0
INSERT
  5
16E
330
73
100
AcDbEntity
  8
0
 62
     7
100
AcDbBlockReference
  2
SW_NOTE_0_1
 10
393.160738319
 20
28.8175207347
 30
0.0
  0
ENDBLK
  5
75
330
73
100
AcDbEntity
  8
0
100
AcDbBlockEnd
  0
BLOCK
  5
8B
330
8A
100
AcDbEntity
  8
0
100
AcDbBlockBegin
  2
SW_BLOCK_DIMENSION_0
 70
     0
 10
0.0
 20
0.0
 30
0.0
  3
SW_BLOCK_DIMENSION_0
  1

  0
INSERT
  5
92
330
8A
100
AcDbEntity
  8
0
 62
     0
100
AcDbBlockReference
  2
_Origin
 10
-1.8
 20
2.3665509652
 30
0.0
 41
1.8
 42
1.8
 50
0.0
  0
LINE
  5
93
330
8A
100
AcDbEntity
  8
0
 62
     0
100
AcDbLine
 10
-7.5262660664
 20
2.3665509652
 30
0.0
 11
0.0
 21
2.3665509652
 31
0.0
  0
MTEXT
  5
95
330
8A
100
AcDbEntity
  8
0
 62
     0
100
AcDbMText
 10
0.0
 20
4.0927900738
 30
0.0
 40
3.175
 41
0.0
 71
     1
 72
     1
  1
0
  7
SLDTEXTSTYLE0
 73
     1
 44
1.0
  0
ENDBLK
  5
8C
330
8A
100
AcDbEntity
  8
0
100
AcDbBlockEnd
  0
BLOCK
  5
8E
330
8D
100
AcDbEntity
  8
0
100
AcDbBlockBegin
  2
_Origin
 70
     0
 10
0.0
 20
0.0
 30
0.0
  3
_Origin
  1

  0
CIRCLE
  5
90
330
8D
100
AcDbEntity
  8
0
  6
ByBlock
 62
     0
370
    -2
100
AcDbCircle
 10
0.0
 20
0.0
 30
0.0
 40
0.5
  0
LINE
  5
91
330
8D
100
AcDbEntity
  8
0
  6
ByBlock
 62
     0
370
    -2
100
AcDbLine
 10
0.0
 20
0.0
 30
0.0
 11
-1.0
 21
0.0
 31
0.0
  0
ENDBLK
  5
8F
330
8D
100
AcDbEntity
  8
0
100
AcDbBlockEnd
  0
BLOCK
  5
98
330
97
100
AcDbEntity
  8
0
100
AcDbBlockBegin
  2
SW_BLOCK_DIMENSION_1
 70
     0
 10
0.0
 20
0.0
 30
0.0
  3
SW_BLOCK_DIMENSION_1
  1

  0
SOLID
  5
9A
330
97
100
AcDbEntity
  8
0
 62
     0
100
AcDbTrace
 10
-1.8
 20
2.3665509652
 30
0.0
 11
-2.7
 21
-2.6334490348
 31
0.0
 12
-0.9
 22
-2.6334490348
 32
0.0
 13
-0.9
 23
-2.6334490348
 33
0.0
  0
LINE
  5
9B
330
97
100
AcDbEntity
  8
0
 62
     0
100
AcDbLine
 10
-11.3062660664
 20
2.3665509652
 30
0.0
 11
0.0
 21
2.3665509652
 31
0.0
  0
LINE
  5
9C
330
97
100
AcDbEntity
  8
0
 62
     0
100
AcDbLine
 10
-1.8
 20
-7.6334490348
 30
0.0
 11
-1.8
 21
2.3665509652
 31
0.0
  0
MTEXT
  5
9D
330
97
100
AcDbEntity
  8
0
 62
     0
100
AcDbMText
 10
0.0
 20
4.0927900738
 30
0.0
 40
3.175
 41
0.0
 71
     1
 72
     1
  1
10
  7
SLDTEXTSTYLE0
 73
     1
 44
1.0
  0
ENDBLK
  5
99
330
97
100
AcDbEntity
  8
0
100
AcDbBlockEnd
  0
BLOCK
  5
A0
330
9F
100
AcDbEntity
  8
0
100
AcDbBlockBegin
  2
SW_BLOCK_DIMENSION_2
 70
     0
 10
0.0
 20
0.0
 30
0.0
  3
SW_BLOCK_DIMENSION_2
  1

  0
SOLID
  5
A2
330
9F
100
AcDbEntity
  8
0
 62
     0
100
AcDbTrace
 10
-1.8
 20
2.3665509652
 30
0.0
 11
-2.7
 21
-2.6334490348
 31
0.0
 12
-0.9
 22
-2.6334490348
 32
0.0
 13
-0.9
 23
-2.6334490348
 33
0.0
  0
LINE
  5
A3
330
9F
100
AcDbEntity
  8
0
 62
     0
100
AcDbLine
 10
-11.3062660664
 20
2.3665509652
 30
0.0
 11
0.0
 21
2.3665509652
 31
0.0
  0
LINE
  5
A4
330
9F
100
AcDbEntity
  8
0
 62
     0
100
AcDbLine
 10
-1.8
 20
-7.6334490348
 30
0.0
 11
-1.8
 21
2.3665509652
 31
0.0
  0
MTEXT
  5
A5
330
9F
100
AcDbEntity
  8
0
 62
     0
100
AcDbMText
 10
0.0
 20
4.0927900738
 30
0.0
 40
3.175
 41
0.0
 71
     1
 72
     1
  1
20
  7
SLDTEXTSTYLE0
 73
     1
 44
1.0
  0
ENDBLK
  5
A1
330
9F
100
AcDbEntity
  8
0
100
AcDbBlockEnd
  0
BLOCK
  5
A8
330
A7
100
AcDbEntity
  8
0
100
AcDbBlockBegin
  2
SW_BLOCK_DIMENSION_3
 70
     0
 10
0.0
 20
0.0
 30
0.0
  3
SW_BLOCK_DIMENSION_3
  1

  0
SOLID
  5
AA
330
A7
100
AcDbEntity
  8
0
 62
     0
100
AcDbTrace
 10
-1.8
 20
2.3665509652
 30
0.0
 11
-2.7
 21
-2.6334490348
 31
0.0
 12
-0.9
 22
-2.6334490348
 32
0.0
 13
-0.9
 23
-2.6334490348
 33
0.0
  0
LINE
  5
AB
330
A7
100
AcDbEntity
  8
0
 62
     0
100
AcDbLine
 10
-11.3062660664
 20
2.3665509652
 30
0.0
 11
0.0
 21
2.3665509652
 31
0.0
  0
LINE
  5
AC
330
A7
100
AcDbEntity
  8
0
 62
     0
100
AcDbLine
 10
-1.8
 20
-7.6334490348
 30
0.0
 11
-1.8
 21
2.3665509652
 31
0.0
  0
MTEXT
  5
AD
330
A7
100
AcDbEntity
  8
0
 62
     0
100
AcDbMText
 10
0.0
 20
4.0927900738
 30
0.0
 40
3.175
 41
0.0
 71
     1
 72
     1
  1
30
  7
SLDTEXTSTYLE0
 73
     1
 44
1.0
  0
ENDBLK
  5
A9
330
A7
100
AcDbEntity
  8
0
100
AcDbBlockEnd
  0
BLOCK
  5
B0
330
AF
100
AcDbEntity
  8
0
100
AcDbBlockBegin
  2
SW_BLOCK_DIMENSION_4
 70
     0
 10
0.0
 20
0.0
 30
0.0
  3
SW_BLOCK_DIMENSION_4
  1

  0
SOLID
  5
B2
330
AF
100
AcDbEntity
  8
0
 62
     0
100
AcDbTrace
 10
-1.8
 20
2.3665509652
 30
0.0
 11
-2.7
 21
-2.6334490348
 31
0.0
 12
-0.9
 22
-2.6334490348
 32
0.0
 13
-0.9
 23
-2.6334490348
 33
0.0
  0
LINE
  5
B3
330
AF
100
AcDbEntity
  8
0
 62
     0
100
AcDbLine
 10
-11.3062660664
 20
2.3665509652
 30
0.0
 11
0.0
 21
2.3665509652
 31
0.0
  0
LINE
  5
B4
330
AF
100
AcDbEntity
  8
0
 62
     0
100
AcDbLine
 10
-1.8
 20
-7.6334490348
 30
0.0
 11
-1.8
 21
2.3665509652
 31
0.0
  0
MTEXT
  5
B5
330
AF
100
AcDbEntity
  8
0
 62
     0
100
AcDbMText
 10
0.0
 20
4.0927900738
 30
0.0
 40
3.175
 41
0.0
 71
     1
 72
     1
  1
40
  7
SLDTEXTSTYLE0
 73
     1
 44
1.0
  0
ENDBLK
  5
B1
330
AF
100
AcDbEntity
  8
0
100
AcDbBlockEnd
  0
BLOCK
  5
B8
330
B7
100
AcDbEntity
  8
0
100
AcDbBlockBegin
  2
SW_BLOCK_DIMENSION_5
 70
     0
 10
0.0
 20
0.0
 30
0.0
  3
SW_BLOCK_DIMENSION_5
  1

  0
SOLID
  5
BA
330
B7
100
AcDbEntity
  8
0
 62
     0
100
AcDbTrace
 10
-1.8
 20
2.3665509652
 30
0.0
 11
-2.7
 21
-2.6334490348
 31
0.0
 12
-0.9
 22
-2.6334490348
 32
0.0
 13
-0.9
 23
-2.6334490348
 33
0.0
  0
LINE
  5
BB
330
B7
100
AcDbEntity
  8
0
 62
     0
100
AcDbLine
 10
-11.3062660664
 20
2.3665509652
 30
0.0
 11
0.0
 21
2.3665509652
 31
0.0
  0
LINE
  5
BC
330
B7
100
AcDbEntity
  8
0
 62
     0
100
AcDbLine
 10
-1.8
 20
-7.6334490348
 30
0.0
 11
-1.8
 21
2.3665509652
 31
0.0
  0
MTEXT
  5
BD
330
B7
100
AcDbEntity
  8
0
 62
     0
100
AcDbMText
 10
0.0
 20
4.0927900738
 30
0.0
 40
3.175
 41
0.0
 71
     1
 72
     1
  1
50
  7
SLDTEXTSTYLE0
 73
     1
 44
1.0
  0
ENDBLK
  5
B9
330
B7
100
AcDbEntity
  8
0
100
AcDbBlockEnd
  0
BLOCK
  5
C0
330
BF
100
AcDbEntity
  8
0
100
AcDbBlockBegin
  2
SW_BLOCK_DIMENSION_6
 70
     0
 10
0.0
 20
0.0
 30
0.0
  3
SW_BLOCK_DIMENSION_6
  1

  0
SOLID
  5
C2
330
BF
100
AcDbEntity
  8
0
 62
     0
100
AcDbTrace
 10
-1.8
 20
2.3665509652
 30
0.0
 11
-2.7
 21
-2.6334490348
 31
0.0
 12
-0.9
 22
-2.6334490348
 32
0.0
 13
-0.9
 23
-2.6334490348
 33
0.0
  0
LINE
  5
C3
330
BF
100
AcDbEntity
  8
0
 62
     0
100
AcDbLine
 10
-11.3062660664
 20
2.3665509652
 30
0.0
 11
0.0
 21
2.3665509652
 31
0.0
  0
LINE
  5
C4
330
BF
100
AcDbEntity
  8
0
 62
     0
100
AcDbLine
 10
-1.8
 20
-7.6334490348
 30
0.0
 11
-1.8
 21
2.3665509652
 31
0.0
  0
MTEXT
  5
C5
330
BF
100
AcDbEntity
  8
0
 62
     0
100
AcDbMText
 10
0.0
 20
4.0927900738
 30
0.0
 40
3.175
 41
0.0
 71
     1
 72
     1
  1
60
  7
SLDTEXTSTYLE0
 73
     1
 44
1.0
  0
ENDBLK
  5
C1
330
BF
100
AcDbEntity
  8
0
100
AcDbBlockEnd
  0
BLOCK
  5
C8
330
C7
100
AcDbEntity
  8
0
100
AcDbBlockBegin
  2
SW_BLOCK_DIMENSION_7
 70
     0
 10
0.0
 20
0.0
 30
0.0
  3
SW_BLOCK_DIMENSION_7
  1

  0
SOLID
  5
CA
330
C7
100
AcDbEntity
  8
0
 62
     0
100
AcDbTrace
 10
-1.8
 20
2.3665509652
 30
0.0
 11
-2.7
 21
-2.6334490348
 31
0.0
 12
-0.9
 22
-2.6334490348
 32
0.0
 13
-0.9
 23
-2.6334490348
 33
0.0
  0
LINE
  5
CB
330
C7
100
AcDbEntity
  8
0
 62
     0
100
AcDbLine
 10
-11.3062660664
 20
2.3665509652
 30
0.0
 11
0.0
 21
2.3665509652
 31
0.0
  0
LINE
  5
CC
330
C7
100
AcDbEntity
  8
0
 62
     0
100
AcDbLine
 10
-1.8
 20
-7.6334490348
 30
0.0
 11
-1.8
 21
2.3665509652
 31
0.0
  0
MTEXT
  5
CD
330
C7
100
AcDbEntity
  8
0
 62
     0
100
AcDbMText
 10
0.0
 20
4.0927900738
 30
0.0
 40
3.175
 41
0.0
 71
     1
 72
     1
  1
70
  7
SLDTEXTSTYLE0
 73
     1
 44
1.0
  0
ENDBLK
  5
C9
330
C7
100
AcDbEntity
  8
0
100
AcDbBlockEnd
  0
BLOCK
  5
D0
330
CF
100
AcDbEntity
  8
0
100
AcDbBlockBegin
  2
SW_BLOCK_DIMENSION_8
 70
     0
 10
0.0
 20
0.0
 30
0.0
  3
SW_BLOCK_DIMENSION_8
  1

  0
SOLID
  5
D2
330
CF
100
AcDbEntity
  8
0
 62
     0
100
AcDbTrace
 10
-1.8
 20
2.3665509652
 30
0.0
 11
-2.7
 21
-2.6334490348
 31
0.0
 12
-0.9
 22
-2.6334490348
 32
0.0
 13
-0.9
 23
-2.6334490348
 33
0.0
  0
LINE
  5
D3
330
CF
100
AcDbEntity
  8
0
 62
     0
100
AcDbLine
 10
-11.3062660664
 20
2.3665509652
 30
0.0
 11
0.0
 21
2.3665509652
 31
0.0
  0
LINE
  5
D4
330
CF
100
AcDbEntity
  8
0
 62
     0
100
AcDbLine
 10
-1.8
 20
-7.6334490348
 30
0.0
 11
-1.8
 21
2.3665509652
 31
0.0
  0
MTEXT
  5
D5
330
CF
100
AcDbEntity
  8
0
 62
     0
100
AcDbMText
 10
0.0
 20
4.0927900738
 30
0.0
 40
3.175
 41
0.0
 71
     1
 72
     1
  1
80
  7
SLDTEXTSTYLE0
 73
     1
 44
1.0
  0
ENDBLK
  5
D1
330
CF
100
AcDbEntity
  8
0
100
AcDbBlockEnd
  0
BLOCK
  5
D8
330
D7
100
AcDbEntity
  8
0
100
AcDbBlockBegin
  2
SW_BLOCK_DIMENSION_9
 70
     0
 10
0.0
 20
0.0
 30
0.0
  3
SW_BLOCK_DIMENSION_9
  1

  0
SOLID
  5
DA
330
D7
100
AcDbEntity
  8
0
 62
     0
100
AcDbTrace
 10
-1.8
 20
2.3665509652
 30
0.0
 11
-2.7
 21
-2.6334490348
 31
0.0
 12
-0.9
 22
-2.6334490348
 32
0.0
 13
-0.9
 23
-2.6334490348
 33
0.0
  0
LINE
  5
DB
330
D7
100
AcDbEntity
  8
0
 62
     0
100
AcDbLine
 10
-11.3062660664
 20
2.3665509652
 30
0.0
 11
0.0
 21
2.3665509652
 31
0.0
  0
LINE
  5
DC
330
D7
100
AcDbEntity
  8
0
 62
     0
100
AcDbLine
 10
-1.8
 20
-7.6334490348
 30
0.0
 11
-1.8
 21
2.3665509652
 31
0.0
  0
MTEXT
  5
DD
330
D7
100
AcDbEntity
  8
0
 62
     0
100
AcDbMText
 10
0.0
 20
4.0927900738
 30
0.0
 40
3.175
 41
0.0
 71
     1
 72
     1
  1
90
  7
SLDTEXTSTYLE0
 73
     1
 44
1.0
  0
ENDBLK
  5
D9
330
D7
100
AcDbEntity
  8
0
100
AcDbBlockEnd
  0
BLOCK
  5
E0
330
DF
100
AcDbEntity
  8
0
100
AcDbBlockBegin
  2
SW_BLOCK_DIMENSION_10
 70
     0
 10
0.0
 20
0.0
 30
0.0
  3
SW_BLOCK_DIMENSION_10
  1

  0
SOLID
  5
E2
330
DF
100
AcDbEntity
  8
0
 62
     0
100
AcDbTrace
 10
-1.8
 20
2.3665509652
 30
0.0
 11
-2.7
 21
-2.6334490348
 31
0.0
 12
-0.9
 22
-2.6334490348
 32
0.0
 13
-0.9
 23
-2.6334490348
 33
0.0
  0
LINE
  5
E3
330
DF
100
AcDbEntity
  8
0
 62
     0
100
AcDbLine
 10
-11.3062660664
 20
2.3665509652
 30
0.0
 11
0.0
 21
2.3665509652
 31
0.0
  0
LINE
  5
E4
330
DF
100
AcDbEntity
  8
0
 62
     0
100
AcDbLine
 10
-1.8
 20
-7.6334490348
 30
0.0
 11
-1.8
 21
2.3665509652
 31
0.0
  0
MTEXT
  5
E5
330
DF
100
AcDbEntity
  8
0
 62
     0
100
AcDbMText
 10
0.0
 20
4.0927900738
 30
0.0
 40
3.175
 41
0.0
 71
     1
 72
     1
  1
100
  7
SLDTEXTSTYLE0
 73
     1
 44
1.0
  0
ENDBLK
  5
E1
330
DF
100
AcDbEntity
  8
0
100
AcDbBlockEnd
  0
BLOCK
  5
E8
330
E7
100
AcDbEntity
  8
0
100
AcDbBlockBegin
  2
SW_BLOCK_DIMENSION_11
 70
     0
 10
0.0
 20
0.0
 30
0.0
  3
SW_BLOCK_DIMENSION_11
  1

  0
SOLID
  5
EA
330
E7
100
AcDbEntity
  8
0
 62
     0
100
AcDbTrace
 10
-1.8
 20
2.3665509652
 30
0.0
 11
-2.7
 21
-2.6334490348
 31
0.0
 12
-0.9
 22
-2.6334490348
 32
0.0
 13
-0.9
 23
-2.6334490348
 33
0.0
  0
LINE
  5
EB
330
E7
100
AcDbEntity
  8
0
 62
     0
100
AcDbLine
 10
-11.3062660664
 20
2.3665509652
 30
0.0
 11
0.0
 21
2.3665509652
 31
0.0
  0
LINE
  5
EC
330
E7
100
AcDbEntity
  8
0
 62
     0
100
AcDbLine
 10
-1.8
 20
-7.6334490348
 30
0.0
 11
-1.8
 21
2.3665509652
 31
0.0
  0
MTEXT
  5
ED
330
E7
100
AcDbEntity
  8
0
 62
     0
100
AcDbMText
 10
0.0
 20
4.0927900738
 30
0.0
 40
3.175
 41
0.0
 71
     1
 72
     1
  1
110
  7
SLDTEXTSTYLE0
 73
     1
 44
1.0
  0
ENDBLK
  5
E9
330
E7
100
AcDbEntity
  8
0
100
AcDbBlockEnd
  0
BLOCK
  5
F0
330
EF
100
AcDbEntity
  8
0
100
AcDbBlockBegin
  2
SW_BLOCK_DIMENSION_12
 70
     0
 10
0.0
 20
0.0
 30
0.0
  3
SW_BLOCK_DIMENSION_12
  1

  0
SOLID
  5
F2
330
EF
100
AcDbEntity
  8
0
 62
     0
100
AcDbTrace
 10
-1.8
 20
2.3665509652
 30
0.0
 11
-2.7
 21
-2.6334490348
 31
0.0
 12
-0.9
 22
-2.6334490348
 32
0.0
 13
-0.9
 23
-2.6334490348
 33
0.0
  0
LINE
  5
F3
330
EF
100
AcDbEntity
  8
0
 62
     0
100
AcDbLine
 10
-11.3062660664
 20
2.3665509652
 30
0.0
 11
0.0
 21
2.3665509652
 31
0.0
  0
LINE
  5
F4
330
EF
100
AcDbEntity
  8
0
 62
     0
100
AcDbLine
 10
-1.8
 20
-7.6334490348
 30
0.0
 11
-1.8
 21
2.3665509652
 31
0.0
  0
MTEXT
  5
F5
330
EF
100
AcDbEntity
  8
0
 62
     0
100
AcDbMText
 10
0.0
 20
4.0927900738
 30
0.0
 40
3.175
 41
0.0
 71
     1
 72
     1
  1
120
  7
SLDTEXTSTYLE0
 73
     1
 44
1.0
  0
ENDBLK
  5
F1
330
EF
100
AcDbEntity
  8
0
100
AcDbBlockEnd
  0
BLOCK
  5
F8
330
F7
100
AcDbEntity
  8
0
100
AcDbBlockBegin
  2
SW_BLOCK_DIMENSION_13
 70
     0
 10
0.0
 20
0.0
 30
0.0
  3
SW_BLOCK_DIMENSION_13
  1

  0
SOLID
  5
FA
330
F7
100
AcDbEntity
  8
0
 62
     0
100
AcDbTrace
 10
-1.8
 20
2.3665509652
 30
0.0
 11
-2.7
 21
-2.6334490348
 31
0.0
 12
-0.9
 22
-2.6334490348
 32
0.0
 13
-0.9
 23
-2.6334490348
 33
0.0
  0
LINE
  5
FB
330
F7
100
AcDbEntity
  8
0
 62
     0
100
AcDbLine
 10
-11.3062660664
 20
2.3665509652
 30
0.0
 11
0.0
 21
2.3665509652
 31
0.0
  0
LINE
  5
FC
330
F7
100
AcDbEntity
  8
0
 62
     0
100
AcDbLine
 10
-1.8
 20
-7.6334490348
 30
0.0
 11
-1.8
 21
2.3665509652
 31
0.0
  0
MTEXT
  5
FD
330
F7
100
AcDbEntity
  8
0
 62
     0
100
AcDbMText
 10
0.0
 20
4.0927900738
 30
0.0
 40
3.175
 41
0.0
 71
     1
 72
     1
  1
130
  7
SLDTEXTSTYLE0
 73
     1
 44
1.0
  0
ENDBLK
  5
F9
330
F7
100
AcDbEntity
  8
0
100
AcDbBlockEnd
  0
BLOCK
  5
100
330
FF
100
AcDbEntity
  8
0
100
AcDbBlockBegin
  2
SW_BLOCK_DIMENSION_14
 70
     0
 10
0.0
 20
0.0
 30
0.0
  3
SW_BLOCK_DIMENSION_14
  1

  0
INSERT
  5
102
330
FF
100
AcDbEntity
  8
0
 62
     0
100
AcDbBlockReference
  2
_Origin
 10
12.7419915825
 20
5.1887726877
 30
0.0
 41
1.8
 42
1.8
 50
0.0
  0
LINE
  5
103
330
FF
100
AcDbEntity
  8
0
 62
     0
100
AcDbLine
 10
3.2925925916
 20
9.671990294
 30
0.0
 11
2.2342592711
 21
9.671990294
 31
0.0
  0
LINE
  5
104
330
FF
100
AcDbEntity
  8
0
 62
     0
100
AcDbLine
 10
2.2342592711
 20
9.671990294
 30
0.0
 11
2.2342592711
 21
4.9388883635
 31
0.0
  0
LINE
  5
105
330
FF
100
AcDbEntity
  8
0
 62
     0
100
AcDbLine
 10
2.2342592711
 20
4.9388883635
 30
0.0
 11
3.2925925916
 21
4.9388883635
 31
0.0
  0
LINE
  5
106
330
FF
100
AcDbEntity
  8
0
 62
     0
100
AcDbLine
 10
7.6493982924
 20
9.671990294
 30
0.0
 11
8.707731613
 21
9.671990294
 31
0.0
  0
LINE
  5
107
330
FF
100
AcDbEntity
  8
0
 62
     0
100
AcDbLine
 10
8.707731613
 20
9.671990294
 30
0.0
 11
8.707731613
 21
4.9388883635
 31
0.0
  0
LINE
  5
108
330
FF
100
AcDbEntity
  8
0
 62
     0
100
AcDbLine
 10
8.707731613
 20
4.9388883635
 30
0.0
 11
7.6493982924
 21
4.9388883635
 31
0.0
  0
LINE
  5
109
330
FF
100
AcDbEntity
  8
0
 62
     0
100
AcDbLine
 10
21.5099578393
 20
5.1887726877
 30
0.0
 11
10.9419915825
 21
5.1887726877
 31
0.0
  0
MTEXT
  5
10A
330
FF
100
AcDbEntity
  8
0
 62
     0
100
AcDbMText
 10
1.190625
 20
4.0927900738
 30
0.0
 40
3.175
 41
0.0
 71
     1
 72
     1
  1

  7
SLDTEXTSTYLE0
 73
     1
 44
1.0
  0
MTEXT
  5
10B
330
FF
100
AcDbEntity
  8
0
 62
     0
100
AcDbMText
 10
3.2925925916
 20
9.0316784373
 30
0.0
 40
3.175
 41
0.0
 71
     1
 72
     1
  1
0"
  7
SLDTEXTSTYLE0
 73
     1
 44
1.0
  0
MTEXT
  5
10C
330
FF
100
AcDbEntity
  8
0
 62
     0
100
AcDbMText
 10
4.2950697243
 20
4.0927898409
 30
0.0
 40
3.175
 41
0.0
 71
     1
 72
     1
  1
0
  7
SLDTEXTSTYLE0
 73
     1
 44
1.0
  0
MTEXT
  5
10D
330
FF
100
AcDbEntity
  8
0
 62
     0
100
AcDbMText
 10
10.9566905156
 20
4.0927900738
 30
0.0
 40
3.175
 41
0.0
 71
     1
 72
     1
  1

  7
SLDTEXTSTYLE0
 73
     1
 44
1.0
  0
ENDBLK
  5
101
330
FF
100
AcDbEntity
  8
0
100
AcDbBlockEnd
  0
BLOCK
  5
110
330
10F
100
AcDbEntity
  8
0
100
AcDbBlockBegin
  2
SW_BLOCK_DIMENSION_15
 70
     0
 10
0.0
 20
0.0
 30
0.0
  3
SW_BLOCK_DIMENSION_15
  1

  0
SOLID
  5
112
330
10F
100
AcDbEntity
  8
0
 62
     0
100
AcDbTrace
 10
14.735185805
 20
5.1887726877
 30
0.0
 11
13.835185805
 21
0.1887726877
 31
0.0
 12
15.635185805
 22
0.1887726877
 32
0.0
 13
15.635185805
 23
0.1887726877
 33
0.0
  0
LINE
  5
113
330
10F
100
AcDbEntity
  8
0
 62
     0
100
AcDbLine
 10
4.2891897028
 20
9.671990294
 30
0.0
 11
3.2308563823
 21
9.671990294
 31
0.0
  0
LINE
  5
114
330
10F
100
AcDbEntity
  8
0
 62
     0
100
AcDbLine
 10
3.2308563823
 20
9.671990294
 30
0.0
 11
3.2308563823
 21
4.9388883635
 31
0.0
  0
LINE
  5
115
330
10F
100
AcDbEntity
  8
0
 62
     0
100
AcDbLine
 10
3.2308563823
 20
4.9388883635
 30
0.0
 11
4.2891897028
 21
4.9388883635
 31
0.0
  0
LINE
  5
116
330
10F
100
AcDbEntity
  8
0
 62
     0
100
AcDbLine
 10
8.6459954036
 20
9.671990294
 30
0.0
 11
9.7043287242
 21
9.671990294
 31
0.0
  0
LINE
  5
117
330
10F
100
AcDbEntity
  8
0
 62
     0
100
AcDbLine
 10
9.7043287242
 20
9.671990294
 30
0.0
 11
9.7043287242
 21
4.9388883635
 31
0.0
  0
LINE
  5
118
330
10F
100
AcDbEntity
  8
0
 62
     0
100
AcDbLine
 10
9.7043287242
 20
4.9388883635
 30
0.0
 11
8.6459954036
 21
4.9388883635
 31
0.0
  0
LINE
  5
119
330
10F
100
AcDbEntity
  8
0
 62
     0
100
AcDbLine
 10
22.7231520617
 20
5.1887726877
 30
0.0
 11
12.935185805
 21
5.1887726877
 31
0.0
  0
LINE
  5
11A
330
10F
100
AcDbEntity
  8
0
 62
     0
100
AcDbLine
 10
14.735185805
 20
-20.2112273123
 30
0.0
 11
14.735185805
 21
5.1887726877
 31
0.0
  0
MTEXT
  5
11B
330
10F
100
AcDbEntity
  8
0
 62
     0
100
AcDbMText
 10
1.190625
 20
4.0927900738
 30
0.0
 40
3.175
 41
0.0
 71
     1
 72
     1
  1

  7
SLDTEXTSTYLE0
 73
     1
 44
1.0
  0
MTEXT
  5
11C
330
10F
100
AcDbEntity
  8
0
 62
     0
100
AcDbMText
 10
4.2891897028
 20
9.0316784373
 30
0.0
 40
3.175
 41
0.0
 71
     1
 72
     1
  1
1"
  7
SLDTEXTSTYLE0
 73
     1
 44
1.0
  0
MTEXT
  5
11D
330
10F
100
AcDbEntity
  8
0
 62
     0
100
AcDbMText
 10
1.1759259505
 20
4.0927898409
 30
0.0
 40
3.175
 41
0.0
 71
     1
 72
     1
  1
25,40
  7
SLDTEXTSTYLE0
 73
     1
 44
1.0
  0
MTEXT
  5
11E
330
10F
100
AcDbEntity
  8
0
 62
     0
100
AcDbMText
 10
12.949884738
 20
4.0927900738
 30
0.0
 40
3.175
 41
0.0
 71
     1
 72
     1
  1

  7
SLDTEXTSTYLE0
 73
     1
 44
1.0
  0
ENDBLK
  5
111
330
10F
100
AcDbEntity
  8
0
100
AcDbBlockEnd
  0
BLOCK
  5
121
330
120
100
AcDbEntity
  8
0
100
AcDbBlockBegin
  2
SW_BLOCK_DIMENSION_16
 70
     0
 10
0.0
 20
0.0
 30
0.0
  3
SW_BLOCK_DIMENSION_16
  1

  0
SOLID
  5
123
330
120
100
AcDbEntity
  8
0
 62
     0
100
AcDbTrace
 10
14.735185805
 20
5.1887726877
 30
0.0
 11
13.835185805
 21
0.1887726877
 31
0.0
 12
15.635185805
 22
0.1887726877
 32
0.0
 13
15.635185805
 23
0.1887726877
 33
0.0
  0
LINE
  5
124
330
120
100
AcDbEntity
  8
0
 62
     0
100
AcDbLine
 10
4.2891897028
 20
9.671990294
 30
0.0
 11
3.2308563823
 21
9.671990294
 31
0.0
  0
LINE
  5
125
330
120
100
AcDbEntity
  8
0
 62
     0
100
AcDbLine
 10
3.2308563823
 20
9.671990294
 30
0.0
 11
3.2308563823
 21
4.9388883635
 31
0.0
  0
LINE
  5
126
330
120
100
AcDbEntity
  8
0
 62
     0
100
AcDbLine
 10
3.2308563823
 20
4.9388883635
 30
0.0
 11
4.2891897028
 21
4.9388883635
 31
0.0
  0
LINE
  5
127
330
120
100
AcDbEntity
  8
0
 62
     0
100
AcDbLine
 10
8.6459954036
 20
9.671990294
 30
0.0
 11
9.7043287242
 21
9.671990294
 31
0.0
  0
LINE
  5
128
330
120
100
AcDbEntity
  8
0
 62
     0
100
AcDbLine
 10
9.7043287242
 20
9.671990294
 30
0.0
 11
9.7043287242
 21
4.9388883635
 31
0.0
  0
LINE
  5
129
330
120
100
AcDbEntity
  8
0
 62
     0
100
AcDbLine
 10
9.7043287242
 20
4.9388883635
 30
0.0
 11
8.6459954036
 21
4.9388883635
 31
0.0
  0
LINE
  5
12A
330
120
100
AcDbEntity
  8
0
 62
     0
100
AcDbLine
 10
22.7231520617
 20
5.1887726877
 30
0.0
 11
12.935185805
 21
5.1887726877
 31
0.0
  0
LINE
  5
12B
330
120
100
AcDbEntity
  8
0
 62
     0
100
AcDbLine
 10
14.735185805
 20
-20.2112273123
 30
0.0
 11
14.735185805
 21
5.1887726877
 31
0.0
  0
MTEXT
  5
12C
330
120
100
AcDbEntity
  8
0
 62
     0
100
AcDbMText
 10
1.190625
 20
4.0927900738
 30
0.0
 40
3.175
 41
0.0
 71
     1
 72
     1
  1

  7
SLDTEXTSTYLE0
 73
     1
 44
1.0
  0
MTEXT
  5
12D
330
120
100
AcDbEntity
  8
0
 62
     0
100
AcDbMText
 10
4.2891897028
 20
9.0316784373
 30
0.0
 40
3.175
 41
0.0
 71
     1
 72
     1
  1
2"
  7
SLDTEXTSTYLE0
 73
     1
 44
1.0
  0
MTEXT
  5
12E
330
120
100
AcDbEntity
  8
0
 62
     0
100
AcDbMText
 10
1.1759259505
 20
4.0927898409
 30
0.0
 40
3.175
 41
0.0
 71
     1
 72
     1
  1
50,80
  7
SLDTEXTSTYLE0
 73
     1
 44
1.0
  0
MTEXT
  5
12F
330
120
100
AcDbEntity
  8
0
 62
     0
100
AcDbMText
 10
12.949884738
 20
4.0927900738
 30
0.0
 40
3.175
 41
0.0
 71
     1
 72
     1
  1

  7
SLDTEXTSTYLE0
 73
     1
 44
1.0
  0
ENDBLK
  5
122
330
120
100
AcDbEntity
  8
0
100
AcDbBlockEnd
  0
BLOCK
  5
132
330
131
100
AcDbEntity
  8
0
100
AcDbBlockBegin
  2
SW_BLOCK_DIMENSION_17
 70
     0
 10
0.0
 20
0.0
 30
0.0
  3
SW_BLOCK_DIMENSION_17
  1

  0
SOLID
  5
134
330
131
100
AcDbEntity
  8
0
 62
     0
100
AcDbTrace
 10
14.735185805
 20
5.1887726877
 30
0.0
 11
13.835185805
 21
0.1887726877
 31
0.0
 12
15.635185805
 22
0.1887726877
 32
0.0
 13
15.635185805
 23
0.1887726877
 33
0.0
  0
LINE
  5
135
330
131
100
AcDbEntity
  8
0
 62
     0
100
AcDbLine
 10
4.2891897028
 20
9.671990294
 30
0.0
 11
3.2308563823
 21
9.671990294
 31
0.0
  0
LINE
  5
136
330
131
100
AcDbEntity
  8
0
 62
     0
100
AcDbLine
 10
3.2308563823
 20
9.671990294
 30
0.0
 11
3.2308563823
 21
4.9388883635
 31
0.0
  0
LINE
  5
137
330
131
100
AcDbEntity
  8
0
 62
     0
100
AcDbLine
 10
3.2308563823
 20
4.9388883635
 30
0.0
 11
4.2891897028
 21
4.9388883635
 31
0.0
  0
LINE
  5
138
330
131
100
AcDbEntity
  8
0
 62
     0
100
AcDbLine
 10
8.6459954036
 20
9.671990294
 30
0.0
 11
9.7043287242
 21
9.671990294
 31
0.0
  0
LINE
  5
139
330
131
100
AcDbEntity
  8
0
 62
     0
100
AcDbLine
 10
9.7043287242
 20
9.671990294
 30
0.0
 11
9.7043287242
 21
4.9388883635
 31
0.0
  0
LINE
  5
13A
330
131
100
AcDbEntity
  8
0
 62
     0
100
AcDbLine
 10
9.7043287242
 20
4.9388883635
 30
0.0
 11
8.6459954036
 21
4.9388883635
 31
0.0
  0
LINE
  5
13B
330
131
100
AcDbEntity
  8
0
 62
     0
100
AcDbLine
 10
22.7231520617
 20
5.1887726877
 30
0.0
 11
12.935185805
 21
5.1887726877
 31
0.0
  0
LINE
  5
13C
330
131
100
AcDbEntity
  8
0
 62
     0
100
AcDbLine
 10
14.735185805
 20
-20.2112273123
 30
0.0
 11
14.735185805
 21
5.1887726877
 31
0.0
  0
MTEXT
  5
13D
330
131
100
AcDbEntity
  8
0
 62
     0
100
AcDbMText
 10
1.190625
 20
4.0927900738
 30
0.0
 40
3.175
 41
0.0
 71
     1
 72
     1
  1

  7
SLDTEXTSTYLE0
 73
     1
 44
1.0
  0
MTEXT
  5
13E
330
131
100
AcDbEntity
  8
0
 62
     0
100
AcDbMText
 10
4.2891897028
 20
9.0316784373
 30
0.0
 40
3.175
 41
0.0
 71
     1
 72
     1
  1
3"
  7
SLDTEXTSTYLE0
 73
     1
 44
1.0
  0
MTEXT
  5
13F
330
131
100
AcDbEntity
  8
0
 62
     0
100
AcDbMText
 10
1.1759259505
 20
4.0927898409
 30
0.0
 40
3.175
 41
0.0
 71
     1
 72
     1
  1
76,20
  7
SLDTEXTSTYLE0
 73
     1
 44
1.0
  0
MTEXT
  5
140
330
131
100
AcDbEntity
  8
0
 62
     0
100
AcDbMText
 10
12.949884738
 20
4.0927900738
 30
0.0
 40
3.175
 41
0.0
 71
     1
 72
     1
  1

  7
SLDTEXTSTYLE0
 73
     1
 44
1.0
  0
ENDBLK
  5
133
330
131
100
AcDbEntity
  8
0
100
AcDbBlockEnd
  0
BLOCK
  5
143
330
142
100
AcDbEntity
  8
0
100
AcDbBlockBegin
  2
SW_BLOCK_DIMENSION_18
 70
     0
 10
0.0
 20
0.0
 30
0.0
  3
SW_BLOCK_DIMENSION_18
  1

  0
SOLID
  5
145
330
142
100
AcDbEntity
  8
0
 62
     0
100
AcDbTrace
 10
17.0870379388
 20
5.1887726877
 30
0.0
 11
16.1870379388
 21
0.1887726877
 31
0.0
 12
17.9870379388
 22
0.1887726877
 32
0.0
 13
17.9870379388
 23
0.1887726877
 33
0.0
  0
LINE
  5
146
330
142
100
AcDbEntity
  8
0
 62
     0
100
AcDbLine
 10
5.4651157698
 20
9.671990294
 30
0.0
 11
4.4067824492
 21
9.671990294
 31
0.0
  0
LINE
  5
147
330
142
100
AcDbEntity
  8
0
 62
     0
100
AcDbLine
 10
4.4067824492
 20
9.671990294
 30
0.0
 11
4.4067824492
 21
4.9388883635
 31
0.0
  0
LINE
  5
148
330
142
100
AcDbEntity
  8
0
 62
     0
100
AcDbLine
 10
4.4067824492
 20
4.9388883635
 30
0.0
 11
5.4651157698
 21
4.9388883635
 31
0.0
  0
LINE
  5
149
330
142
100
AcDbEntity
  8
0
 62
     0
100
AcDbLine
 10
9.8219214706
 20
9.671990294
 30
0.0
 11
10.8802547911
 21
9.671990294
 31
0.0
  0
LINE
  5
14A
330
142
100
AcDbEntity
  8
0
 62
     0
100
AcDbLine
 10
10.8802547911
 20
9.671990294
 30
0.0
 11
10.8802547911
 21
4.9388883635
 31
0.0
  0
LINE
  5
14B
330
142
100
AcDbEntity
  8
0
 62
     0
100
AcDbLine
 10
10.8802547911
 20
4.9388883635
 30
0.0
 11
9.8219214706
 21
4.9388883635
 31
0.0
  0
LINE
  5
14C
330
142
100
AcDbEntity
  8
0
 62
     0
100
AcDbLine
 10
25.0750041956
 20
5.1887726877
 30
0.0
 11
15.2870379388
 21
5.1887726877
 31
0.0
  0
LINE
  5
14D
330
142
100
AcDbEntity
  8
0
 62
     0
100
AcDbLine
 10
17.0870379388
 20
-20.2112273123
 30
0.0
 11
17.0870379388
 21
5.1887726877
 31
0.0
  0
MTEXT
  5
14E
330
142
100
AcDbEntity
  8
0
 62
     0
100
AcDbMText
 10
1.190625
 20
4.0927900738
 30
0.0
 40
3.175
 41
0.0
 71
     1
 72
     1
  1

  7
SLDTEXTSTYLE0
 73
     1
 44
1.0
  0
MTEXT
  5
14F
330
142
100
AcDbEntity
  8
0
 62
     0
100
AcDbMText
 10
5.4651157698
 20
9.0316784373
 30
0.0
 40
3.175
 41
0.0
 71
     1
 72
     1
  1
4"
  7
SLDTEXTSTYLE0
 73
     1
 44
1.0
  0
MTEXT
  5
150
330
142
100
AcDbEntity
  8
0
 62
     0
100
AcDbMText
 10
1.1759259505
 20
4.0927898409
 30
0.0
 40
3.175
 41
0.0
 71
     1
 72
     1
  1
101,60
  7
SLDTEXTSTYLE0
 73
     1
 44
1.0
  0
MTEXT
  5
151
330
142
100
AcDbEntity
  8
0
 62
     0
100
AcDbMText
 10
15.3017368719
 20
4.0927900738
 30
0.0
 40
3.175
 41
0.0
 71
     1
 72
     1
  1

  7
SLDTEXTSTYLE0
 73
     1
 44
1.0
  0
ENDBLK
  5
144
330
142
100
AcDbEntity
  8
0
100
AcDbBlockEnd
  0
BLOCK
  5
154
330
153
100
AcDbEntity
  8
0
100
AcDbBlockBegin
  2
SW_BLOCK_DIMENSION_19
 70
     0
 10
0.0
 20
0.0
 30
0.0
  3
SW_BLOCK_DIMENSION_19
  1

  0
SOLID
  5
156
330
153
100
AcDbEntity
  8
0
 62
     0
100
AcDbTrace
 10
12.7419915825
 20
5.1887726877
 30
0.0
 11
11.8419915825
 21
0.1887726877
 31
0.0
 12
13.6419915825
 22
0.1887726877
 32
0.0
 13
13.6419915825
 23
0.1887726877
 33
0.0
  0
LINE
  5
157
330
153
100
AcDbEntity
  8
0
 62
     0
100
AcDbLine
 10
3.2925925916
 20
9.671990294
 30
0.0
 11
2.2342592711
 21
9.671990294
 31
0.0
  0
LINE
  5
158
330
153
100
AcDbEntity
  8
0
 62
     0
100
AcDbLine
 10
2.2342592711
 20
9.671990294
 30
0.0
 11
2.2342592711
 21
4.9388883635
 31
0.0
  0
LINE
  5
159
330
153
100
AcDbEntity
  8
0
 62
     0
100
AcDbLine
 10
2.2342592711
 20
4.9388883635
 30
0.0
 11
3.2925925916
 21
4.9388883635
 31
0.0
  0
LINE
  5
15A
330
153
100
AcDbEntity
  8
0
 62
     0
100
AcDbLine
 10
7.6493982924
 20
9.671990294
 30
0.0
 11
8.707731613
 21
9.671990294
 31
0.0
  0
LINE
  5
15B
330
153
100
AcDbEntity
  8
0
 62
     0
100
AcDbLine
 10
8.707731613
 20
9.671990294
 30
0.0
 11
8.707731613
 21
4.9388883635
 31
0.0
  0
LINE
  5
15C
330
153
100
AcDbEntity
  8
0
 62
     0
100
AcDbLine
 10
8.707731613
 20
4.9388883635
 30
0.0
 11
7.6493982924
 21
4.9388883635
 31
0.0
  0
LINE
  5
15D
330
153
100
AcDbEntity
  8
0
 62
     0
100
AcDbLine
 10
20.7299578393
 20
5.1887726877
 30
0.0
 11
10.9419915825
 21
5.1887726877
 31
0.0
  0
LINE
  5
15E
330
153
100
AcDbEntity
  8
0
 62
     0
100
AcDbLine
 10
12.7419915825
 20
-20.2112273123
 30
0.0
 11
12.7419915825
 21
5.1887726877
 31
0.0
  0
MTEXT
  5
15F
330
153
100
AcDbEntity
  8
0
 62
     0
100
AcDbMText
 10
1.190625
 20
4.0927900738
 30
0.0
 40
3.175
 41
0.0
 71
     1
 72
     1
  1

  7
SLDTEXTSTYLE0
 73
     1
 44
1.0
  0
MTEXT
  5
160
330
153
100
AcDbEntity
  8
0
 62
     0
100
AcDbMText
 10
3.2925925916
 20
9.0316784373
 30
0.0
 40
3.175
 41
0.0
 71
     1
 72
     1
  1
5"
  7
SLDTEXTSTYLE0
 73
     1
 44
1.0
  0
MTEXT
  5
161
330
153
100
AcDbEntity
  8
0
 62
     0
100
AcDbMText
 10
1.9432179397
 20
4.0927898409
 30
0.0
 40
3.175
 41
0.0
 71
     1
 72
     1
  1
127
  7
SLDTEXTSTYLE0
 73
     1
 44
1.0
  0
MTEXT
  5
162
330
153
100
AcDbEntity
  8
0
 62
     0
100
AcDbMText
 10
10.9566905156
 20
4.0927900738
 30
0.0
 40
3.175
 41
0.0
 71
     1
 72
     1
  1

  7
SLDTEXTSTYLE0
 73
     1
 44
1.0
  0
ENDBLK
  5
155
330
153
100
AcDbEntity
  8
0
100
AcDbBlockEnd
  0
BLOCK
  5
165
330
164
100
AcDbEntity
  8
0
100
AcDbBlockBegin
  2
SW_NOTE_0
 70
     0
 10
0.0
 20
0.0
 30
0.0
  3
SW_NOTE_0
  1

  0
MTEXT
  5
167
330
164
100
AcDbEntity
  8
0
 62
     0
100
AcDbMText
 10
6.9453125
 20
4.7749217527
 30
0.0
 40
3.7041666667
 41
0.0
 71
     2
 72
     1
  1
(Inch)
  7
SLDTEXTSTYLE0
 73
     1
 44
1.0
  0
MTEXT
  5
168
330
164
100
AcDbEntity
  8
0
 62
     0
100
AcDbMText
 10
6.9624612493
 20
-1.1639672404
 30
0.0
 40
3.7041666667
 41
0.0
 71
     2
 72
     1
  1
mm
  7
SLDTEXTSTYLE0
 73
     1
 44
1.0
  0
ENDBLK
  5
166
330
164
100
AcDbEntity
  8
0
100
AcDbBlockEnd
  0
BLOCK
  5
16B
330
16A
100
AcDbEntity
  8
0
100
AcDbBlockBegin
  2
SW_NOTE_0_1
 70
     0
 10
0.0
 20
0.0
 30
0.0
  3
SW_NOTE_0_1
  1

  0
MTEXT
  5
16D
330
16A
100
AcDbEntity
  8
0
 62
     0
100
AcDbMText
 10
0.0
 20
4.7749217527
 30
0.0
 40
3.7041666667
 41
0.0
 71
     1
 72
     1
  1
mm
  7
SLDTEXTSTYLE0
 73
     1
 44
1.0
  0
ENDBLK
  5
16C
330
16A
100
AcDbEntity
  8
0
100
AcDbBlockEnd
  0
BLOCK
  5
170
330
16F
100
AcDbEntity
  8
0
100
AcDbBlockBegin
  2
Block5_1
 70
     0
 10
0.0
 20
0.0
 30
0.0
  3
Block5_1
  1

  0
LINE
  5
172
330
16F
100
AcDbEntity
  8
0
100
AcDbLine
 10
363.6834285714
 20
41.3579706949
 30
0.0
 11
388.6834285714
 21
41.3579706949
 31
0.0
  0
LINE
  5
173
330
16F
100
AcDbEntity
  8
0
100
AcDbLine
 10
374.9034285714
 20
41.3579706949
 30
0.0
 11
374.9034285714
 21
171.3579706949
 31
0.0
  0
LINE
  5
174
330
16F
100
AcDbEntity
  8
0
100
AcDbLine
 10
374.9034285714
 20
51.3579706949
 30
0.0
 11
384.9034285714
 21
51.3579706949
 31
0.0
  0
LINE
  5
175
330
16F
100
AcDbEntity
  8
0
100
AcDbLine
 10
374.9034285714
 20
61.3579706949
 30
0.0
 11
384.9034285714
 21
61.3579706949
 31
0.0
  0
LINE
  5
176
330
16F
100
AcDbEntity
  8
0
100
AcDbLine
 10
374.9034285714
 20
71.3579706949
 30
0.0
 11
384.9034285714
 21
71.3579706949
 31
0.0
  0
LINE
  5
177
330
16F
100
AcDbEntity
  8
0
100
AcDbLine
 10
374.9034285714
 20
81.3579706949
 30
0.0
 11
384.9034285714
 21
81.3579706949
 31
0.0
  0
LINE
  5
178
330
16F
100
AcDbEntity
  8
0
100
AcDbLine
 10
374.9034285714
 20
91.3579706949
 30
0.0
 11
384.9034285714
 21
91.3579706949
 31
0.0
  0
LINE
  5
179
330
16F
100
AcDbEntity
  8
0
100
AcDbLine
 10
374.9034285714
 20
101.3579706949
 30
0.0
 11
384.9034285714
 21
101.3579706949
 31
0.0
  0
LINE
  5
17A
330
16F
100
AcDbEntity
  8
0
100
AcDbLine
 10
374.9034285714
 20
111.3579706949
 30
0.0
 11
384.9034285714
 21
111.3579706949
 31
0.0
  0
LINE
  5
17B
330
16F
100
AcDbEntity
  8
0
100
AcDbLine
 10
374.9034285714
 20
121.3579706949
 30
0.0
 11
384.9034285714
 21
121.3579706949
 31
0.0
  0
LINE
  5
17C
330
16F
100
AcDbEntity
  8
0
100
AcDbLine
 10
374.9034285714
 20
131.3579706949
 30
0.0
 11
384.9034285714
 21
131.3579706949
 31
0.0
  0
LINE
  5
17D
330
16F
100
AcDbEntity
  8
0
100
AcDbLine
 10
374.9034285714
 20
141.3579706949
 30
0.0
 11
384.9034285714
 21
141.3579706949
 31
0.0
  0
LINE
  5
17E
330
16F
100
AcDbEntity
  8
0
100
AcDbLine
 10
374.9034285714
 20
151.3579706949
 30
0.0
 11
384.9034285714
 21
151.3579706949
 31
0.0
  0
LINE
  5
17F
330
16F
100
AcDbEntity
  8
0
100
AcDbLine
 10
374.9034285714
 20
161.3579706949
 30
0.0
 11
384.9034285714
 21
161.3579706949
 31
0.0
  0
LINE
  5
180
330
16F
100
AcDbEntity
  8
0
100
AcDbLine
 10
374.9034285714
 20
171.3579706949
 30
0.0
 11
384.9034285714
 21
171.3579706949
 31
0.0
  0
LINE
  5
181
330
16F
100
AcDbEntity
  8
0
100
AcDbLine
 10
374.9034285714
 20
66.7579706949
 30
0.0
 11
362.9034285714
 21
66.7579706949
 31
0.0
  0
LINE
  5
182
330
16F
100
AcDbEntity
  8
0
100
AcDbLine
 10
374.9034285714
 20
92.1579706949
 30
0.0
 11
362.9034285714
 21
92.1579706949
 31
0.0
  0
LINE
  5
183
330
16F
100
AcDbEntity
  8
0
100
AcDbLine
 10
374.9034285714
 20
117.5579706949
 30
0.0
 11
362.9034285714
 21
117.5579706949
 31
0.0
  0
LINE
  5
184
330
16F
100
AcDbEntity
  8
0
100
AcDbLine
 10
374.9034285714
 20
142.9579706949
 30
0.0
 11
362.9034285714
 21
142.9579706949
 31
0.0
  0
LINE
  5
185
330
16F
100
AcDbEntity
  8
0
100
AcDbLine
 10
374.9034285714
 20
168.3579706949
 30
0.0
 11
362.9034285714
 21
168.3579706949
 31
0.0
  0
INSERT
  5
18C
330
16F
100
AcDbEntity
  8
0
100
AcDbBlockReference
  2
SW_BLOCK_DIMENSION_20
 10
397.2096946378
 20
38.9914197296
 30
0.0
  0
INSERT
  5
194
330
16F
100
AcDbEntity
  8
0
100
AcDbBlockReference
  2
SW_BLOCK_DIMENSION_21
 10
397.2096946378
 20
48.9914197296
 30
0.0
  0
INSERT
  5
19C
330
16F
100
AcDbEntity
  8
0
100
AcDbBlockReference
  2
SW_BLOCK_DIMENSION_22
 10
397.2096946378
 20
58.9914197296
 30
0.0
  0
INSERT
  5
1A4
330
16F
100
AcDbEntity
  8
0
100
AcDbBlockReference
  2
SW_BLOCK_DIMENSION_23
 10
397.2096946378
 20
68.9914197296
 30
0.0
  0
INSERT
  5
1AC
330
16F
100
AcDbEntity
  8
0
100
AcDbBlockReference
  2
SW_BLOCK_DIMENSION_24
 10
397.2096946378
 20
78.9914197296
 30
0.0
  0
INSERT
  5
1B4
330
16F
100
AcDbEntity
  8
0
100
AcDbBlockReference
  2
SW_BLOCK_DIMENSION_25
 10
397.2096946378
 20
88.9914197296
 30
0.0
  0
INSERT
  5
1BC
330
16F
100
AcDbEntity
  8
0
100
AcDbBlockReference
  2
SW_BLOCK_DIMENSION_26
 10
397.2096946378
 20
98.9914197296
 30
0.0
  0
INSERT
  5
1C4
330
16F
100
AcDbEntity
  8
0
100
AcDbBlockReference
  2
SW_BLOCK_DIMENSION_27
 10
397.2096946378
 20
108.9914197296
 30
0.0
  0
INSERT
  5
1CC
330
16F
100
AcDbEntity
  8
0
100
AcDbBlockReference
  2
SW_BLOCK_DIMENSION_28
 10
397.2096946378
 20
118.9914197296
 30
0.0
  0
INSERT
  5
1D4
330
16F
100
AcDbEntity
  8
0
100
AcDbBlockReference
  2
SW_BLOCK_DIMENSION_29
 10
397.2096946378
 20
128.9914197296
 30
0.0
  0
INSERT
  5
1DC
330
16F
100
AcDbEntity
  8
0
100
AcDbBlockReference
  2
SW_BLOCK_DIMENSION_30
 10
397.2096946378
 20
138.9914197296
 30
0.0
  0
INSERT
  5
1E4
330
16F
100
AcDbEntity
  8
0
100
AcDbBlockReference
  2
SW_BLOCK_DIMENSION_31
 10
397.2096946378
 20
148.9914197296
 30
0.0
  0
INSERT
  5
1EC
330
16F
100
AcDbEntity
  8
0
100
AcDbBlockReference
  2
SW_BLOCK_DIMENSION_32
 10
397.2096946378
 20
158.9914197296
 30
0.0
  0
INSERT
  5
1F4
330
16F
100
AcDbEntity
  8
0
100
AcDbBlockReference
  2
SW_BLOCK_DIMENSION_33
 10
397.2096946378
 20
168.9914197296
 30
0.0
  0
INSERT
  5
204
330
16F
100
AcDbEntity
  8
0
100
AcDbBlockReference
  2
SW_BLOCK_DIMENSION_34
 10
341.1734707322
 20
36.1691980072
 30
0.0
  0
INSERT
  5
215
330
16F
100
AcDbEntity
  8
0
100
AcDbBlockReference
  2
SW_BLOCK_DIMENSION_35
 10
339.1802765097
 20
61.5691980072
 30
0.0
  0
INSERT
  5
226
330
16F
100
AcDbEntity
  8
0
100
AcDbBlockReference
  2
SW_BLOCK_DIMENSION_36
 10
339.1802765097
 20
86.9691980072
 30
0.0
  0
INSERT
  5
237
330
16F
100
AcDbEntity
  8
0
100
AcDbBlockReference
  2
SW_BLOCK_DIMENSION_37
 10
339.1802765097
 20
112.3691980072
 30
0.0
  0
INSERT
  5
248
330
16F
100
AcDbEntity
  8
0
100
AcDbBlockReference
  2
SW_BLOCK_DIMENSION_38
 10
336.8284243759
 20
137.7691980072
 30
0.0
  0
INSERT
  5
259
330
16F
100
AcDbEntity
  8
0
100
AcDbBlockReference
  2
SW_BLOCK_DIMENSION_39
 10
341.1734707322
 20
163.1691980072
 30
0.0
  0
INSERT
  5
25F
330
16F
100
AcDbEntity
  8
0
 62
     7
100
AcDbBlockReference
  2
SW_NOTE_0_2
 10
337.5586028241
 20
28.8175207347
 30
0.0
  0
INSERT
  5
264
330
16F
100
AcDbEntity
  8
0
 62
     7
100
AcDbBlockReference
  2
SW_NOTE_0_3
 10
393.160738319
 20
28.8175207347
 30
0.0
  0
ENDBLK
  5
171
330
16F
100
AcDbEntity
  8
0
100
AcDbBlockEnd
  0
BLOCK
  5
187
330
186
100
AcDbEntity
  8
0
100
AcDbBlockBegin
  2
SW_BLOCK_DIMENSION_20
 70
     0
 10
0.0
 20
0.0
 30
0.0
  3
SW_BLOCK_DIMENSION_20
  1

  0
INSERT
  5
189
330
186
100
AcDbEntity
  8
0
 62
     0
100
AcDbBlockReference
  2
_Origin
 10
-1.8
 20
2.3665509652
 30
0.0
 41
1.8
 42
1.8
 50
0.0
  0
LINE
  5
18A
330
186
100
AcDbEntity
  8
0
 62
     0
100
AcDbLine
 10
-7.5262660664
 20
2.3665509652
 30
0.0
 11
0.0
 21
2.3665509652
 31
0.0
  0
MTEXT
  5
18B
330
186
100
AcDbEntity
  8
0
 62
     0
100
AcDbMText
 10
0.0
 20
4.0927900738
 30
0.0
 40
3.175
 41
0.0
 71
     1
 72
     1
  1
0
  7
SLDTEXTSTYLE0
 73
     1
 44
1.0
  0
ENDBLK
  5
188
330
186
100
AcDbEntity
  8
0
100
AcDbBlockEnd
  0
BLOCK
  5
18E
330
18D
100
AcDbEntity
  8
0
100
AcDbBlockBegin
  2
SW_BLOCK_DIMENSION_21
 70
     0
 10
0.0
 20
0.0
 30
0.0
  3
SW_BLOCK_DIMENSION_21
  1

  0
SOLID
  5
190
330
18D
100
AcDbEntity
  8
0
 62
     0
100
AcDbTrace
 10
-1.8
 20
2.3665509652
 30
0.0
 11
-2.7
 21
-2.6334490348
 31
0.0
 12
-0.9
 22
-2.6334490348
 32
0.0
 13
-0.9
 23
-2.6334490348
 33
0.0
  0
LINE
  5
191
330
18D
100
AcDbEntity
  8
0
 62
     0
100
AcDbLine
 10
-11.3062660664
 20
2.3665509652
 30
0.0
 11
0.0
 21
2.3665509652
 31
0.0
  0
LINE
  5
192
330
18D
100
AcDbEntity
  8
0
 62
     0
100
AcDbLine
 10
-1.8
 20
-7.6334490348
 30
0.0
 11
-1.8
 21
2.3665509652
 31
0.0
  0
MTEXT
  5
193
330
18D
100
AcDbEntity
  8
0
 62
     0
100
AcDbMText
 10
0.0
 20
4.0927900738
 30
0.0
 40
3.175
 41
0.0
 71
     1
 72
     1
  1
10
  7
SLDTEXTSTYLE0
 73
     1
 44
1.0
  0
ENDBLK
  5
18F
330
18D
100
AcDbEntity
  8
0
100
AcDbBlockEnd
  0
BLOCK
  5
196
330
195
100
AcDbEntity
  8
0
100
AcDbBlockBegin
  2
SW_BLOCK_DIMENSION_22
 70
     0
 10
0.0
 20
0.0
 30
0.0
  3
SW_BLOCK_DIMENSION_22
  1

  0
SOLID
  5
198
330
195
100
AcDbEntity
  8
0
 62
     0
100
AcDbTrace
 10
-1.8
 20
2.3665509652
 30
0.0
 11
-2.7
 21
-2.6334490348
 31
0.0
 12
-0.9
 22
-2.6334490348
 32
0.0
 13
-0.9
 23
-2.6334490348
 33
0.0
  0
LINE
  5
199
330
195
100
AcDbEntity
  8
0
 62
     0
100
AcDbLine
 10
-11.3062660664
 20
2.3665509652
 30
0.0
 11
0.0
 21
2.3665509652
 31
0.0
  0
LINE
  5
19A
330
195
100
AcDbEntity
  8
0
 62
     0
100
AcDbLine
 10
-1.8
 20
-7.6334490348
 30
0.0
 11
-1.8
 21
2.3665509652
 31
0.0
  0
MTEXT
  5
19B
330
195
100
AcDbEntity
  8
0
 62
     0
100
AcDbMText
 10
0.0
 20
4.0927900738
 30
0.0
 40
3.175
 41
0.0
 71
     1
 72
     1
  1
20
  7
SLDTEXTSTYLE0
 73
     1
 44
1.0
  0
ENDBLK
  5
197
330
195
100
AcDbEntity
  8
0
100
AcDbBlockEnd
  0
BLOCK
  5
19E
330
19D
100
AcDbEntity
  8
0
100
AcDbBlockBegin
  2
SW_BLOCK_DIMENSION_23
 70
     0
 10
0.0
 20
0.0
 30
0.0
  3
SW_BLOCK_DIMENSION_23
  1

  0
SOLID
  5
1A0
330
19D
100
AcDbEntity
  8
0
 62
     0
100
AcDbTrace
 10
-1.8
 20
2.3665509652
 30
0.0
 11
-2.7
 21
-2.6334490348
 31
0.0
 12
-0.9
 22
-2.6334490348
 32
0.0
 13
-0.9
 23
-2.6334490348
 33
0.0
  0
LINE
  5
1A1
330
19D
100
AcDbEntity
  8
0
 62
     0
100
AcDbLine
 10
-11.3062660664
 20
2.3665509652
 30
0.0
 11
0.0
 21
2.3665509652
 31
0.0
  0
LINE
  5
1A2
330
19D
100
AcDbEntity
  8
0
 62
     0
100
AcDbLine
 10
-1.8
 20
-7.6334490348
 30
0.0
 11
-1.8
 21
2.3665509652
 31
0.0
  0
MTEXT
  5
1A3
330
19D
100
AcDbEntity
  8
0
 62
     0
100
AcDbMText
 10
0.0
 20
4.0927900738
 30
0.0
 40
3.175
 41
0.0
 71
     1
 72
     1
  1
30
  7
SLDTEXTSTYLE0
 73
     1
 44
1.0
  0
ENDBLK
  5
19F
330
19D
100
AcDbEntity
  8
0
100
AcDbBlockEnd
  0
BLOCK
  5
1A6
330
1A5
100
AcDbEntity
  8
0
100
AcDbBlockBegin
  2
SW_BLOCK_DIMENSION_24
 70
     0
 10
0.0
 20
0.0
 30
0.0
  3
SW_BLOCK_DIMENSION_24
  1

  0
SOLID
  5
1A8
330
1A5
100
AcDbEntity
  8
0
 62
     0
100
AcDbTrace
 10
-1.8
 20
2.3665509652
 30
0.0
 11
-2.7
 21
-2.6334490348
 31
0.0
 12
-0.9
 22
-2.6334490348
 32
0.0
 13
-0.9
 23
-2.6334490348
 33
0.0
  0
LINE
  5
1A9
330
1A5
100
AcDbEntity
  8
0
 62
     0
100
AcDbLine
 10
-11.3062660664
 20
2.3665509652
 30
0.0
 11
0.0
 21
2.3665509652
 31
0.0
  0
LINE
  5
1AA
330
1A5
100
AcDbEntity
  8
0
 62
     0
100
AcDbLine
 10
-1.8
 20
-7.6334490348
 30
0.0
 11
-1.8
 21
2.3665509652
 31
0.0
  0
MTEXT
  5
1AB
330
1A5
100
AcDbEntity
  8
0
 62
     0
100
AcDbMText
 10
0.0
 20
4.0927900738
 30
0.0
 40
3.175
 41
0.0
 71
     1
 72
     1
  1
40
  7
SLDTEXTSTYLE0
 73
     1
 44
1.0
  0
ENDBLK
  5
1A7
330
1A5
100
AcDbEntity
  8
0
100
AcDbBlockEnd
  0
BLOCK
  5
1AE
330
1AD
100
AcDbEntity
  8
0
100
AcDbBlockBegin
  2
SW_BLOCK_DIMENSION_25
 70
     0
 10
0.0
 20
0.0
 30
0.0
  3
SW_BLOCK_DIMENSION_25
  1

  0
SOLID
  5
1B0
330
1AD
100
AcDbEntity
  8
0
 62
     0
100
AcDbTrace
 10
-1.8
 20
2.3665509652
 30
0.0
 11
-2.7
 21
-2.6334490348
 31
0.0
 12
-0.9
 22
-2.6334490348
 32
0.0
 13
-0.9
 23
-2.6334490348
 33
0.0
  0
LINE
  5
1B1
330
1AD
100
AcDbEntity
  8
0
 62
     0
100
AcDbLine
 10
-11.3062660664
 20
2.3665509652
 30
0.0
 11
0.0
 21
2.3665509652
 31
0.0
  0
LINE
  5
1B2
330
1AD
100
AcDbEntity
  8
0
 62
     0
100
AcDbLine
 10
-1.8
 20
-7.6334490348
 30
0.0
 11
-1.8
 21
2.3665509652
 31
0.0
  0
MTEXT
  5
1B3
330
1AD
100
AcDbEntity
  8
0
 62
     0
100
AcDbMText
 10
0.0
 20
4.0927900738
 30
0.0
 40
3.175
 41
0.0
 71
     1
 72
     1
  1
50
  7
SLDTEXTSTYLE0
 73
     1
 44
1.0
  0
ENDBLK
  5
1AF
330
1AD
100
AcDbEntity
  8
0
100
AcDbBlockEnd
  0
BLOCK
  5
1B6
330
1B5
100
AcDbEntity
  8
0
100
AcDbBlockBegin
  2
SW_BLOCK_DIMENSION_26
 70
     0
 10
0.0
 20
0.0
 30
0.0
  3
SW_BLOCK_DIMENSION_26
  1

  0
SOLID
  5
1B8
330
1B5
100
AcDbEntity
  8
0
 62
     0
100
AcDbTrace
 10
-1.8
 20
2.3665509652
 30
0.0
 11
-2.7
 21
-2.6334490348
 31
0.0
 12
-0.9
 22
-2.6334490348
 32
0.0
 13
-0.9
 23
-2.6334490348
 33
0.0
  0
LINE
  5
1B9
330
1B5
100
AcDbEntity
  8
0
 62
     0
100
AcDbLine
 10
-11.3062660664
 20
2.3665509652
 30
0.0
 11
0.0
 21
2.3665509652
 31
0.0
  0
LINE
  5
1BA
330
1B5
100
AcDbEntity
  8
0
 62
     0
100
AcDbLine
 10
-1.8
 20
-7.6334490348
 30
0.0
 11
-1.8
 21
2.3665509652
 31
0.0
  0
MTEXT
  5
1BB
330
1B5
100
AcDbEntity
  8
0
 62
     0
100
AcDbMText
 10
0.0
 20
4.0927900738
 30
0.0
 40
3.175
 41
0.0
 71
     1
 72
     1
  1
60
  7
SLDTEXTSTYLE0
 73
     1
 44
1.0
  0
ENDBLK
  5
1B7
330
1B5
100
AcDbEntity
  8
0
100
AcDbBlockEnd
  0
BLOCK
  5
1BE
330
1BD
100
AcDbEntity
  8
0
100
AcDbBlockBegin
  2
SW_BLOCK_DIMENSION_27
 70
     0
 10
0.0
 20
0.0
 30
0.0
  3
SW_BLOCK_DIMENSION_27
  1

  0
SOLID
  5
1C0
330
1BD
100
AcDbEntity
  8
0
 62
     0
100
AcDbTrace
 10
-1.8
 20
2.3665509652
 30
0.0
 11
-2.7
 21
-2.6334490348
 31
0.0
 12
-0.9
 22
-2.6334490348
 32
0.0
 13
-0.9
 23
-2.6334490348
 33
0.0
  0
LINE
  5
1C1
330
1BD
100
AcDbEntity
  8
0
 62
     0
100
AcDbLine
 10
-11.3062660664
 20
2.3665509652
 30
0.0
 11
0.0
 21
2.3665509652
 31
0.0
  0
LINE
  5
1C2
330
1BD
100
AcDbEntity
  8
0
 62
     0
100
AcDbLine
 10
-1.8
 20
-7.6334490348
 30
0.0
 11
-1.8
 21
2.3665509652
 31
0.0
  0
MTEXT
  5
1C3
330
1BD
100
AcDbEntity
  8
0
 62
     0
100
AcDbMText
 10
0.0
 20
4.0927900738
 30
0.0
 40
3.175
 41
0.0
 71
     1
 72
     1
  1
70
  7
SLDTEXTSTYLE0
 73
     1
 44
1.0
  0
ENDBLK
  5
1BF
330
1BD
100
AcDbEntity
  8
0
100
AcDbBlockEnd
  0
BLOCK
  5
1C6
330
1C5
100
AcDbEntity
  8
0
100
AcDbBlockBegin
  2
SW_BLOCK_DIMENSION_28
 70
     0
 10
0.0
 20
0.0
 30
0.0
  3
SW_BLOCK_DIMENSION_28
  1

  0
SOLID
  5
1C8
330
1C5
100
AcDbEntity
  8
0
 62
     0
100
AcDbTrace
 10
-1.8
 20
2.3665509652
 30
0.0
 11
-2.7
 21
-2.6334490348
 31
0.0
 12
-0.9
 22
-2.6334490348
 32
0.0
 13
-0.9
 23
-2.6334490348
 33
0.0
  0
LINE
  5
1C9
330
1C5
100
AcDbEntity
  8
0
 62
     0
100
AcDbLine
 10
-11.3062660664
 20
2.3665509652
 30
0.0
 11
0.0
 21
2.3665509652
 31
0.0
  0
LINE
  5
1CA
330
1C5
100
AcDbEntity
  8
0
 62
     0
100
AcDbLine
 10
-1.8
 20
-7.6334490348
 30
0.0
 11
-1.8
 21
2.3665509652
 31
0.0
  0
MTEXT
  5
1CB
330
1C5
100
AcDbEntity
  8
0
 62
     0
100
AcDbMText
 10
0.0
 20
4.0927900738
 30
0.0
 40
3.175
 41
0.0
 71
     1
 72
     1
  1
80
  7
SLDTEXTSTYLE0
 73
     1
 44
1.0
  0
ENDBLK
  5
1C7
330
1C5
100
AcDbEntity
  8
0
100
AcDbBlockEnd
  0
BLOCK
  5
1CE
330
1CD
100
AcDbEntity
  8
0
100
AcDbBlockBegin
  2
SW_BLOCK_DIMENSION_29
 70
     0
 10
0.0
 20
0.0
 30
0.0
  3
SW_BLOCK_DIMENSION_29
  1

  0
SOLID
  5
1D0
330
1CD
100
AcDbEntity
  8
0
 62
     0
100
AcDbTrace
 10
-1.8
 20
2.3665509652
 30
0.0
 11
-2.7
 21
-2.6334490348
 31
0.0
 12
-0.9
 22
-2.6334490348
 32
0.0
 13
-0.9
 23
-2.6334490348
 33
0.0
  0
LINE
  5
1D1
330
1CD
100
AcDbEntity
  8
0
 62
     0
100
AcDbLine
 10
-11.3062660664
 20
2.3665509652
 30
0.0
 11
0.0
 21
2.3665509652
 31
0.0
  0
LINE
  5
1D2
330
1CD
100
AcDbEntity
  8
0
 62
     0
100
AcDbLine
 10
-1.8
 20
-7.6334490348
 30
0.0
 11
-1.8
 21
2.3665509652
 31
0.0
  0
MTEXT
  5
1D3
330
1CD
100
AcDbEntity
  8
0
 62
     0
100
AcDbMText
 10
0.0
 20
4.0927900738
 30
0.0
 40
3.175
 41
0.0
 71
     1
 72
     1
  1
90
  7
SLDTEXTSTYLE0
 73
     1
 44
1.0
  0
ENDBLK
  5
1CF
330
1CD
100
AcDbEntity
  8
0
100
AcDbBlockEnd
  0
BLOCK
  5
1D6
330
1D5
100
AcDbEntity
  8
0
100
AcDbBlockBegin
  2
SW_BLOCK_DIMENSION_30
 70
     0
 10
0.0
 20
0.0
 30
0.0
  3
SW_BLOCK_DIMENSION_30
  1

  0
SOLID
  5
1D8
330
1D5
100
AcDbEntity
  8
0
 62
     0
100
AcDbTrace
 10
-1.8
 20
2.3665509652
 30
0.0
 11
-2.7
 21
-2.6334490348
 31
0.0
 12
-0.9
 22
-2.6334490348
 32
0.0
 13
-0.9
 23
-2.6334490348
 33
0.0
  0
LINE
  5
1D9
330
1D5
100
AcDbEntity
  8
0
 62
     0
100
AcDbLine
 10
-11.3062660664
 20
2.3665509652
 30
0.0
 11
0.0
 21
2.3665509652
 31
0.0
  0
LINE
  5
1DA
330
1D5
100
AcDbEntity
  8
0
 62
     0
100
AcDbLine
 10
-1.8
 20
-7.6334490348
 30
0.0
 11
-1.8
 21
2.3665509652
 31
0.0
  0
MTEXT
  5
1DB
330
1D5
100
AcDbEntity
  8
0
 62
     0
100
AcDbMText
 10
0.0
 20
4.0927900738
 30
0.0
 40
3.175
 41
0.0
 71
     1
 72
     1
  1
100
  7
SLDTEXTSTYLE0
 73
     1
 44
1.0
  0
ENDBLK
  5
1D7
330
1D5
100
AcDbEntity
  8
0
100
AcDbBlockEnd
  0
BLOCK
  5
1DE
330
1DD
100
AcDbEntity
  8
0
100
AcDbBlockBegin
  2
SW_BLOCK_DIMENSION_31
 70
     0
 10
0.0
 20
0.0
 30
0.0
  3
SW_BLOCK_DIMENSION_31
  1

  0
SOLID
  5
1E0
330
1DD
100
AcDbEntity
  8
0
 62
     0
100
AcDbTrace
 10
-1.8
 20
2.3665509652
 30
0.0
 11
-2.7
 21
-2.6334490348
 31
0.0
 12
-0.9
 22
-2.6334490348
 32
0.0
 13
-0.9
 23
-2.6334490348
 33
0.0
  0
LINE
  5
1E1
330
1DD
100
AcDbEntity
  8
0
 62
     0
100
AcDbLine
 10
-11.3062660664
 20
2.3665509652
 30
0.0
 11
0.0
 21
2.3665509652
 31
0.0
  0
LINE
  5
1E2
330
1DD
100
AcDbEntity
  8
0
 62
     0
100
AcDbLine
 10
-1.8
 20
-7.6334490348
 30
0.0
 11
-1.8
 21
2.3665509652
 31
0.0
  0
MTEXT
  5
1E3
330
1DD
100
AcDbEntity
  8
0
 62
     0
100
AcDbMText
 10
0.0
 20
4.0927900738
 30
0.0
 40
3.175
 41
0.0
 71
     1
 72
     1
  1
110
  7
SLDTEXTSTYLE0
 73
     1
 44
1.0
  0
ENDBLK
  5
1DF
330
1DD
100
AcDbEntity
  8
0
100
AcDbBlockEnd
  0
BLOCK
  5
1E6
330
1E5
100
AcDbEntity
  8
0
100
AcDbBlockBegin
  2
SW_BLOCK_DIMENSION_32
 70
     0
 10
0.0
 20
0.0
 30
0.0
  3
SW_BLOCK_DIMENSION_32
  1

  0
SOLID
  5
1E8
330
1E5
100
AcDbEntity
  8
0
 62
     0
100
AcDbTrace
 10
-1.8
 20
2.3665509652
 30
0.0
 11
-2.7
 21
-2.6334490348
 31
0.0
 12
-0.9
 22
-2.6334490348
 32
0.0
 13
-0.9
 23
-2.6334490348
 33
0.0
  0
LINE
  5
1E9
330
1E5
100
AcDbEntity
  8
0
 62
     0
100
AcDbLine
 10
-11.3062660664
 20
2.3665509652
 30
0.0
 11
0.0
 21
2.3665509652
 31
0.0
  0
LINE
  5
1EA
330
1E5
100
AcDbEntity
  8
0
 62
     0
100
AcDbLine
 10
-1.8
 20
-7.6334490348
 30
0.0
 11
-1.8
 21
2.3665509652
 31
0.0
  0
MTEXT
  5
1EB
330
1E5
100
AcDbEntity
  8
0
 62
     0
100
AcDbMText
 10
0.0
 20
4.0927900738
 30
0.0
 40
3.175
 41
0.0
 71
     1
 72
     1
  1
120
  7
SLDTEXTSTYLE0
 73
     1
 44
1.0
  0
ENDBLK
  5
1E7
330
1E5
100
AcDbEntity
  8
0
100
AcDbBlockEnd
  0
BLOCK
  5
1EE
330
1ED
100
AcDbEntity
  8
0
100
AcDbBlockBegin
  2
SW_BLOCK_DIMENSION_33
 70
     0
 10
0.0
 20
0.0
 30
0.0
  3
SW_BLOCK_DIMENSION_33
  1

  0
SOLID
  5
1F0
330
1ED
100
AcDbEntity
  8
0
 62
     0
100
AcDbTrace
 10
-1.8
 20
2.3665509652
 30
0.0
 11
-2.7
 21
-2.6334490348
 31
0.0
 12
-0.9
 22
-2.6334490348
 32
0.0
 13
-0.9
 23
-2.6334490348
 33
0.0
  0
LINE
  5
1F1
330
1ED
100
AcDbEntity
  8
0
 62
     0
100
AcDbLine
 10
-11.3062660664
 20
2.3665509652
 30
0.0
 11
0.0
 21
2.3665509652
 31
0.0
  0
LINE
  5
1F2
330
1ED
100
AcDbEntity
  8
0
 62
     0
100
AcDbLine
 10
-1.8
 20
-7.6334490348
 30
0.0
 11
-1.8
 21
2.3665509652
 31
0.0
  0
MTEXT
  5
1F3
330
1ED
100
AcDbEntity
  8
0
 62
     0
100
AcDbMText
 10
0.0
 20
4.0927900738
 30
0.0
 40
3.175
 41
0.0
 71
     1
 72
     1
  1
130
  7
SLDTEXTSTYLE0
 73
     1
 44
1.0
  0
ENDBLK
  5
1EF
330
1ED
100
AcDbEntity
  8
0
100
AcDbBlockEnd
  0
BLOCK
  5
1F6
330
1F5
100
AcDbEntity
  8
0
100
AcDbBlockBegin
  2
SW_BLOCK_DIMENSION_34
 70
     0
 10
0.0
 20
0.0
 30
0.0
  3
SW_BLOCK_DIMENSION_34
  1

  0
INSERT
  5
1F8
330
1F5
100
AcDbEntity
  8
0
 62
     0
100
AcDbBlockReference
  2
_Origin
 10
12.7419915825
 20
5.1887726877
 30
0.0
 41
1.8
 42
1.8
 50
0.0
  0
LINE
  5
1F9
330
1F5
100
AcDbEntity
  8
0
 62
     0
100
AcDbLine
 10
3.2925925916
 20
9.671990294
 30
0.0
 11
2.2342592711
 21
9.671990294
 31
0.0
  0
LINE
  5
1FA
330
1F5
100
AcDbEntity
  8
0
 62
     0
100
AcDbLine
 10
2.2342592711
 20
9.671990294
 30
0.0
 11
2.2342592711
 21
4.9388883635
 31
0.0
  0
LINE
  5
1FB
330
1F5
100
AcDbEntity
  8
0
 62
     0
100
AcDbLine
 10
2.2342592711
 20
4.9388883635
 30
0.0
 11
3.2925925916
 21
4.9388883635
 31
0.0
  0
LINE
  5
1FC
330
1F5
100
AcDbEntity
  8
0
 62
     0
100
AcDbLine
 10
7.6493982924
 20
9.671990294
 30
0.0
 11
8.707731613
 21
9.671990294
 31
0.0
  0
LINE
  5
1FD
330
1F5
100
AcDbEntity
  8
0
 62
     0
100
AcDbLine
 10
8.707731613
 20
9.671990294
 30
0.0
 11
8.707731613
 21
4.9388883635
 31
0.0
  0
LINE
  5
1FE
330
1F5
100
AcDbEntity
  8
0
 62
     0
100
AcDbLine
 10
8.707731613
 20
4.9388883635
 30
0.0
 11
7.6493982924
 21
4.9388883635
 31
0.0
  0
LINE
  5
1FF
330
1F5
100
AcDbEntity
  8
0
 62
     0
100
AcDbLine
 10
21.5099578393
 20
5.1887726877
 30
0.0
 11
10.9419915825
 21
5.1887726877
 31
0.0
  0
MTEXT
  5
200
330
1F5
100
AcDbEntity
  8
0
 62
     0
100
AcDbMText
 10
1.190625
 20
4.0927900738
 30
0.0
 40
3.175
 41
0.0
 71
     1
 72
     1
  1

  7
SLDTEXTSTYLE0
 73
     1
 44
1.0
  0
MTEXT
  5
201
330
1F5
100
AcDbEntity
  8
0
 62
     0
100
AcDbMText
 10
3.2925925916
 20
9.0316784373
 30
0.0
 40
3.175
 41
0.0
 71
     1
 72
     1
  1
0"
  7
SLDTEXTSTYLE0
 73
     1
 44
1.0
  0
MTEXT
  5
202
330
1F5
100
AcDbEntity
  8
0
 62
     0
100
AcDbMText
 10
4.2950697243
 20
4.0927898409
 30
0.0
 40
3.175
 41
0.0
 71
     1
 72
     1
  1
0
  7
SLDTEXTSTYLE0
 73
     1
 44
1.0
  0
MTEXT
  5
203
330
1F5
100
AcDbEntity
  8
0
 62
     0
100
AcDbMText
 10
10.9566905156
 20
4.0927900738
 30
0.0
 40
3.175
 41
0.0
 71
     1
 72
     1
  1

  7
SLDTEXTSTYLE0
 73
     1
 44
1.0
  0
ENDBLK
  5
1F7
330
1F5
100
AcDbEntity
  8
0
100
AcDbBlockEnd
  0
BLOCK
  5
206
330
205
100
AcDbEntity
  8
0
100
AcDbBlockBegin
  2
SW_BLOCK_DIMENSION_35
 70
     0
 10
0.0
 20
0.0
 30
0.0
  3
SW_BLOCK_DIMENSION_35
  1

  0
SOLID
  5
208
330
205
100
AcDbEntity
  8
0
 62
     0
100
AcDbTrace
 10
14.735185805
 20
5.1887726877
 30
0.0
 11
13.835185805
 21
0.1887726877
 31
0.0
 12
15.635185805
 22
0.1887726877
 32
0.0
 13
15.635185805
 23
0.1887726877
 33
0.0
  0
LINE
  5
209
330
205
100
AcDbEntity
  8
0
 62
     0
100
AcDbLine
 10
4.2891897028
 20
9.671990294
 30
0.0
 11
3.2308563823
 21
9.671990294
 31
0.0
  0
LINE
  5
20A
330
205
100
AcDbEntity
  8
0
 62
     0
100
AcDbLine
 10
3.2308563823
 20
9.671990294
 30
0.0
 11
3.2308563823
 21
4.9388883635
 31
0.0
  0
LINE
  5
20B
330
205
100
AcDbEntity
  8
0
 62
     0
100
AcDbLine
 10
3.2308563823
 20
4.9388883635
 30
0.0
 11
4.2891897028
 21
4.9388883635
 31
0.0
  0
LINE
  5
20C
330
205
100
AcDbEntity
  8
0
 62
     0
100
AcDbLine
 10
8.6459954036
 20
9.671990294
 30
0.0
 11
9.7043287242
 21
9.671990294
 31
0.0
  0
LINE
  5
20D
330
205
100
AcDbEntity
  8
0
 62
     0
100
AcDbLine
 10
9.7043287242
 20
9.671990294
 30
0.0
 11
9.7043287242
 21
4.9388883635
 31
0.0
  0
LINE
  5
20E
330
205
100
AcDbEntity
  8
0
 62
     0
100
AcDbLine
 10
9.7043287242
 20
4.9388883635
 30
0.0
 11
8.6459954036
 21
4.9388883635
 31
0.0
  0
LINE
  5
20F
330
205
100
AcDbEntity
  8
0
 62
     0
100
AcDbLine
 10
22.7231520617
 20
5.1887726877
 30
0.0
 11
12.935185805
 21
5.1887726877
 31
0.0
  0
LINE
  5
210
330
205
100
AcDbEntity
  8
0
 62
     0
100
AcDbLine
 10
14.735185805
 20
-20.2112273123
 30
0.0
 11
14.735185805
 21
5.1887726877
 31
0.0
  0
MTEXT
  5
211
330
205
100
AcDbEntity
  8
0
 62
     0
100
AcDbMText
 10
1.190625
 20
4.0927900738
 30
0.0
 40
3.175
 41
0.0
 71
     1
 72
     1
  1

  7
SLDTEXTSTYLE0
 73
     1
 44
1.0
  0
MTEXT
  5
212
330
205
100
AcDbEntity
  8
0
 62
     0
100
AcDbMText
 10
4.2891897028
 20
9.0316784373
 30
0.0
 40
3.175
 41
0.0
 71
     1
 72
     1
  1
1"
  7
SLDTEXTSTYLE0
 73
     1
 44
1.0
  0
MTEXT
  5
213
330
205
100
AcDbEntity
  8
0
 62
     0
100
AcDbMText
 10
1.1759259505
 20
4.0927898409
 30
0.0
 40
3.175
 41
0.0
 71
     1
 72
     1
  1
25,40
  7
SLDTEXTSTYLE0
 73
     1
 44
1.0
  0
MTEXT
  5
214
330
205
100
AcDbEntity
  8
0
 62
     0
100
AcDbMText
 10
12.949884738
 20
4.0927900738
 30
0.0
 40
3.175
 41
0.0
 71
     1
 72
     1
  1

  7
SLDTEXTSTYLE0
 73
     1
 44
1.0
  0
ENDBLK
  5
207
330
205
100
AcDbEntity
  8
0
100
AcDbBlockEnd
  0
BLOCK
  5
217
330
216
100
AcDbEntity
  8
0
100
AcDbBlockBegin
  2
SW_BLOCK_DIMENSION_36
 70
     0
 10
0.0
 20
0.0
 30
0.0
  3
SW_BLOCK_DIMENSION_36
  1

  0
SOLID
  5
219
330
216
100
AcDbEntity
  8
0
 62
     0
100
AcDbTrace
 10
14.735185805
 20
5.1887726877
 30
0.0
 11
13.835185805
 21
0.1887726877
 31
0.0
 12
15.635185805
 22
0.1887726877
 32
0.0
 13
15.635185805
 23
0.1887726877
 33
0.0
  0
LINE
  5
21A
330
216
100
AcDbEntity
  8
0
 62
     0
100
AcDbLine
 10
4.2891897028
 20
9.671990294
 30
0.0
 11
3.2308563823
 21
9.671990294
 31
0.0
  0
LINE
  5
21B
330
216
100
AcDbEntity
  8
0
 62
     0
100
AcDbLine
 10
3.2308563823
 20
9.671990294
 30
0.0
 11
3.2308563823
 21
4.9388883635
 31
0.0
  0
LINE
  5
21C
330
216
100
AcDbEntity
  8
0
 62
     0
100
AcDbLine
 10
3.2308563823
 20
4.9388883635
 30
0.0
 11
4.2891897028
 21
4.9388883635
 31
0.0
  0
LINE
  5
21D
330
216
100
AcDbEntity
  8
0
 62
     0
100
AcDbLine
 10
8.6459954036
 20
9.671990294
 30
0.0
 11
9.7043287242
 21
9.671990294
 31
0.0
  0
LINE
  5
21E
330
216
100
AcDbEntity
  8
0
 62
     0
100
AcDbLine
 10
9.7043287242
 20
9.671990294
 30
0.0
 11
9.7043287242
 21
4.9388883635
 31
0.0
  0
LINE
  5
21F
330
216
100
AcDbEntity
  8
0
 62
     0
100
AcDbLine
 10
9.7043287242
 20
4.9388883635
 30
0.0
 11
8.6459954036
 21
4.9388883635
 31
0.0
  0
LINE
  5
220
330
216
100
AcDbEntity
  8
0
 62
     0
100
AcDbLine
 10
22.7231520617
 20
5.1887726877
 30
0.0
 11
12.935185805
 21
5.1887726877
 31
0.0
  0
LINE
  5
221
330
216
100
AcDbEntity
  8
0
 62
     0
100
AcDbLine
 10
14.735185805
 20
-20.2112273123
 30
0.0
 11
14.735185805
 21
5.1887726877
 31
0.0
  0
MTEXT
  5
222
330
216
100
AcDbEntity
  8
0
 62
     0
100
AcDbMText
 10
1.190625
 20
4.0927900738
 30
0.0
 40
3.175
 41
0.0
 71
     1
 72
     1
  1

  7
SLDTEXTSTYLE0
 73
     1
 44
1.0
  0
MTEXT
  5
223
330
216
100
AcDbEntity
  8
0
 62
     0
100
AcDbMText
 10
4.2891897028
 20
9.0316784373
 30
0.0
 40
3.175
 41
0.0
 71
     1
 72
     1
  1
2"
  7
SLDTEXTSTYLE0
 73
     1
 44
1.0
  0
MTEXT
  5
224
330
216
100
AcDbEntity
  8
0
 62
     0
100
AcDbMText
 10
1.1759259505
 20
4.0927898409
 30
0.0
 40
3.175
 41
0.0
 71
     1
 72
     1
  1
50,80
  7
SLDTEXTSTYLE0
 73
     1
 44
1.0
  0
MTEXT
  5
225
330
216
100
AcDbEntity
  8
0
 62
     0
100
AcDbMText
 10
12.949884738
 20
4.0927900738
 30
0.0
 40
3.175
 41
0.0
 71
     1
 72
     1
  1

  7
SLDTEXTSTYLE0
 73
     1
 44
1.0
  0
ENDBLK
  5
218
330
216
100
AcDbEntity
  8
0
100
AcDbBlockEnd
  0
BLOCK
  5
228
330
227
100
AcDbEntity
  8
0
100
AcDbBlockBegin
  2
SW_BLOCK_DIMENSION_37
 70
     0
 10
0.0
 20
0.0
 30
0.0
  3
SW_BLOCK_DIMENSION_37
  1

  0
SOLID
  5
22A
330
227
100
AcDbEntity
  8
0
 62
     0
100
AcDbTrace
 10
14.735185805
 20
5.1887726877
 30
0.0
 11
13.835185805
 21
0.1887726877
 31
0.0
 12
15.635185805
 22
0.1887726877
 32
0.0
 13
15.635185805
 23
0.1887726877
 33
0.0
  0
LINE
  5
22B
330
227
100
AcDbEntity
  8
0
 62
     0
100
AcDbLine
 10
4.2891897028
 20
9.671990294
 30
0.0
 11
3.2308563823
 21
9.671990294
 31
0.0
  0
LINE
  5
22C
330
227
100
AcDbEntity
  8
0
 62
     0
100
AcDbLine
 10
3.2308563823
 20
9.671990294
 30
0.0
 11
3.2308563823
 21
4.9388883635
 31
0.0
  0
LINE
  5
22D
330
227
100
AcDbEntity
  8
0
 62
     0
100
AcDbLine
 10
3.2308563823
 20
4.9388883635
 30
0.0
 11
4.2891897028
 21
4.9388883635
 31
0.0
  0
LINE
  5
22E
330
227
100
AcDbEntity
  8
0
 62
     0
100
AcDbLine
 10
8.6459954036
 20
9.671990294
 30
0.0
 11
9.7043287242
 21
9.671990294
 31
0.0
  0
LINE
  5
22F
330
227
100
AcDbEntity
  8
0
 62
     0
100
AcDbLine
 10
9.7043287242
 20
9.671990294
 30
0.0
 11
9.7043287242
 21
4.9388883635
 31
0.0
  0
LINE
  5
230
330
227
100
AcDbEntity
  8
0
 62
     0
100
AcDbLine
 10
9.7043287242
 20
4.9388883635
 30
0.0
 11
8.6459954036
 21
4.9388883635
 31
0.0
  0
LINE
  5
231
330
227
100
AcDbEntity
  8
0
 62
     0
100
AcDbLine
 10
22.7231520617
 20
5.1887726877
 30
0.0
 11
12.935185805
 21
5.1887726877
 31
0.0
  0
LINE
  5
232
330
227
100
AcDbEntity
  8
0
 62
     0
100
AcDbLine
 10
14.735185805
 20
-20.2112273123
 30
0.0
 11
14.735185805
 21
5.1887726877
 31
0.0
  0
MTEXT
  5
233
330
227
100
AcDbEntity
  8
0
 62
     0
100
AcDbMText
 10
1.190625
 20
4.0927900738
 30
0.0
 40
3.175
 41
0.0
 71
     1
 72
     1
  1

  7
SLDTEXTSTYLE0
 73
     1
 44
1.0
  0
MTEXT
  5
234
330
227
100
AcDbEntity
  8
0
 62
     0
100
AcDbMText
 10
4.2891897028
 20
9.0316784373
 30
0.0
 40
3.175
 41
0.0
 71
     1
 72
     1
  1
3"
  7
SLDTEXTSTYLE0
 73
     1
 44
1.0
  0
MTEXT
  5
235
330
227
100
AcDbEntity
  8
0
 62
     0
100
AcDbMText
 10
1.1759259505
 20
4.0927898409
 30
0.0
 40
3.175
 41
0.0
 71
     1
 72
     1
  1
76,20
  7
SLDTEXTSTYLE0
 73
     1
 44
1.0
  0
MTEXT
  5
236
330
227
100
AcDbEntity
  8
0
 62
     0
100
AcDbMText
 10
12.949884738
 20
4.0927900738
 30
0.0
 40
3.175
 41
0.0
 71
     1
 72
     1
  1

  7
SLDTEXTSTYLE0
 73
     1
 44
1.0
  0
ENDBLK
  5
229
330
227
100
AcDbEntity
  8
0
100
AcDbBlockEnd
  0
BLOCK
  5
239
330
238
100
AcDbEntity
  8
0
100
AcDbBlockBegin
  2
SW_BLOCK_DIMENSION_38
 70
     0
 10
0.0
 20
0.0
 30
0.0
  3
SW_BLOCK_DIMENSION_38
  1

  0
SOLID
  5
23B
330
238
100
AcDbEntity
  8
0
 62
     0
100
AcDbTrace
 10
17.0870379388
 20
5.1887726877
 30
0.0
 11
16.1870379388
 21
0.1887726877
 31
0.0
 12
17.9870379388
 22
0.1887726877
 32
0.0
 13
17.9870379388
 23
0.1887726877
 33
0.0
  0
LINE
  5
23C
330
238
100
AcDbEntity
  8
0
 62
     0
100
AcDbLine
 10
5.4651157698
 20
9.671990294
 30
0.0
 11
4.4067824492
 21
9.671990294
 31
0.0
  0
LINE
  5
23D
330
238
100
AcDbEntity
  8
0
 62
     0
100
AcDbLine
 10
4.4067824492
 20
9.671990294
 30
0.0
 11
4.4067824492
 21
4.9388883635
 31
0.0
  0
LINE
  5
23E
330
238
100
AcDbEntity
  8
0
 62
     0
100
AcDbLine
 10
4.4067824492
 20
4.9388883635
 30
0.0
 11
5.4651157698
 21
4.9388883635
 31
0.0
  0
LINE
  5
23F
330
238
100
AcDbEntity
  8
0
 62
     0
100
AcDbLine
 10
9.8219214706
 20
9.671990294
 30
0.0
 11
10.8802547911
 21
9.671990294
 31
0.0
  0
LINE
  5
240
330
238
100
AcDbEntity
  8
0
 62
     0
100
AcDbLine
 10
10.8802547911
 20
9.671990294
 30
0.0
 11
10.8802547911
 21
4.9388883635
 31
0.0
  0
LINE
  5
241
330
238
100
AcDbEntity
  8
0
 62
     0
100
AcDbLine
 10
10.8802547911
 20
4.9388883635
 30
0.0
 11
9.8219214706
 21
4.9388883635
 31
0.0
  0
LINE
  5
242
330
238
100
AcDbEntity
  8
0
 62
     0
100
AcDbLine
 10
25.0750041956
 20
5.1887726877
 30
0.0
 11
15.2870379388
 21
5.1887726877
 31
0.0
  0
LINE
  5
243
330
238
100
AcDbEntity
  8
0
 62
     0
100
AcDbLine
 10
17.0870379388
 20
-20.2112273123
 30
0.0
 11
17.0870379388
 21
5.1887726877
 31
0.0
  0
MTEXT
  5
244
330
238
100
AcDbEntity
  8
0
 62
     0
100
AcDbMText
 10
1.190625
 20
4.0927900738
 30
0.0
 40
3.175
 41
0.0
 71
     1
 72
     1
  1

  7
SLDTEXTSTYLE0
 73
     1
 44
1.0
  0
MTEXT
  5
245
330
238
100
AcDbEntity
  8
0
 62
     0
100
AcDbMText
 10
5.4651157698
 20
9.0316784373
 30
0.0
 40
3.175
 41
0.0
 71
     1
 72
     1
  1
4"
  7
SLDTEXTSTYLE0
 73
     1
 44
1.0
  0
MTEXT
  5
246
330
238
100
AcDbEntity
  8
0
 62
     0
100
AcDbMText
 10
1.1759259505
 20
4.0927898409
 30
0.0
 40
3.175
 41
0.0
 71
     1
 72
     1
  1
101,60
  7
SLDTEXTSTYLE0
 73
     1
 44
1.0
  0
MTEXT
  5
247
330
238
100
AcDbEntity
  8
0
 62
     0
100
AcDbMText
 10
15.3017368719
 20
4.0927900738
 30
0.0
 40
3.175
 41
0.0
 71
     1
 72
     1
  1

  7
SLDTEXTSTYLE0
 73
     1
 44
1.0
  0
ENDBLK
  5
23A
330
238
100
AcDbEntity
  8
0
100
AcDbBlockEnd
  0
BLOCK
  5
24A
330
249
100
AcDbEntity
  8
0
100
AcDbBlockBegin
  2
SW_BLOCK_DIMENSION_39
 70
     0
 10
0.0
 20
0.0
 30
0.0
  3
SW_BLOCK_DIMENSION_39
  1

  0
SOLID
  5
24C
330
249
100
AcDbEntity
  8
0
 62
     0
100
AcDbTrace
 10
12.7419915825
 20
5.1887726877
 30
0.0
 11
11.8419915825
 21
0.1887726877
 31
0.0
 12
13.6419915825
 22
0.1887726877
 32
0.0
 13
13.6419915825
 23
0.1887726877
 33
0.0
  0
LINE
  5
24D
330
249
100
AcDbEntity
  8
0
 62
     0
100
AcDbLine
 10
3.2925925916
 20
9.671990294
 30
0.0
 11
2.2342592711
 21
9.671990294
 31
0.0
  0
LINE
  5
24E
330
249
100
AcDbEntity
  8
0
 62
     0
100
AcDbLine
 10
2.2342592711
 20
9.671990294
 30
0.0
 11
2.2342592711
 21
4.9388883635
 31
0.0
  0
LINE
  5
24F
330
249
100
AcDbEntity
  8
0
 62
     0
100
AcDbLine
 10
2.2342592711
 20
4.9388883635
 30
0.0
 11
3.2925925916
 21
4.9388883635
 31
0.0
  0
LINE
  5
250
330
249
100
AcDbEntity
  8
0
 62
     0
100
AcDbLine
 10
7.6493982924
 20
9.671990294
 30
0.0
 11
8.707731613
 21
9.671990294
 31
0.0
  0
LINE
  5
251
330
249
100
AcDbEntity
  8
0
 62
     0
100
AcDbLine
 10
8.707731613
 20
9.671990294
 30
0.0
 11
8.707731613
 21
4.9388883635
 31
0.0
  0
LINE
  5
252
330
249
100
AcDbEntity
  8
0
 62
     0
100
AcDbLine
 10
8.707731613
 20
4.9388883635
 30
0.0
 11
7.6493982924
 21
4.9388883635
 31
0.0
  0
LINE
  5
253
330
249
100
AcDbEntity
  8
0
 62
     0
100
AcDbLine
 10
20.7299578393
 20
5.1887726877
 30
0.0
 11
10.9419915825
 21
5.1887726877
 31
0.0
  0
LINE
  5
254
330
249
100
AcDbEntity
  8
0
 62
     0
100
AcDbLine
 10
12.7419915825
 20
-20.2112273123
 30
0.0
 11
12.7419915825
 21
5.1887726877
 31
0.0
  0
MTEXT
  5
255
330
249
100
AcDbEntity
  8
0
 62
     0
100
AcDbMText
 10
1.190625
 20
4.0927900738
 30
0.0
 40
3.175
 41
0.0
 71
     1
 72
     1
  1

  7
SLDTEXTSTYLE0
 73
     1
 44
1.0
  0
MTEXT
  5
256
330
249
100
AcDbEntity
  8
0
 62
     0
100
AcDbMText
 10
3.2925925916
 20
9.0316784373
 30
0.0
 40
3.175
 41
0.0
 71
     1
 72
     1
  1
5"
  7
SLDTEXTSTYLE0
 73
     1
 44
1.0
  0
MTEXT
  5
257
330
249
100
AcDbEntity
  8
0
 62
     0
100
AcDbMText
 10
1.9432179397
 20
4.0927898409
 30
0.0
 40
3.175
 41
0.0
 71
     1
 72
     1
  1
127
  7
SLDTEXTSTYLE0
 73
     1
 44
1.0
  0
MTEXT
  5
258
330
249
100
AcDbEntity
  8
0
 62
     0
100
AcDbMText
 10
10.9566905156
 20
4.0927900738
 30
0.0
 40
3.175
 41
0.0
 71
     1
 72
     1
  1

  7
SLDTEXTSTYLE0
 73
     1
 44
1.0
  0
ENDBLK
  5
24B
330
249
100
AcDbEntity
  8
0
100
AcDbBlockEnd
  0
BLOCK
  5
25B
330
25A
100
AcDbEntity
  8
0
100
AcDbBlockBegin
  2
SW_NOTE_0_2
 70
     0
 10
0.0
 20
0.0
 30
0.0
  3
SW_NOTE_0_2
  1

  0
MTEXT
  5
25D
330
25A
100
AcDbEntity
  8
0
 62
     0
100
AcDbMText
 10
6.9453125
 20
4.7749217527
 30
0.0
 40
3.7041666667
 41
0.0
 71
     2
 72
     1
  1
(Inch)
  7
SLDTEXTSTYLE0
 73
     1
 44
1.0
  0
MTEXT
  5
25E
330
25A
100
AcDbEntity
  8
0
 62
     0
100
AcDbMText
 10
6.9624612493
 20
-1.1639672404
 30
0.0
 40
3.7041666667
 41
0.0
 71
     2
 72
     1
  1
mm
  7
SLDTEXTSTYLE0
 73
     1
 44
1.0
  0
ENDBLK
  5
25C
330
25A
100
AcDbEntity
  8
0
100
AcDbBlockEnd
  0
BLOCK
  5
261
330
260
100
AcDbEntity
  8
0
100
AcDbBlockBegin
  2
SW_NOTE_0_3
 70
     0
 10
0.0
 20
0.0
 30
0.0
  3
SW_NOTE_0_3
  1

  0
MTEXT
  5
263
330
260
100
AcDbEntity
  8
0
 62
     0
100
AcDbMText
 10
0.0
 20
4.7749217527
 30
0.0
 40
3.7041666667
 41
0.0
 71
     1
 72
     1
  1
mm
  7
SLDTEXTSTYLE0
 73
     1
 44
1.0
  0
ENDBLK
  5
262
330
260
100
AcDbEntity
  8
0
100
AcDbBlockEnd
  0
BLOCK
  5
270
330
26F
100
AcDbEntity
  8
0
100
AcDbBlockBegin
  2
SW_NOTE_0_4
 70
     0
 10
0.0
 20
0.0
 30
0.0
  3
SW_NOTE_0_4
  1

  0
MTEXT
  5
272
330
26F
100
AcDbEntity
  8
0
  6
Continuous
 62
     0
370
     0
100
AcDbMText
 10
20.290234375
 20
4.0927900738
 30
0.0
 40
3.175
 41
0.0
 71
     2
 72
     1
  1
ABP-Beyerle GmbH
  7
SLDTEXTSTYLE0
 73
     1
 44
1.0
  0
MTEXT
  5
273
330
26F
100
AcDbEntity
  8
0
  6
Continuous
 62
     0
370
     0
100
AcDbMText
 10
21.2512009293
 20
-0.1405432084
 30
0.0
 40
3.175
 41
0.0
 71
     2
 72
     1
  1
Im Schollengarten 24b, 76646 Bruchsal
  7
SLDTEXTSTYLE0
 73
     1
 44
1.0
  0
MTEXT
  5
274
330
26F
100
AcDbEntity
  8
0
  6
Continuous
 62
     0
370
     0
100
AcDbMText
 10
21.3320523173
 20
-4.3738764906
 30
0.0
 40
3.175
 41
0.0
 71
     2
 72
     1
  1
Tel. +49 (0)7251-9127-0, Fax. +49 (0)7251-9127-29
  7
SLDTEXTSTYLE0
 73
     1
 44
1.0
  0
MTEXT
  5
275
330
26F
100
AcDbEntity
  8
0
  6
Continuous
 62
     0
370
     0
100
AcDbMText
 10
21.5337864727
 20
-8.6072097727
 30
0.0
 40
3.175
 41
0.0
 71
     2
 72
     1
  1
info@abp-beyerle.de, www.abp-beyerle.de
  7
SLDTEXTSTYLE0
 73
     1
 44
1.0
  0
ENDBLK
  5
271
330
26F
100
AcDbEntity
  8
0
100
AcDbBlockEnd
  0
BLOCK
  5
29D
330
29C
100
AcDbEntity
  8
0
100
AcDbBlockBegin
  2
_D
 70
     0
 10
0.0
 20
0.0
 30
0.0
  3
_D
  1

  0
SOLID
  5
29F
330
29C
100
AcDbEntity
  8
0
100
AcDbTrace
 10
222.7762360055
 20
253.1390901923
 30
0.0
 11
221.8762360055
 21
248.1390901923
 31
0.0
 12
223.6762360055
 22
248.1390901923
 32
0.0
 13
223.6762360055
 23
248.1390901923
 33
0.0
  0
SOLID
  5
2A0
330
29C
100
AcDbEntity
  8
0
100
AcDbTrace
 10
222.7762360055
 20
213.1390901923
 30
0.0
 11
223.6762360055
 21
218.1390901923
 31
0.0
 12
221.8762360055
 22
218.1390901923
 32
0.0
 13
221.8762360055
 23
218.1390901923
 33
0.0
  0
LINE
  5
2A1
330
29C
100
AcDbEntity
  8
0
100
AcDbLine
 10
210.4414435964
 20
228.3161734918
 30
0.0
 11
210.4414435964
 21
227.402111002
 31
0.0
  0
LINE
  5
2A2
330
29C
100
AcDbEntity
  8
0
100
AcDbLine
 10
210.4414435964
 20
227.402111002
 30
0.0
 11
218.2876937952
 21
227.402111002
 31
0.0
  0
LINE
  5
2A3
330
29C
100
AcDbEntity
  8
0
100
AcDbLine
 10
218.2876937952
 20
227.402111002
 30
0.0
 11
218.2876937952
 21
228.3161734918
 31
0.0
  0
LINE
  5
2A4
330
29C
100
AcDbEntity
  8
0
100
AcDbLine
 10
210.4414435964
 20
237.9620061943
 30
0.0
 11
210.4414435964
 21
238.8760686841
 31
0.0
  0
LINE
  5
2A5
330
29C
100
AcDbEntity
  8
0
100
AcDbLine
 10
210.4414435964
 20
238.8760686841
 30
0.0
 11
218.2876937952
 21
238.8760686841
 31
0.0
  0
LINE
  5
2A6
330
29C
100
AcDbEntity
  8
0
100
AcDbLine
 10
218.2876937952
 20
238.8760686841
 30
0.0
 11
218.2876937952
 21
237.9620061943
 31
0.0
  0
LINE
  5
2A7
330
29C
100
AcDbEntity
  8
0
100
AcDbLine
 10
214.0568602993
 20
230.9724235197
 30
0.0
 11
214.0568602993
 21
236.2849235756
 31
0.0
  0
LINE
  5
2A8
330
29C
100
AcDbEntity
  8
0
100
AcDbLine
 10
208.2644661098
 20
253.1390901923
 30
0.0
 11
223.7762360055
 21
253.1390901923
 31
0.0
  0
LINE
  5
2A9
330
29C
100
AcDbEntity
  8
0
100
AcDbLine
 10
208.2644661098
 20
213.1390901923
 30
0.0
 11
223.7762360055
 21
213.1390901923
 31
0.0
  0
LINE
  5
2AA
330
29C
100
AcDbEntity
  8
0
100
AcDbLine
 10
222.7762360055
 20
253.1390901923
 30
0.0
 11
222.7762360055
 21
213.1390901923
 31
0.0
  0
MTEXT
  5
2AB
330
29C
100
AcDbEntity
  8
0
100
AcDbMText
 10
218.8631994919
 20
226.5047151603
 30
0.0
 40
3.0
 41
0.0
 71
     1
 72
     1
  1

  7
SLDTEXTSTYLE1
 11
-7.044195017643634E-15
 21
1.0
 31
0.0
 73
     1
 44
1.0
  0
MTEXT
  5
2AC
330
29C
100
AcDbEntity
  8
0
100
AcDbMText
 10
212.6452820645
 20
228.3161734918
 30
0.0
 40
3.0
 41
0.0
 71
     1
 72
     1
  1
1
  7
SLDTEXTSTYLE1
 11
-7.044195017643634E-15
 21
1.0
 31
0.0
 73
     1
 44
1.0
  0
MTEXT
  5
2AD
330
29C
100
AcDbEntity
  8
0
100
AcDbMText
 10
210.453407051
 20
231.4120068436
 30
0.0
 40
3.0
 41
0.0
 71
     1
 72
     1
  1
37
  7
SLDTEXTSTYLE1
 11
-7.044195017643634E-15
 21
1.0
 31
0.0
 73
     1
 44
1.0
  0
MTEXT
  5
2AE
330
29C
100
AcDbEntity
  8
0
100
AcDbMText
 10
214.420490394
 20
231.4120068436
 30
0.0
 40
3.0
 41
0.0
 71
     1
 72
     1
  1
64
  7
SLDTEXTSTYLE1
 11
-7.044195017643634E-15
 21
1.0
 31
0.0
 73
     1
 44
1.0
  0
MTEXT
  5
2AF
330
29C
100
AcDbEntity
  8
0
100
AcDbMText
 10
212.6452820645
 20
236.7245066667
 30
0.0
 40
3.0
 41
0.0
 71
     1
 72
     1
  1
"
  7
SLDTEXTSTYLE1
 11
-7.044195017643634E-15
 21
1.0
 31
0.0
 73
     1
 44
1.0
  0
MTEXT
  5
2B0
330
29C
100
AcDbEntity
  8
0
100
AcDbMText
 10
218.9090323206
 20
230.9224233718
 30
0.0
 40
3.0
 41
0.0
 71
     1
 72
     1
  1
40
  7
SLDTEXTSTYLE1
 11
-7.044195017643634E-15
 21
1.0
 31
0.0
 73
     1
 44
1.0
  0
MTEXT
  5
2B1
330
29C
100
AcDbEntity
  8
0
100
AcDbMText
 10
218.8631994919
 20
240.9151317559
 30
0.0
 40
3.0
 41
0.0
 71
     1
 72
     1
  1

  7
SLDTEXTSTYLE1
 11
-7.044195017643634E-15
 21
1.0
 31
0.0
 73
     1
 44
1.0
  0
ENDBLK
  5
29E
330
29C
100
AcDbEntity
  8
0
100
AcDbBlockEnd
  0
BLOCK
  5
309
330
308
100
AcDbEntity
  8
0
100
AcDbBlockBegin
  2
_D_1
 70
     0
 10
0.0
 20
0.0
 30
0.0
  3
_D_1
  1

  0
SOLID
  5
30B
330
308
100
AcDbEntity
  8
0
100
AcDbTrace
 10
195.2144661098
 20
118.324336939
 30
0.0
 11
200.2144661098
 21
117.424336939
 31
0.0
 12
200.2144661098
 22
119.224336939
 32
0.0
 13
200.2144661098
 23
119.224336939
 33
0.0
  0
SOLID
  5
30C
330
308
100
AcDbEntity
  8
0
100
AcDbTrace
 10
177.3144661098
 20
118.324336939
 30
0.0
 11
172.3144661098
 21
119.224336939
 31
0.0
 12
172.3144661098
 22
117.424336939
 32
0.0
 13
172.3144661098
 23
117.424336939
 33
0.0
  0
LINE
  5
30D
330
308
100
AcDbEntity
  8
0
100
AcDbLine
 10
182.5498825285
 20
131.5424627331
 30
0.0
 11
181.6358200388
 21
131.5424627331
 31
0.0
  0
LINE
  5
30E
330
308
100
AcDbEntity
  8
0
100
AcDbLine
 10
181.6358200388
 20
131.5424627331
 30
0.0
 11
181.6358200388
 21
123.6962125343
 31
0.0
  0
LINE
  5
30F
330
308
100
AcDbEntity
  8
0
100
AcDbLine
 10
181.6358200388
 20
123.6962125343
 30
0.0
 11
182.5498825285
 21
123.6962125343
 31
0.0
  0
LINE
  5
310
330
308
100
AcDbEntity
  8
0
100
AcDbLine
 10
189.9790492255
 20
131.5424627331
 30
0.0
 11
190.8931117153
 21
131.5424627331
 31
0.0
  0
LINE
  5
311
330
308
100
AcDbEntity
  8
0
100
AcDbLine
 10
190.8931117153
 20
131.5424627331
 30
0.0
 11
190.8931117153
 21
123.6962125343
 31
0.0
  0
LINE
  5
312
330
308
100
AcDbEntity
  8
0
100
AcDbLine
 10
190.8931117153
 20
123.6962125343
 30
0.0
 11
189.9790492255
 21
123.6962125343
 31
0.0
  0
LINE
  5
313
330
308
100
AcDbEntity
  8
0
100
AcDbLine
 10
182.9894658524
 20
127.9270460302
 30
0.0
 11
188.3019659083
 21
127.9270460302
 31
0.0
  0
LINE
  5
314
330
308
100
AcDbEntity
  8
0
100
AcDbLine
 10
195.2144661098
 20
90.8666722141
 30
0.0
 11
195.2144661098
 21
119.324336939
 31
0.0
  0
LINE
  5
315
330
308
100
AcDbEntity
  8
0
100
AcDbLine
 10
177.3144661098
 20
90.8666722141
 30
0.0
 11
177.3144661098
 21
119.324336939
 31
0.0
  0
LINE
  5
316
330
308
100
AcDbEntity
  8
0
100
AcDbLine
 10
195.2144661098
 20
118.324336939
 30
0.0
 11
205.2144661098
 21
118.324336939
 31
0.0
  0
LINE
  5
317
330
308
100
AcDbEntity
  8
0
100
AcDbLine
 10
195.2144661098
 20
118.324336939
 30
0.0
 11
177.3144661098
 21
118.324336939
 31
0.0
  0
LINE
  5
318
330
308
100
AcDbEntity
  8
0
100
AcDbLine
 10
177.3144661098
 20
118.324336939
 30
0.0
 11
167.3144661098
 21
118.324336939
 31
0.0
  0
MTEXT
  5
319
330
308
100
AcDbEntity
  8
0
100
AcDbMText
 10
183.4290491763
 20
131.5304992785
 30
0.0
 40
3.0
 41
0.0
 71
     1
 72
     1
  1
45
  7
SLDTEXTSTYLE1
 73
     1
 44
1.0
  0
MTEXT
  5
31A
330
308
100
AcDbEntity
  8
0
100
AcDbMText
 10
183.4290491763
 20
127.5634159355
 30
0.0
 40
3.0
 41
0.0
 71
     1
 72
     1
  1
64
  7
SLDTEXTSTYLE1
 73
     1
 44
1.0
  0
MTEXT
  5
31B
330
308
100
AcDbEntity
  8
0
100
AcDbMText
 10
188.7415492322
 20
129.338624265
 30
0.0
 40
3.0
 41
0.0
 71
     1
 72
     1
  1
"
  7
SLDTEXTSTYLE1
 73
     1
 44
1.0
  0
MTEXT
  5
31C
330
308
100
AcDbEntity
  8
0
100
AcDbMText
 10
179.0147783115
 20
122.191540624
 30
0.0
 40
3.0
 41
0.0
 71
     1
 72
     1
  1
%%c
  7
SLDTEXTSTYLE1
 73
     1
 44
1.0
  0
MTEXT
  5
31D
330
308
100
AcDbEntity
  8
0
100
AcDbMText
 10
183.5391531579
 20
122.191540624
 30
0.0
 40
3.0
 41
0.0
 71
     1
 72
     1
  1
17,90
  7
SLDTEXTSTYLE1
 73
     1
 44
1.0
  0
ENDBLK
  5
30A
330
308
100
AcDbEntity
  8
0
100
AcDbBlockEnd
  0
BLOCK
  5
320
330
31F
100
AcDbEntity
  8
0
100
AcDbBlockBegin
  2
_D_2
 70
     0
 10
0.0
 20
0.0
 30
0.0
  3
_D_2
  1

  0
SOLID
  5
322
330
31F
100
AcDbEntity
  8
0
100
AcDbTrace
 10
153.2551645262
 20
166.8166722141
 30
0.0
 11
154.1551645262
 21
171.8166722141
 31
0.0
 12
152.3551645262
 22
171.8166722141
 32
0.0
 13
152.3551645262
 23
171.8166722141
 33
0.0
  0
SOLID
  5
323
330
31F
100
AcDbEntity
  8
0
100
AcDbTrace
 10
153.2551645262
 20
148.9166722141
 30
0.0
 11
152.3551645262
 21
143.9166722141
 31
0.0
 12
154.1551645262
 22
143.9166722141
 32
0.0
 13
154.1551645262
 23
143.9166722141
 33
0.0
  0
LINE
  5
324
330
31F
100
AcDbEntity
  8
0
100
AcDbLine
 10
140.0370387321
 20
154.1520886328
 30
0.0
 11
140.0370387321
 21
153.2380261431
 31
0.0
  0
LINE
  5
325
330
31F
100
AcDbEntity
  8
0
100
AcDbLine
 10
140.0370387321
 20
153.2380261431
 30
0.0
 11
147.8832889309
 21
153.2380261431
 31
0.0
  0
LINE
  5
326
330
31F
100
AcDbEntity
  8
0
100
AcDbLine
 10
147.8832889309
 20
153.2380261431
 30
0.0
 11
147.8832889309
 21
154.1520886328
 31
0.0
  0
LINE
  5
327
330
31F
100
AcDbEntity
  8
0
100
AcDbLine
 10
140.0370387321
 20
161.5812553298
 30
0.0
 11
140.0370387321
 21
162.4953178195
 31
0.0
  0
LINE
  5
328
330
31F
100
AcDbEntity
  8
0
100
AcDbLine
 10
140.0370387321
 20
162.4953178195
 30
0.0
 11
147.8832889309
 21
162.4953178195
 31
0.0
  0
LINE
  5
329
330
31F
100
AcDbEntity
  8
0
100
AcDbLine
 10
147.8832889309
 20
162.4953178195
 30
0.0
 11
147.8832889309
 21
161.5812553298
 31
0.0
  0
LINE
  5
32A
330
31F
100
AcDbEntity
  8
0
100
AcDbLine
 10
143.652455435
 20
154.5916719567
 30
0.0
 11
143.652455435
 21
159.9041720126
 31
0.0
  0
LINE
  5
32B
330
31F
100
AcDbEntity
  8
0
100
AcDbLine
 10
119.2644661098
 20
166.8166722141
 30
0.0
 11
154.2551645262
 21
166.8166722141
 31
0.0
  0
LINE
  5
32C
330
31F
100
AcDbEntity
  8
0
100
AcDbLine
 10
119.2644661098
 20
148.9166722141
 30
0.0
 11
154.2551645262
 21
148.9166722141
 31
0.0
  0
LINE
  5
32D
330
31F
100
AcDbEntity
  8
0
100
AcDbLine
 10
153.2551645262
 20
166.8166722141
 30
0.0
 11
153.2551645262
 21
176.8166722141
 31
0.0
  0
LINE
  5
32E
330
31F
100
AcDbEntity
  8
0
100
AcDbLine
 10
153.2551645262
 20
166.8166722141
 30
0.0
 11
153.2551645262
 21
148.9166722141
 31
0.0
  0
LINE
  5
32F
330
31F
100
AcDbEntity
  8
0
100
AcDbLine
 10
153.2551645262
 20
148.9166722141
 30
0.0
 11
153.2551645262
 21
138.9166722141
 31
0.0
  0
MTEXT
  5
330
330
31F
100
AcDbEntity
  8
0
100
AcDbMText
 10
140.0490021867
 20
155.0312552806
 30
0.0
 40
3.0
 41
0.0
 71
     1
 72
     1
  1
45
  7
SLDTEXTSTYLE1
 11
-7.044195017643634E-15
 21
1.0
 31
0.0
 73
     1
 44
1.0
  0
MTEXT
  5
331
330
31F
100
AcDbEntity
  8
0
100
AcDbMText
 10
144.0160855297
 20
155.0312552806
 30
0.0
 40
3.0
 41
0.0
 71
     1
 72
     1
  1
64
  7
SLDTEXTSTYLE1
 11
-7.044195017643634E-15
 21
1.0
 31
0.0
 73
     1
 44
1.0
  0
MTEXT
  5
332
330
31F
100
AcDbEntity
  8
0
100
AcDbMText
 10
142.2408772002
 20
160.3437553365
 30
0.0
 40
3.0
 41
0.0
 71
     1
 72
     1
  1
"
  7
SLDTEXTSTYLE1
 11
-7.044195017643634E-15
 21
1.0
 31
0.0
 73
     1
 44
1.0
  0
MTEXT
  5
333
330
31F
100
AcDbEntity
  8
0
100
AcDbMText
 10
149.3879608412
 20
150.6169844158
 30
0.0
 40
3.0
 41
0.0
 71
     1
 72
     1
  1
%%c
  7
SLDTEXTSTYLE1
 11
-7.044195017643634E-15
 21
1.0
 31
0.0
 73
     1
 44
1.0
  0
MTEXT
  5
334
330
31F
100
AcDbEntity
  8
0
100
AcDbMText
 10
149.3879608412
 20
155.1413592622
 30
0.0
 40
3.0
 41
0.0
 71
     1
 72
     1
  1
17,90
  7
SLDTEXTSTYLE1
 11
-7.044195017643634E-15
 21
1.0
 31
0.0
 73
     1
 44
1.0
  0
ENDBLK
  5
321
330
31F
100
AcDbEntity
  8
0
100
AcDbBlockEnd
  0
BLOCK
  5
337
330
336
100
AcDbEntity
  8
0
100
AcDbBlockBegin
  2
_D_3
 70
     0
 10
0.0
 20
0.0
 30
0.0
  3
_D_3
  1

  0
SOLID
  5
339
330
336
100
AcDbEntity
  8
0
100
AcDbTrace
 10
97.6811251175
 20
157.8666722141
 30
0.0
 11
96.7811251175
 21
152.8666722141
 31
0.0
 12
98.5811251175
 22
152.8666722141
 32
0.0
 13
98.5811251175
 23
152.8666722141
 33
0.0
  0
SOLID
  5
33A
330
336
100
AcDbEntity
  8
0
100
AcDbTrace
 10
97.6811251175
 20
89.8666722141
 30
0.0
 11
98.5811251175
 21
94.8666722141
 31
0.0
 12
96.7811251175
 22
94.8666722141
 32
0.0
 13
96.7811251175
 23
94.8666722141
 33
0.0
  0
LINE
  5
33B
330
336
100
AcDbEntity
  8
0
100
AcDbLine
 10
85.3463327084
 20
119.0437555136
 30
0.0
 11
85.3463327084
 21
118.1296930239
 31
0.0
  0
LINE
  5
33C
330
336
100
AcDbEntity
  8
0
100
AcDbLine
 10
85.3463327084
 20
118.1296930239
 30
0.0
 11
93.1925829072
 21
118.1296930239
 31
0.0
  0
LINE
  5
33D
330
336
100
AcDbEntity
  8
0
100
AcDbLine
 10
93.1925829072
 20
118.1296930239
 30
0.0
 11
93.1925829072
 21
119.0437555136
 31
0.0
  0
LINE
  5
33E
330
336
100
AcDbEntity
  8
0
100
AcDbLine
 10
85.3463327084
 20
128.6895882161
 30
0.0
 11
85.3463327084
 21
129.6036507059
 31
0.0
  0
LINE
  5
33F
330
336
100
AcDbEntity
  8
0
100
AcDbLine
 10
85.3463327084
 20
129.6036507059
 30
0.0
 11
93.1925829072
 21
129.6036507059
 31
0.0
  0
LINE
  5
340
330
336
100
AcDbEntity
  8
0
100
AcDbLine
 10
93.1925829072
 20
129.6036507059
 30
0.0
 11
93.1925829072
 21
128.6895882161
 31
0.0
  0
LINE
  5
341
330
336
100
AcDbEntity
  8
0
100
AcDbLine
 10
88.9617494112
 20
121.7000055416
 30
0.0
 11
88.9617494112
 21
127.0125055974
 31
0.0
  0
LINE
  5
342
330
336
100
AcDbEntity
  8
0
100
AcDbLine
 10
107.7644661098
 20
157.8666722141
 30
0.0
 11
96.6811251175
 21
157.8666722141
 31
0.0
  0
LINE
  5
343
330
336
100
AcDbEntity
  8
0
100
AcDbLine
 10
167.7644661098
 20
89.8666722141
 30
0.0
 11
96.6811251175
 21
89.8666722141
 31
0.0
  0
LINE
  5
344
330
336
100
AcDbEntity
  8
0
100
AcDbLine
 10
97.6811251175
 20
157.8666722141
 30
0.0
 11
97.6811251175
 21
89.8666722141
 31
0.0
  0
MTEXT
  5
345
330
336
100
AcDbEntity
  8
0
100
AcDbMText
 10
93.7680886039
 20
117.2322971821
 30
0.0
 40
3.0
 41
0.0
 71
     1
 72
     1
  1

  7
SLDTEXTSTYLE1
 11
-7.044195017643634E-15
 21
1.0
 31
0.0
 73
     1
 44
1.0
  0
MTEXT
  5
346
330
336
100
AcDbEntity
  8
0
100
AcDbMText
 10
87.5501711764
 20
119.0437555136
 30
0.0
 40
3.0
 41
0.0
 71
     1
 72
     1
  1
2
  7
SLDTEXTSTYLE1
 11
-7.044195017643634E-15
 21
1.0
 31
0.0
 73
     1
 44
1.0
  0
MTEXT
  5
347
330
336
100
AcDbEntity
  8
0
100
AcDbMText
 10
85.3582961629
 20
122.1395888655
 30
0.0
 40
3.0
 41
0.0
 71
     1
 72
     1
  1
43
  7
SLDTEXTSTYLE1
 11
-7.044195017643634E-15
 21
1.0
 31
0.0
 73
     1
 44
1.0
  0
MTEXT
  5
348
330
336
100
AcDbEntity
  8
0
100
AcDbMText
 10
89.3253795059
 20
122.1395888655
 30
0.0
 40
3.0
 41
0.0
 71
     1
 72
     1
  1
64
  7
SLDTEXTSTYLE1
 11
-7.044195017643634E-15
 21
1.0
 31
0.0
 73
     1
 44
1.0
  0
MTEXT
  5
349
330
336
100
AcDbEntity
  8
0
100
AcDbMText
 10
87.5501711764
 20
127.4520886885
 30
0.0
 40
3.0
 41
0.0
 71
     1
 72
     1
  1
"
  7
SLDTEXTSTYLE1
 11
-7.044195017643634E-15
 21
1.0
 31
0.0
 73
     1
 44
1.0
  0
MTEXT
  5
34A
330
336
100
AcDbEntity
  8
0
100
AcDbMText
 10
93.8139214325
 20
121.6500053937
 30
0.0
 40
3.0
 41
0.0
 71
     1
 72
     1
  1
68
  7
SLDTEXTSTYLE1
 11
-7.044195017643634E-15
 21
1.0
 31
0.0
 73
     1
 44
1.0
  0
MTEXT
  5
34B
330
336
100
AcDbEntity
  8
0
100
AcDbMText
 10
93.7680886039
 20
131.6427137777
 30
0.0
 40
3.0
 41
0.0
 71
     1
 72
     1
  1

  7
SLDTEXTSTYLE1
 11
-7.044195017643634E-15
 21
1.0
 31
0.0
 73
     1
 44
1.0
  0
ENDBLK
  5
338
330
336
100
AcDbEntity
  8
0
100
AcDbBlockEnd
  0
BLOCK
  5
34E
330
34D
100
AcDbEntity
  8
0
100
AcDbBlockBegin
  2
_D_4
 70
     0
 10
0.0
 20
0.0
 30
0.0
  3
_D_4
  1

  0
SOLID
  5
350
330
34D
100
AcDbEntity
  8
0
100
AcDbTrace
 10
186.2644661098
 20
65.3666722141
 30
0.0
 11
181.2644661098
 21
66.2666722141
 31
0.0
 12
181.2644661098
 22
64.4666722141
 32
0.0
 13
181.2644661098
 23
64.4666722141
 33
0.0
  0
SOLID
  5
351
330
34D
100
AcDbEntity
  8
0
100
AcDbTrace
 10
118.2644661098
 20
65.3666722141
 30
0.0
 11
123.2644661098
 21
64.4666722141
 31
0.0
 12
123.2644661098
 22
66.2666722141
 32
0.0
 13
123.2644661098
 23
66.2666722141
 33
0.0
  0
LINE
  5
352
330
34D
100
AcDbEntity
  8
0
100
AcDbLine
 10
147.4415494093
 20
77.7014646232
 30
0.0
 11
146.5274869196
 21
77.7014646232
 31
0.0
  0
LINE
  5
353
330
34D
100
AcDbEntity
  8
0
100
AcDbLine
 10
146.5274869196
 20
77.7014646232
 30
0.0
 11
146.5274869196
 21
69.8552144244
 31
0.0
  0
LINE
  5
354
330
34D
100
AcDbEntity
  8
0
100
AcDbLine
 10
146.5274869196
 20
69.8552144244
 30
0.0
 11
147.4415494093
 21
69.8552144244
 31
0.0
  0
LINE
  5
355
330
34D
100
AcDbEntity
  8
0
100
AcDbLine
 10
157.0873821119
 20
77.7014646232
 30
0.0
 11
158.0014446016
 21
77.7014646232
 31
0.0
  0
LINE
  5
356
330
34D
100
AcDbEntity
  8
0
100
AcDbLine
 10
158.0014446016
 20
77.7014646232
 30
0.0
 11
158.0014446016
 21
69.8552144244
 31
0.0
  0
LINE
  5
357
330
34D
100
AcDbEntity
  8
0
100
AcDbLine
 10
158.0014446016
 20
69.8552144244
 30
0.0
 11
157.0873821119
 21
69.8552144244
 31
0.0
  0
LINE
  5
358
330
34D
100
AcDbEntity
  8
0
100
AcDbLine
 10
150.0977994373
 20
74.0860479204
 30
0.0
 11
155.4102994932
 21
74.0860479204
 31
0.0
  0
LINE
  5
359
330
34D
100
AcDbEntity
  8
0
100
AcDbLine
 10
186.2644661098
 20
79.3666722141
 30
0.0
 11
186.2644661098
 21
64.3666722141
 31
0.0
  0
LINE
  5
35A
330
34D
100
AcDbEntity
  8
0
100
AcDbLine
 10
118.2644661098
 20
139.3666722141
 30
0.0
 11
118.2644661098
 21
64.3666722141
 31
0.0
  0
LINE
  5
35B
330
34D
100
AcDbEntity
  8
0
100
AcDbLine
 10
186.2644661098
 20
65.3666722141
 30
0.0
 11
118.2644661098
 21
65.3666722141
 31
0.0
  0
MTEXT
  5
35C
330
34D
100
AcDbEntity
  8
0
100
AcDbMText
 10
145.6300910778
 20
69.2797087277
 30
0.0
 40
3.0
 41
0.0
 71
     1
 72
     1
  1

  7
SLDTEXTSTYLE1
 73
     1
 44
1.0
  0
MTEXT
  5
35D
330
34D
100
AcDbEntity
  8
0
100
AcDbMText
 10
147.4415494093
 20
75.4976261552
 30
0.0
 40
3.0
 41
0.0
 71
     1
 72
     1
  1
2
  7
SLDTEXTSTYLE1
 73
     1
 44
1.0
  0
MTEXT
  5
35E
330
34D
100
AcDbEntity
  8
0
100
AcDbMText
 10
150.5373827612
 20
77.6895011687
 30
0.0
 40
3.0
 41
0.0
 71
     1
 72
     1
  1
43
  7
SLDTEXTSTYLE1
 73
     1
 44
1.0
  0
MTEXT
  5
35F
330
34D
100
AcDbEntity
  8
0
100
AcDbMText
 10
150.5373827612
 20
73.7224178257
 30
0.0
 40
3.0
 41
0.0
 71
     1
 72
     1
  1
64
  7
SLDTEXTSTYLE1
 73
     1
 44
1.0
  0
MTEXT
  5
360
330
34D
100
AcDbEntity
  8
0
100
AcDbMText
 10
155.8498825842
 20
75.4976261552
 30
0.0
 40
3.0
 41
0.0
 71
     1
 72
     1
  1
"
  7
SLDTEXTSTYLE1
 73
     1
 44
1.0
  0
MTEXT
  5
361
330
34D
100
AcDbEntity
  8
0
100
AcDbMText
 10
150.0477992894
 20
69.2338758991
 30
0.0
 40
3.0
 41
0.0
 71
     1
 72
     1
  1
68
  7
SLDTEXTSTYLE1
 73
     1
 44
1.0
  0
MTEXT
  5
362
330
34D
100
AcDbEntity
  8
0
100
AcDbMText
 10
160.0405076734
 20
69.2797087277
 30
0.0
 40
3.0
 41
0.0
 71
     1
 72
     1
  1

  7
SLDTEXTSTYLE1
 73
     1
 44
1.0
  0
ENDBLK
  5
34F
330
34D
100
AcDbEntity
  8
0
100
AcDbBlockEnd
  0
ENDSEC
  0
SECTION
  2
ENTITIES
  0
LINE
  5
265
330
1F
100
AcDbEntity
  8
0
100
AcDbLine
 10
127.4819306314
 20
27.1626886523
 30
0.0
 11
127.4819306314
 21
7.1626886523
 31
0.0
  0
LINE
  5
266
330
1F
100
AcDbEntity
  8
0
100
AcDbLine
 10
127.4819306314
 20
7.1626886523
 30
0.0
 11
231.2890403829
 21
7.1626886523
 31
0.0
  0
LINE
  5
267
330
1F
100
AcDbEntity
  8
0
100
AcDbLine
 10
231.2890403829
 20
7.1626886523
 30
0.0
 11
231.2890403829
 21
27.1626886523
 31
0.0
  0
LINE
  5
268
330
1F
100
AcDbEntity
  8
0
100
AcDbLine
 10
231.2890403829
 20
27.1626886523
 30
0.0
 11
127.4819306314
 21
27.1626886523
 31
0.0
  0
LINE
  5
269
330
1F
100
AcDbEntity
  8
0
100
AcDbLine
 10
231.2890403829
 20
17.1626886523
 30
0.0
 11
127.4819306314
 21
17.1626886523
 31
0.0
  0
LINE
  5
26A
330
1F
100
AcDbEntity
  8
0
100
AcDbLine
 10
188.5336333335
 20
27.1626886523
 30
0.0
 11
188.5336333335
 21
7.1626886523
 31
0.0
  0
INSERT
  5
26B
330
1F
100
AcDbEntity
  8
0
100
AcDbBlockReference
  2
Block5
 10
19.561342692
 20
-6.9223244521
 30
0.0
  0
MTEXT
  5
26D
330
1F
100
AcDbEntity
  8
0
  6
Continuous
 62
     7
370
     0
100
AcDbMText
 10
402.5
 20
14.7189135832
 30
0.0
 40
6.35
 41
0.0
 71
     1
 72
     1
  1
1:1
  7
SLDTEXTSTYLE1
 73
     1
 44
1.0
  0
MTEXT
  5
26E
330
1F
100
AcDbEntity
  8
0
  6
Continuous
 62
     7
370
     0
100
AcDbMText
 10
190.3749692016
 20
25.1056679674
 30
0.0
 40
4.2333333333
 41
0.0
 71
     1
 72
     1
  1
USO274EF
  7
SLDTEXTSTYLE1
 73
     1
 44
1.0
  0
INSERT
  5
276
330
1F
100
AcDbEntity
  8
0
  6
Continuous
 62
     7
370
     0
100
AcDbBlockReference
  2
SW_NOTE_0_4
 10
35.4202146835
 20
20.1681939512
 30
0.0
  0
MTEXT
  5
277
330
1F
100
AcDbEntity
  8
0
100
AcDbMText
 10
131.6112989967
 20
25.1056677346
 30
0.0
 40
4.2333333333
 41
0.0
 71
     1
 72
     1
  1
Artikelnummer
  7
SLDTEXTSTYLE1
 73
     1
 44
1.0
  0
MTEXT
  5
278
330
1F
100
AcDbEntity
  8
0
100
AcDbMText
 10
131.6112989967
 20
15.1068467326
 30
0.0
 40
4.2333333333
 41
0.0
 71
     1
 72
     1
  1
Index
  7
SLDTEXTSTYLE1
 73
     1
 44
1.0
  0
MTEXT
  5
279
330
1F
100
AcDbEntity
  8
0
100
AcDbMText
 10
191.3424447454
 20
14.5571014523
 30
0.0
 40
4.2333333333
 41
0.0
 71
     1
 72
     1
  1
0
  7
SLDTEXTSTYLE1
 73
     1
 44
1.0
  0
LINE
  5
27A
330
1F
100
AcDbEntity
  8
0
  6
Continuous
 62
     7
370
    25
100
AcDbLine
 10
118.2644661098
 20
242.1890901923
 30
0.0
 11
110.7644661098
 21
242.1890901923
 31
0.0
  0
LINE
  5
27B
330
1F
100
AcDbEntity
  8
0
  6
Continuous
 62
     7
370
    25
100
AcDbLine
 10
110.7644661098
 20
224.2890901923
 30
0.0
 11
118.2644661098
 21
224.2890901923
 31
0.0
  0
LINE
  5
27C
330
1F
100
AcDbEntity
  8
0
  6
Continuous
 62
     7
370
    25
100
AcDbLine
 10
110.7644661098
 20
250.7390901923
 30
0.0
 11
109.7644661098
 21
250.7390901923
 31
0.0
  0
LINE
  5
27D
330
1F
100
AcDbEntity
  8
0
  6
Continuous
 62
     7
370
    25
100
AcDbLine
 10
109.7644661098
 20
215.7390901923
 30
0.0
 11
110.7644661098
 21
215.7390901923
 31
0.0
  0
LINE
  5
27E
330
1F
100
AcDbEntity
  8
0
  6
Continuous
 62
     7
370
    25
100
AcDbLine
 10
119.2644661098
 20
250.7390901923
 30
0.0
 11
118.2644661098
 21
250.7390901923
 31
0.0
  0
LINE
  5
27F
330
1F
100
AcDbEntity
  8
0
  6
Continuous
 62
     7
370
    25
100
AcDbLine
 10
118.2644661098
 20
215.7390901923
 30
0.0
 11
119.2644661098
 21
215.7390901923
 31
0.0
  0
LINE
  5
280
330
1F
100
AcDbEntity
  8
0
  6
Continuous
 62
     7
370
    25
100
AcDbLine
 10
104.5144661098
 20
214.4890901923
 30
0.0
 11
109.7644661098
 21
214.4890901923
 31
0.0
  0
LINE
  5
281
330
1F
100
AcDbEntity
  8
0
  6
Continuous
 62
     7
370
    25
100
AcDbLine
 10
109.7644661098
 20
251.9890901923
 30
0.0
 11
104.5144661098
 21
251.9890901923
 31
0.0
  0
LINE
  5
282
330
1F
100
AcDbEntity
  8
0
  6
Continuous
 62
     7
370
    25
100
AcDbLine
 10
104.5144661098
 20
251.9890901923
 30
0.0
 11
103.7644661098
 21
251.2390901923
 31
0.0
  0
LINE
  5
283
330
1F
100
AcDbEntity
  8
0
  6
Continuous
 62
     7
370
    25
100
AcDbLine
 10
103.7644661098
 20
215.2390901923
 30
0.0
 11
104.5144661098
 21
214.4890901923
 31
0.0
  0
LINE
  5
284
330
1F
100
AcDbEntity
  8
0
  6
Continuous
 62
     7
370
    25
100
AcDbLine
 10
110.7644661098
 20
215.7390901923
 30
0.0
 11
110.7644661098
 21
250.7390901923
 31
0.0
  0
LINE
  5
285
330
1F
100
AcDbEntity
  8
0
  6
Continuous
 62
     7
370
    25
100
AcDbLine
 10
118.2644661098
 20
215.7390901923
 30
0.0
 11
118.2644661098
 21
250.7390901923
 31
0.0
  0
LINE
  5
286
330
1F
100
AcDbEntity
  8
0
  6
Continuous
 62
     7
370
    25
100
AcDbLine
 10
109.7644661098
 20
222.6852224776
 30
0.0
 11
109.7644661098
 21
214.4890901923
 31
0.0
  0
LINE
  5
287
330
1F
100
AcDbEntity
  8
0
  6
Continuous
 62
     7
370
    25
100
AcDbLine
 10
109.7644661098
 20
251.9890901923
 30
0.0
 11
109.7644661098
 21
222.6852224776
 31
0.0
  0
SPLINE
  5
288
330
1F
100
AcDbEntity
  8
0
  6
Continuous
 62
     7
370
    25
100
AcDbSpline
210
0.0
220
0.0
230
1.0
 70
    11
 71
     3
 72
    66
 73
    62
 74
     0
 42
0.000000001
 43
0.00000001
 40
0.0
 40
0.0
 40
0.0
 40
0.0
 40
0.0131333911845144
 40
0.0263584260831238
 40
0.0398721630972918
 40
0.053485458858179
 40
0.0666187577029534
 40
0.0933288028676883
 40
0.1069366456051651
 40
0.1201209811982333
 40
0.1469350800344226
 40
0.1605967853960729
 40
0.1738136554191431
 40
0.18712276147305
 40
0.2007236305032826
 40
0.2144257172632184
 40
0.2275862103360985
 40
0.2543582349032941
 40
0.2680023370828708
 40
0.2811054579958605
 40
0.3077555443646299
 40
0.3213336969538631
 40
0.3344679244741722
 40
0.3611782028635083
 40
0.3747853664105549
 40
0.3879905091274649
 40
0.4148488047188335
 40
0.4285344033556923
 40
0.441740024081303
 40
0.4686041145079326
 40
0.4822957140922268
 40
0.4954309895728711
 40
0.5221502840324402
 40
0.5357663849558475
 40
0.5488702377473247
 40
0.5755201716696222
 40
0.5890972206934937
 40
0.6022565230437519
 40
0.6290184002277814
 40
0.6426524471140046
 40
0.6558688570830842
 40
0.6827520142869771
 40
0.6964516160884114
 40
0.7096374645968598
 40
0.7364616688985601
 40
0.7501329760215475
 40
0.7632475361327768
 40
0.789922873479277
 40
0.8035152408011486
 40
0.8166293084264769
 40
0.8432988642411786
 40
0.8568852777208147
 40
0.8700700163666104
 40
0.8968849626433747
 40
0.9105471233661105
 40
0.92376385942735
 40
0.9370728343076676
 40
0.9506735741137887
 40
0.9643755272925973
 40
0.9820745880883403
 40
1.0
 40
1.0
 40
1.0
 40
1.0
 10
104.9644661098467
 20
222.6852224775771
 30
0.0
 10
104.9658448875977
 20
222.7330734388709
 30
0.0
 10
104.9686120640963
 20
222.8291092614965
 30
0.0
 10
104.9911702013855
 20
222.9745304194121
 30
0.0
 10
105.0276569372097
 20
223.1204671672663
 30
0.0
 10
105.0789779532689
 20
223.2638135283944
 30
0.0
 10
105.1656019565316
 20
223.4496119361505
 30
0.0
 10
105.2793691394976
 20
223.6270391932317
 30
0.0
 10
105.4178245713194
 20
223.7913231420184
 30
0.0
 10
105.5719978454039
 20
223.9460202330518
 30
0.0
 10
105.7482907640591
 20
224.0844631778673
 30
0.0
 10
105.9424940498084
 20
224.2024182386953
 30
0.0
 10
106.0958649909333
 20
224.2799295562401
 30
0.0
 10
106.2558074875343
 20
224.3460160035936
 30
0.0
 10
106.4235446738487
 20
224.4007332088597
 30
0.0
 10
106.5953907211535
 20
224.4424512328869
 30
0.0
 10
106.8275470969154
 20
224.4805649614114
 30
0.0
 10
107.0641766955735
 20
224.4925838533028
 30
0.0
 10
107.2992477976057
 20
224.4778596415657
 30
0.0
 10
107.5315273158522
 20
224.4457668946043
 30
0.0
 10
107.758196319727
 20
224.388048835519
 30
0.0
 10
107.9739055527749
 20
224.3060504535668
 30
0.0
 10
108.1812777355988
 20
224.2085654607685
 30
0.0
 10
108.3741596588513
 20
224.0889164263372
 30
0.0
 10
108.5477093922274
 20
223.9501526367474
 30
0.0
 10
108.7077538843134
 20
223.7994197759999
 30
0.0
 10
108.8456352597149
 20
223.6324994504923
 30
0.0
 10
108.9573554288018
 20
223.454055299444
 30
0.0
 10
109.0511728881591
 20
223.2691862334829
 30
0.0
 10
109.1173138192347
 20
223.0764072909863
 30
0.0
 10
109.1536473514415
 20
222.8810781884515
 30
0.0
 10
109.1701830364474
 20
222.6856576342799
 30
0.0
 10
109.1571246950751
 20
222.4912810377738
 30
0.0
 10
109.1145041185484
 20
222.3026977612937
 30
0.0
 10
109.052773959841
 20
222.1191458138712
 30
0.0
 10
108.9629422108747
 20
221.9443168253519
 30
0.0
 10
108.8467980605963
 20
221.7820465854886
 30
0.0
 10
108.713753882103
 20
221.628663628257
 30
0.0
 10
108.5566228652072
 20
221.4900522097014
 30
0.0
 10
108.3789951865893
 20
221.3694056313905
 30
0.0
 10
108.1885499737146
 20
221.261020949114
 30
0.0
 10
107.9807592314746
 20
221.1720520948073
 30
0.0
 10
107.7610143698697
 20
221.1047785419291
 30
0.0
 10
107.5348849277155
 20
221.0521109937255
 30
0.0
 10
107.3008485994964
 20
221.0215505699719
 30
0.0
 10
107.0649967784591
 20
221.0139944184843
 30
0.0
 10
106.8298255349848
 20
221.0215431224107
 30
0.0
 10
106.5970214655178
 20
221.0515483853246
 30
0.0
 10
106.372162125634
 20
221.1036669454599
 30
0.0
 10
106.1538797705092
 20
221.1701226607103
 30
0.0
 10
105.9472580918768
 20
221.2576581320516
 30
0.0
 10
105.7572921812061
 20
221.3648634483874
 30
0.0
 10
105.5791233017839
 20
221.4848377473938
 30
0.0
 10
105.4207164797549
 20
221.6230166465463
 30
0.0
 10
105.2864690059751
 20
221.7765332691581
 30
0.0
 10
105.1985318681965
 20
221.8984672461907
 30
0.0
 10
105.1237864763894
 20
222.0263745789578
 30
0.0
 10
105.0619567526331
 20
222.1613469881912
 30
0.0
 10
105.0099774558459
 20
222.3161167271231
 30
0.0
 10
104.9721242770866
 20
222.4909089776164
 30
0.0
 10
104.9670296224152
 20
222.6201775283383
 30
0.0
 10
104.9644661098467
 20
222.6852224775771
 30
0.0
  0
SPLINE
  5
289
330
1F
100
AcDbEntity
  8
0
  6
Continuous
 62
     7
370
    25
100
AcDbSpline
210
0.0
220
0.0
230
1.0
 70
    11
 71
     3
 72
    26
 73
    22
 74
     0
 42
0.000000001
 43
0.00000001
 40
0.0
 40
0.0
 40
0.0
 40
0.0
 40
0.0534601751351934
 40
0.1069123401768113
 40
0.1605728564583297
 40
0.2143749610407128
 40
0.267948804795318
 40
0.3212804345606109
 40
0.3747337621564342
 40
0.4284820805386277
 40
0.4822401898939236
 40
0.5357089794419749
 40
0.5890409224759454
 40
0.6425973520441067
 40
0.696394728242564
 40
0.7500728388891568
 40
0.8034542870099796
 40
0.8568259596906274
 40
0.9104881633857749
 40
0.9642897398709472
 40
1.0
 40
1.0
 40
1.0
 40
1.0
 10
104.9644661098467
 20
248.7367795768574
 30
0.0
 10
104.9875359474855
 20
248.8670390330885
 30
0.0
 10
105.0336721661422
 20
249.1275384283976
 30
0.0
 10
105.3931484530752
 20
249.4498256406051
 30
0.0
 10
105.9236930916234
 20
249.6849795221682
 30
0.0
 10
106.5884298370398
 20
249.8151175046288
 30
0.0
 10
107.3047973184165
 20
249.8336694269682
 30
0.0
 10
107.9924504304979
 20
249.74053792132
 30
0.0
 10
108.576360309357
 20
249.5404990215502
 30
0.0
 10
108.9922821443213
 20
249.2441497384844
 30
0.0
 10
109.1912381612038
 20
248.8739435073637
 30
0.0
 10
109.1505368839239
 20
248.467088013283
 30
0.0
 10
108.8768675211401
 20
248.0706831088124
 30
0.0
 10
108.4002974392123
 20
247.7353676035207
 30
0.0
 10
107.7720226329424
 20
247.5099494333738
 30
0.0
 10
107.0637664893695
 20
247.4308536371846
 30
0.0
 10
106.3579241900778
 20
247.5101184114005
 30
0.0
 10
105.7309706659791
 20
247.7341268840433
 30
0.0
 10
105.255531033477
 20
248.0687607778518
 30
0.0
 10
105.0010307558604
 20
248.4240609107775
 30
0.0
 10
104.9748934469911
 20
248.6475999096632
 30
0.0
 10
104.9644661098467
 20
248.7367795768574
 30
0.0
  0
LINE
  5
28A
330
1F
100
AcDbEntity
  8
0
  6
Continuous
 62
     7
370
    25
100
AcDbLine
 10
104.5144661098
 20
222.6852224776
 30
0.0
 11
104.5144661098
 21
214.4890901923
 31
0.0
  0
LINE
  5
28B
330
1F
100
AcDbEntity
  8
0
  6
Continuous
 62
     7
370
    25
100
AcDbLine
 10
104.5144661098
 20
251.9890901923
 30
0.0
 11
104.5144661098
 21
222.6852224776
 31
0.0
  0
LINE
  5
28C
330
1F
100
AcDbEntity
  8
0
  6
Continuous
 62
     7
370
    25
100
AcDbLine
 10
103.7644661098
 20
223.1073771862
 30
0.0
 11
103.7644661098
 21
251.2390901923
 31
0.0
  0
LINE
  5
28D
330
1F
100
AcDbEntity
  8
0
  6
Continuous
 62
     7
370
    25
100
AcDbLine
 10
103.7644661098
 20
215.2390901923
 30
0.0
 11
103.7644661098
 21
223.1073771862
 31
0.0
  0
ARC
  5
28E
330
1F
100
AcDbEntity
  8
0
  6
Continuous
 62
     7
370
    25
100
AcDbCircle
 10
107.0645225701
 20
226.1919468568
 30
0.0
 40
2.432792830498503
100
AcDbArc
 50
238.9816083885
 51
300.8772594277
  0
CIRCLE
  5
28F
330
1F
100
AcDbEntity
  8
0
  6
Continuous
 62
     7
370
    25
100
AcDbCircle
 10
186.2644661098
 20
233.0390901923
 30
0.0
 40
18.75000000000029
  0
CIRCLE
  5
290
330
1F
100
AcDbEntity
  8
0
  6
Continuous
 62
     7
370
    25
100
AcDbCircle
 10
186.2644661098
 20
233.0390901923
 30
0.0
 40
18.00000000000025
  0
LINE
  5
291
330
1F
100
AcDbEntity
  8
0
  6
Continuous
 62
     7
370
    25
100
AcDbLine
 10
129.2644661098
 20
253.1390901923
 30
0.0
 11
129.2644661098
 21
213.1390901923
 31
0.0
  0
LINE
  5
292
330
1F
100
AcDbEntity
  8
0
  6
Continuous
 62
     7
370
    25
100
AcDbLine
 10
129.2644661098
 20
213.1390901923
 30
0.0
 11
119.2644661098
 21
213.1390901923
 31
0.0
  0
LINE
  5
293
330
1F
100
AcDbEntity
  8
0
  6
Continuous
 62
     7
370
    25
100
AcDbLine
 10
119.2644661098
 20
213.1390901923
 30
0.0
 11
119.2644661098
 21
253.1390901923
 31
0.0
  0
LINE
  5
294
330
1F
100
AcDbEntity
  8
0
  6
Continuous
 62
     7
370
    25
100
AcDbLine
 10
119.2644661098
 20
253.1390901923
 30
0.0
 11
129.2644661098
 21
253.1390901923
 31
0.0
  0
LINE
  5
295
330
1F
100
AcDbEntity
  8
0
  6
Continuous
 62
     7
370
    25
100
AcDbLine
 10
208.2644661098
 20
252.1390901923
 30
0.0
 11
207.2644661098
 21
253.1390901923
 31
0.0
  0
LINE
  5
296
330
1F
100
AcDbEntity
  8
0
  6
Continuous
 62
     7
370
    25
100
AcDbLine
 10
208.2644661098
 20
252.1390901923
 30
0.0
 11
208.2644661098
 21
214.1390901923
 31
0.0
  0
LINE
  5
297
330
1F
100
AcDbEntity
  8
0
  6
Continuous
 62
     7
370
    25
100
AcDbLine
 10
207.2644661098
 20
213.1390901923
 30
0.0
 11
208.2644661098
 21
214.1390901923
 31
0.0
  0
LINE
  5
298
330
1F
100
AcDbEntity
  8
0
  6
Continuous
 62
     7
370
    25
100
AcDbLine
 10
129.2644661098
 20
213.1390901923
 30
0.0
 11
207.2644661098
 21
213.1390901923
 31
0.0
  0
LINE
  5
299
330
1F
100
AcDbEntity
  8
0
  6
Continuous
 62
     7
370
    25
100
AcDbLine
 10
129.2644661098
 20
253.1390901923
 30
0.0
 11
207.2644661098
 21
253.1390901923
 31
0.0
  0
DIMENSION
  5
29A
330
1F
100
AcDbEntity
  8
0
100
AcDbDimension
  2
_D
 10
222.7762360055
 20
213.1390901923
 30
0.0
 11
222.7762360055
 21
233.1390901923
 31
0.0
 70
   160
  1
<>
 71
     2
 42
-1.0
  3
SLDDIMSTYLE0
100
AcDbAlignedDimension
 13
207.2644661098
 23
253.1390901923
 33
0.0
 14
207.2644661098
 24
213.1390901923
 34
0.0
 50
90.0
100
AcDbRotatedDimension
  0
LINE
  5
2B2
330
1F
100
AcDbEntity
  8
0
  6
Continuous
 62
     7
370
    25
100
AcDbLine
 10
177.3144661098
 20
89.8666722141
 30
0.0
 11
177.3144661098
 21
82.3666722141
 31
0.0
  0
LINE
  5
2B3
330
1F
100
AcDbEntity
  8
0
  6
Continuous
 62
     7
370
    25
100
AcDbLine
 10
195.2144661098
 20
82.3666722141
 30
0.0
 11
195.2144661098
 21
89.8666722141
 31
0.0
  0
LINE
  5
2B4
330
1F
100
AcDbEntity
  8
0
  6
Continuous
 62
     7
370
    25
100
AcDbLine
 10
118.2644661098
 20
166.8166722141
 30
0.0
 11
110.7644661098
 21
166.8166722141
 31
0.0
  0
LINE
  5
2B5
330
1F
100
AcDbEntity
  8
0
  6
Continuous
 62
     7
370
    25
100
AcDbLine
 10
110.7644661098
 20
148.9166722141
 30
0.0
 11
118.2644661098
 21
148.9166722141
 31
0.0
  0
LINE
  5
2B6
330
1F
100
AcDbEntity
  8
0
  6
Continuous
 62
     7
370
    25
100
AcDbLine
 10
110.7644661098
 20
175.3666722141
 30
0.0
 11
109.7644661098
 21
175.3666722141
 31
0.0
  0
LINE
  5
2B7
330
1F
100
AcDbEntity
  8
0
  6
Continuous
 62
     7
370
    25
100
AcDbLine
 10
109.7644661098
 20
140.3666722141
 30
0.0
 11
110.7644661098
 21
140.3666722141
 31
0.0
  0
LINE
  5
2B8
330
1F
100
AcDbEntity
  8
0
  6
Continuous
 62
     7
370
    25
100
AcDbLine
 10
119.2644661098
 20
175.3666722141
 30
0.0
 11
118.2644661098
 21
175.3666722141
 31
0.0
  0
LINE
  5
2B9
330
1F
100
AcDbEntity
  8
0
  6
Continuous
 62
     7
370
    25
100
AcDbLine
 10
118.2644661098
 20
140.3666722141
 30
0.0
 11
119.2644661098
 21
140.3666722141
 31
0.0
  0
LINE
  5
2BA
330
1F
100
AcDbEntity
  8
0
  6
Continuous
 62
     7
370
    25
100
AcDbLine
 10
168.7644661098
 20
90.8666722141
 30
0.0
 11
168.7644661098
 21
89.8666722141
 31
0.0
  0
LINE
  5
2BB
330
1F
100
AcDbEntity
  8
0
  6
Continuous
 62
     7
370
    25
100
AcDbLine
 10
203.7644661098
 20
89.8666722141
 30
0.0
 11
203.7644661098
 21
90.8666722141
 31
0.0
  0
LINE
  5
2BC
330
1F
100
AcDbEntity
  8
0
  6
Continuous
 62
     7
370
    25
100
AcDbLine
 10
168.7644661098
 20
82.3666722141
 30
0.0
 11
168.7644661098
 21
81.3666722141
 31
0.0
  0
LINE
  5
2BD
330
1F
100
AcDbEntity
  8
0
  6
Continuous
 62
     7
370
    25
100
AcDbLine
 10
203.7644661098
 20
81.3666722141
 30
0.0
 11
203.7644661098
 21
82.3666722141
 31
0.0
  0
LINE
  5
2BE
330
1F
100
AcDbEntity
  8
0
  6
Continuous
 62
     7
370
    25
100
AcDbLine
 10
104.5144661098
 20
139.1166722141
 30
0.0
 11
109.7644661098
 21
139.1166722141
 31
0.0
  0
LINE
  5
2BF
330
1F
100
AcDbEntity
  8
0
  6
Continuous
 62
     7
370
    25
100
AcDbLine
 10
109.7644661098
 20
176.6166722141
 30
0.0
 11
104.5144661098
 21
176.6166722141
 31
0.0
  0
LINE
  5
2C0
330
1F
100
AcDbEntity
  8
0
  6
Continuous
 62
     7
370
    25
100
AcDbLine
 10
104.5144661098
 20
176.6166722141
 30
0.0
 11
103.7644661098
 21
175.8666722141
 31
0.0
  0
LINE
  5
2C1
330
1F
100
AcDbEntity
  8
0
  6
Continuous
 62
     7
370
    25
100
AcDbLine
 10
103.7644661098
 20
139.8666722141
 30
0.0
 11
104.5144661098
 21
139.1166722141
 31
0.0
  0
LINE
  5
2C2
330
1F
100
AcDbEntity
  8
0
  6
Continuous
 62
     7
370
    25
100
AcDbLine
 10
205.0144661098
 20
76.1166722141
 30
0.0
 11
205.0144661098
 21
81.3666722141
 31
0.0
  0
LINE
  5
2C3
330
1F
100
AcDbEntity
  8
0
  6
Continuous
 62
     7
370
    25
100
AcDbLine
 10
167.5144661098
 20
81.3666722141
 30
0.0
 11
167.5144661098
 21
76.1166722141
 31
0.0
  0
LINE
  5
2C4
330
1F
100
AcDbEntity
  8
0
  6
Continuous
 62
     7
370
    25
100
AcDbLine
 10
167.5144661098
 20
76.1166722141
 30
0.0
 11
168.2644661098
 21
75.3666722141
 31
0.0
  0
LINE
  5
2C5
330
1F
100
AcDbEntity
  8
0
  6
Continuous
 62
     7
370
    25
100
AcDbLine
 10
204.2644661098
 20
75.3666722141
 30
0.0
 11
205.0144661098
 21
76.1166722141
 31
0.0
  0
LINE
  5
2C6
330
1F
100
AcDbEntity
  8
0
  6
Continuous
 62
     7
370
    25
100
AcDbLine
 10
130.5144661098
 20
176.6166722141
 30
0.0
 11
125.2644661098
 21
176.6166722141
 31
0.0
  0
LINE
  5
2C7
330
1F
100
AcDbEntity
  8
0
  6
Continuous
 62
     7
370
    25
100
AcDbLine
 10
125.2644661098
 20
139.1166722141
 30
0.0
 11
130.5144661098
 21
139.1166722141
 31
0.0
  0
LINE
  5
2C8
330
1F
100
AcDbEntity
  8
0
  6
Continuous
 62
     7
370
    25
100
AcDbLine
 10
130.5144661098
 20
139.1166722141
 30
0.0
 11
131.2644661098
 21
139.8666722141
 31
0.0
  0
LINE
  5
2C9
330
1F
100
AcDbEntity
  8
0
  6
Continuous
 62
     7
370
    25
100
AcDbLine
 10
131.2644661098
 20
175.8666722141
 30
0.0
 11
130.5144661098
 21
176.6166722141
 31
0.0
  0
LINE
  5
2CA
330
1F
100
AcDbEntity
  8
0
  6
Continuous
 62
     7
370
    25
100
AcDbLine
 10
167.5144661098
 20
97.4666722141
 30
0.0
 11
167.5144661098
 21
96.8666722141
 31
0.0
  0
LINE
  5
2CB
330
1F
100
AcDbEntity
  8
0
  6
Continuous
 62
     7
370
    25
100
AcDbLine
 10
167.5144661098
 20
102.1166722141
 30
0.0
 11
167.5144661098
 21
101.6602496645
 31
0.0
  0
LINE
  5
2CC
330
1F
100
AcDbEntity
  8
0
  6
Continuous
 62
     7
370
    25
100
AcDbLine
 10
205.0144661098
 20
101.6666722141
 30
0.0
 11
205.0144661098
 21
102.1166722141
 31
0.0
  0
LINE
  5
2CD
330
1F
100
AcDbEntity
  8
0
  6
Continuous
 62
     7
370
    25
100
AcDbLine
 10
205.0144661098
 20
96.8666722141
 30
0.0
 11
205.0144661098
 21
97.4708897059
 31
0.0
  0
LINE
  5
2CE
330
1F
100
AcDbEntity
  8
0
  6
Continuous
 62
     7
370
    25
100
AcDbLine
 10
205.0144661098
 20
102.1166722141
 30
0.0
 11
204.2644661098
 21
102.8666722141
 31
0.0
  0
LINE
  5
2CF
330
1F
100
AcDbEntity
  8
0
  6
Continuous
 62
     7
370
    25
100
AcDbLine
 10
168.2644661098
 20
102.8666722141
 30
0.0
 11
167.5144661098
 21
102.1166722141
 31
0.0
  0
LINE
  5
2D0
330
1F
100
AcDbEntity
  8
0
  6
Continuous
 62
     7
370
    25
100
AcDbLine
 10
110.7644661098
 20
163.9169958277
 30
0.0
 11
110.7644661098
 21
175.3666722141
 31
0.0
  0
LINE
  5
2D1
330
1F
100
AcDbEntity
  8
0
  6
Continuous
 62
     7
370
    25
100
AcDbLine
 10
110.7644661098
 20
140.3666722141
 30
0.0
 11
110.7644661098
 21
163.9169958277
 31
0.0
  0
LINE
  5
2D2
330
1F
100
AcDbEntity
  8
0
  6
Continuous
 62
     7
370
    25
100
AcDbLine
 10
118.2644661098
 20
165.1080335694
 30
0.0
 11
118.2644661098
 21
175.3666722141
 31
0.0
  0
LINE
  5
2D3
330
1F
100
AcDbEntity
  8
0
  6
Continuous
 62
     7
370
    25
100
AcDbLine
 10
118.2644661098
 20
140.3666722141
 30
0.0
 11
118.2644661098
 21
165.1080335694
 31
0.0
  0
LINE
  5
2D4
330
1F
100
AcDbEntity
  8
0
  6
Continuous
 62
     7
370
    25
100
AcDbLine
 10
203.1853793939
 20
89.8666722141
 30
0.0
 11
168.7644661098
 21
89.8666722141
 31
0.0
  0
LINE
  5
2D5
330
1F
100
AcDbEntity
  8
0
  6
Continuous
 62
     7
370
    25
100
AcDbLine
 10
203.7644661098
 20
89.8666722141
 30
0.0
 11
203.1853793939
 21
89.8666722141
 31
0.0
  0
LINE
  5
2D6
330
1F
100
AcDbEntity
  8
0
  6
Continuous
 62
     7
370
    25
100
AcDbLine
 10
203.4678554317
 20
82.3666722141
 30
0.0
 11
168.7644661098
 21
82.3666722141
 31
0.0
  0
LINE
  5
2D7
330
1F
100
AcDbEntity
  8
0
  6
Continuous
 62
     7
370
    25
100
AcDbLine
 10
203.7644661098
 20
82.3666722141
 30
0.0
 11
203.4678554317
 21
82.3666722141
 31
0.0
  0
LINE
  5
2D8
330
1F
100
AcDbEntity
  8
0
  6
Continuous
 62
     7
370
    25
100
AcDbLine
 10
109.7644661098
 20
176.6166722141
 30
0.0
 11
109.7644661098
 21
139.1166722141
 31
0.0
  0
SPLINE
  5
2D9
330
1F
100
AcDbEntity
  8
0
  6
Continuous
 62
     7
370
    25
100
AcDbSpline
210
0.0
220
0.0
230
1.0
 70
    11
 71
     3
 72
    26
 73
    22
 74
     0
 42
0.000000001
 43
0.00000001
 40
0.0
 40
0.0
 40
0.0
 40
0.0
 40
0.0534601751351941
 40
0.1069123401768132
 40
0.1605728564583306
 40
0.214374961040714
 40
0.267948804795319
 40
0.3212804345606115
 40
0.3747337621564355
 40
0.4284820805386294
 40
0.4822401898939232
 40
0.5357089794419753
 40
0.5890409224759467
 40
0.6425973520441081
 40
0.6963947282425654
 40
0.750072838889158
 40
0.8034542870099805
 40
0.8568259596906286
 40
0.910488163385776
 40
0.9642897398709483
 40
0.9999999999999999
 40
0.9999999999999999
 40
0.9999999999999999
 40
0.9999999999999999
 10
104.9644661098467
 20
147.3128044994041
 30
0.0
 10
104.9875359474855
 20
147.5088016647283
 30
0.0
 10
105.0336721661422
 20
147.9007666285511
 30
0.0
 10
105.3931484530752
 20
148.4397334180779
 30
0.0
 10
105.9236930916234
 20
148.8585576142978
 30
0.0
 10
106.5884298370398
 20
149.1029683319266
 30
0.0
 10
107.3047973184165
 20
149.1384568579344
 30
0.0
 10
107.9924504304979
 20
148.9619144419638
 30
0.0
 10
108.576360309357
 20
148.5978172032945
 30
0.0
 10
108.9922821443213
 20
148.0921360700853
 30
0.0
 10
109.1912381612038
 20
147.5088115173235
 30
0.0
 10
109.1505368839239
 20
146.9198023286512
 30
0.0
 10
108.8768675211401
 20
146.3902043032694
 30
0.0
 10
108.4002974392123
 20
145.9718523956937
 30
0.0
 10
107.7720226329424
 20
145.7043795333434
 30
0.0
 10
107.0637664893695
 20
145.6129674449633
 30
0.0
 10
106.3579241900778
 20
145.7046086817556
 30
0.0
 10
105.7309706659791
 20
145.9702825787001
 30
0.0
 10
105.255531033477
 20
146.3880717909936
 30
0.0
 10
105.0010307558604
 20
146.8609362098954
 30
0.0
 10
104.9748934469911
 20
147.1839427842429
 30
0.0
 10
104.9644661098467
 20
147.3128044994041
 30
0.0
  0
SPLINE
  5
2DA
330
1F
100
AcDbEntity
  8
0
  6
Continuous
 62
     7
370
    25
100
AcDbSpline
210
0.0
220
0.0
230
1.0
 70
    11
 71
     3
 72
    66
 73
    62
 74
     0
 42
0.000000001
 43
0.00000001
 40
0.0
 40
0.0
 40
0.0
 40
0.0
 40
0.013133245949252
 40
0.0263581345991626
 40
0.0398717221720247
 40
0.0534848673906391
 40
0.0799145595444564
 40
0.0933284383252636
 40
0.1069361305807674
 40
0.1334686058942221
 40
0.146934866720062
 40
0.1605964210041
 40
0.1738131448687618
 40
0.1871221037442701
 40
0.2007228223696513
 40
0.2144247576054209
 40
0.2409115859832177
 40
0.2543576239496239
 40
0.268001575246255
 40
0.2943710462318336
 40
0.3077550236460328
 40
0.3213330260816213
 40
0.347763975805099
 40
0.361177768835552
 40
0.374784781908138
 40
0.4013598094435701
 40
0.4148485612172006
 40
0.4285340085122272
 40
0.4551117498176099
 40
0.4686041127980099
 40
0.4822955609741047
 40
0.5087311207760178
 40
0.5221504413572277
 40
0.5357663917073412
 40
0.5621367392674451
 40
0.5755204030307813
 40
0.5890973019132134
 40
0.61557892792653
 40
0.6290187463753171
 40
0.6426526424897918
 40
0.6692510497258239
 40
0.6827525823337343
 40
0.6964520326384799
 40
0.722990105242618
 40
0.7364624642971042
 40
0.7501336202362989
 40
0.7765268315484662
 40
0.7899237898333005
 40
0.803516006844333
 40
0.8299064904970724
 40
0.8432998520887736
 40
0.8568861153234089
 40
0.8834194116339424
 40
0.8968861029383225
 40
0.9105481125784103
 40
0.9237647024827185
 40
0.9370735301860817
 40
0.950674119588771
 40
0.9643759212448838
 40
0.9820747863160313
 40
1.0
 40
1.0
 40
1.0
 40
1.0
 10
109.1644661098465
 20
173.364361598684
 30
0.0
 10
109.163087153044
 20
173.3317065516978
 30
0.0
 10
109.1603196171929
 20
173.2661685935166
 30
0.0
 10
109.1377642092294
 20
173.166025402309
 30
0.0
 10
109.1012668417342
 20
173.0648561512902
 30
0.0
 10
109.033048984629
 20
172.9317910102067
 30
0.0
 10
108.9369221152457
 20
172.802119012131
 30
0.0
 10
108.8151645715056
 20
172.679258277863
 30
0.0
 10
108.6766096348253
 20
172.5616687759096
 30
0.0
 10
108.5143442927612
 20
172.453570559097
 30
0.0
 10
108.332398820482
 20
172.3582708669817
 30
0.0
 10
108.1864292921893
 20
172.2937325994976
 30
0.0
 10
108.0330686546542
 20
172.2371418801509
 30
0.0
 10
107.8731279018058
 20
172.18874686214
 30
0.0
 10
107.7053730024917
 20
172.1485851084933
 30
0.0
 10
107.4770211482959
 20
172.1078001349064
 30
0.0
 10
107.2421479790119
 20
172.0859916980034
 30
0.0
 10
107.0062667850264
 20
172.0836874089305
 30
0.0
 10
106.771449429329
 20
172.0944964075711
 30
0.0
 10
106.5398527464765
 20
172.1246226366676
 30
0.0
 10
106.3171534170264
 20
172.1728683350909
 30
0.0
 10
106.1012992618108
 20
172.2329776735633
 30
0.0
 10
105.8978479847421
 20
172.3099676185645
 30
0.0
 10
105.7116985708548
 20
172.4012947520281
 30
0.0
 10
105.5378793807309
 20
172.5017659357207
 30
0.0
 10
105.3845748074049
 20
172.6144729533707
 30
0.0
 10
105.2555417526905
 20
172.7359878885589
 30
0.0
 10
105.1437759054084
 20
172.8624142816995
 30
0.0
 10
105.0587850026383
 20
172.9947336575699
 30
0.0
 10
105.0025929664842
 20
173.1291912475673
 30
0.0
 10
104.9662621311937
 20
173.2638216193919
 30
0.0
 10
104.9595770180864
 20
173.3977044806119
 30
0.0
 10
104.9824245299029
 20
173.5274818531676
 30
0.0
 10
105.0249748921105
 20
173.6537534393742
 30
0.0
 10
105.0964503468059
 20
173.7739329876045
 30
0.0
 10
105.1948460775766
 20
173.8855093627866
 30
0.0
 10
105.3110757896553
 20
173.9911106395028
 30
0.0
 10
105.4527711696845
 20
174.0868978218866
 30
0.0
 10
105.616428848918
 20
174.1712115809003
 30
0.0
 10
105.7942272997733
 20
174.2476423489567
 30
0.0
 10
105.9913074325977
 20
174.3117641544682
 30
0.0
 10
106.2028309278725
 20
174.3626426960089
 30
0.0
 10
106.4224399041535
 20
174.4043768142868
 30
0.0
 10
106.6523484734403
 20
174.4324408850555
 30
0.0
 10
106.8867837675803
 20
174.4465493287384
 30
0.0
 10
107.1223146767139
 20
174.4512118865529
 30
0.0
 10
107.3579323554697
 20
174.4419118132327
 30
0.0
 10
107.5877994268637
 20
174.4189081813944
 30
0.0
 10
107.8126674810026
 20
174.386696530697
 30
0.0
 10
108.0280744574215
 20
174.3408696524817
 30
0.0
 10
108.2288251264855
 20
174.2821310530854
 30
0.0
 10
108.4190760013479
 20
174.2146396113798
 30
0.0
 10
108.5913848342414
 20
174.1344320055726
 30
0.0
 10
108.7415483744773
 20
174.0428016493535
 30
0.0
 10
108.8424738186501
 20
173.968363904809
 30
0.0
 10
108.9303975302198
 20
173.8891356600894
 30
0.0
 10
109.0051465193285
 20
173.8054035639471
 30
0.0
 10
109.066975257352
 20
173.7163787537501
 30
0.0
 10
109.1189548384476
 20
173.6134774646282
 30
0.0
 10
109.1568079217144
 20
173.4963070210687
 30
0.0
 10
109.1619025902845
 20
173.4085293137581
 30
0.0
 10
109.1644661098465
 20
173.364361598684
 30
0.0
  0
LINE
  5
2DB
330
1F
100
AcDbEntity
  8
0
  6
Continuous
 62
     7
370
    25
100
AcDbLine
 10
104.5144661098
 20
176.6166722141
 30
0.0
 11
104.5144661098
 21
139.1166722141
 31
0.0
  0
LINE
  5
2DC
330
1F
100
AcDbEntity
  8
0
  6
Continuous
 62
     7
370
    25
100
AcDbLine
 10
103.7644661098
 20
139.8666722141
 30
0.0
 11
103.7644661098
 21
175.8666722141
 31
0.0
  0
ARC
  5
2DD
330
1F
100
AcDbEntity
  8
0
  6
Continuous
 62
     7
370
    25
100
AcDbCircle
 10
107.0645675319
 20
150.8219616006
 30
0.0
 40
2.435072217396168
100
AcDbArc
 50
239.4129664597
 51
300.3200110341
  0
LINE
  5
2DE
330
1F
100
AcDbEntity
  8
0
  6
Continuous
 62
     7
370
    25
100
AcDbLine
 10
167.5144661098
 20
81.3666722141
 30
0.0
 11
205.0144661098
 21
81.3666722141
 31
0.0
  0
SPLINE
  5
2DF
330
1F
100
AcDbEntity
  8
0
  6
Continuous
 62
     7
370
    25
100
AcDbSpline
210
0.0
220
0.0
230
1.0
 70
    11
 71
     3
 72
    66
 73
    62
 74
     0
 42
0.000000001
 43
0.00000001
 40
0.0
 40
0.0
 40
0.0
 40
0.0
 40
0.0131332459492529
 40
0.0263581345991636
 40
0.0398717221720248
 40
0.0534848673906397
 40
0.0799145595444574
 40
0.0933284383252644
 40
0.1069361305807678
 40
0.1334686058942226
 40
0.1469348667200625
 40
0.1605964210041005
 40
0.1738131448687623
 40
0.1871221037442707
 40
0.200722822369652
 40
0.2144247576054217
 40
0.2409115859832184
 40
0.2543576239496246
 40
0.2680015752462556
 40
0.2943710462318343
 40
0.3077550236460334
 40
0.3213330260816221
 40
0.3477639758050994
 40
0.3611777688355527
 40
0.3747847819081385
 40
0.4013598094435707
 40
0.4148485612172012
 40
0.4285340085122284
 40
0.4551117498176108
 40
0.4686041127980107
 40
0.482295560974105
 40
0.5087311207760186
 40
0.5221504413572285
 40
0.5357663917073417
 40
0.562136739267446
 40
0.5755204030307821
 40
0.5890973019132144
 40
0.6155789279265308
 40
0.629018746375318
 40
0.6426526424897921
 40
0.6692510497258246
 40
0.6827525823337349
 40
0.6964520326384805
 40
0.7229901052426186
 40
0.7364624642971048
 40
0.7501336202362995
 40
0.7765268315484667
 40
0.789923789833301
 40
0.8035160068443336
 40
0.8299064904970728
 40
0.843299852088774
 40
0.8568861153234093
 40
0.883419411633943
 40
0.8968861029383232
 40
0.9105481125784105
 40
0.9237647024827186
 40
0.9370735301860822
 40
0.9506741195887717
 40
0.9643759212448842
 40
0.9820747863160317
 40
1.0
 40
1.0
 40
1.0
 40
1.0
 10
199.2698231161555
 20
80.76667221413437
 30
0.0
 10
199.3113427734574
 20
80.76529325733193
 30
0.0
 10
199.3946718087851
 20
80.76252572148087
 30
0.0
 10
199.5184280033204
 20
80.73997031351732
 30
0.0
 10
199.6408756417008
 20
80.70347294602212
 30
0.0
 10
199.7983168867468
 20
80.63525508891698
 30
0.0
 10
199.9468499193893
 20
80.53912821953358
 30
0.0
 10
200.0835610172342
 20
80.41737067579349
 30
0.0
 10
200.2119645591179
 20
80.27881573911324
 30
0.0
 10
200.3268205093844
 20
80.11655039704912
 30
0.0
 10
200.4259185183791
 20
79.93460492476994
 30
0.0
 10
200.4921150131908
 20
79.78863539647722
 30
0.0
 10
200.5494675801052
 20
79.63527475894212
 30
0.0
 10
200.5980131250757
 20
79.4753340060937
 30
0.0
 10
200.6379504310133
 20
79.30757910677957
 30
0.0
 10
200.6782210457589
 20
79.07922725258385
 30
0.0
 10
200.6995663356707
 20
78.84435408329979
 30
0.0
 10
200.7018236292325
 20
78.60847288931436
 30
0.0
 10
200.6912407860048
 20
78.37365553361695
 30
0.0
 10
200.6616796327864
 20
78.14205885076443
 30
0.0
 10
200.6138402024899
 20
77.9193595213143
 30
0.0
 10
200.5537520406501
 20
77.7035053660987
 30
0.0
 10
200.4757493851242
 20
77.50005408903004
 30
0.0
 10
200.3813095008243
 20
77.31390467514275
 30
0.0
 10
200.2758923247869
 20
77.14008548501882
 30
0.0
 10
200.1548871254192
 20
76.98678091169278
 30
0.0
 10
200.0206788817474
 20
76.85774785697839
 30
0.0
 10
199.8782858265618
 20
76.74598200969638
 30
0.0
 10
199.7246903552255
 20
76.66099110692626
 30
0.0
 10
199.5633534773932
 20
76.60479907077219
 30
0.0
 10
199.3981247867794
 20
76.56846823548157
 30
0.0
 10
199.2281110494608
 20
76.56178312237431
 30
0.0
 10
199.0575509166501
 20
76.58463063419083
 30
0.0
 10
198.8877242119618
 20
76.62718099639842
 30
0.0
 10
198.7204185537856
 20
76.69865645109384
 30
0.0
 10
198.560037905311
 20
76.79705218186456
 30
0.0
 10
198.4049942675352
 20
76.91328189394319
 30
0.0
 10
198.2598891497215
 20
77.05497727397245
 30
0.0
 10
198.1287768119858
 20
77.21863495320592
 30
0.0
 10
198.0078877939203
 20
77.39643340406124
 30
0.0
 10
197.9039664263801
 20
77.59351353688565
 30
0.0
 10
197.8201066665691
 20
77.80503703216044
 30
0.0
 10
197.7505939516929
 20
78.02464600844141
 30
0.0
 10
197.7031958697522
 20
78.25455457772823
 30
0.0
 10
197.6792545110525
 20
78.48898987186821
 30
0.0
 10
197.6713189537964
 20
78.72452078100186
 30
0.0
 10
197.6871610881706
 20
78.96013845975764
 30
0.0
 10
197.7260477730543
 20
79.1900055311516
 30
0.0
 10
197.7801497189191
 20
79.41487358529056
 30
0.0
 10
197.8562778166765
 20
79.63028056170947
 30
0.0
 10
197.9520002854436
 20
79.83103123077345
 30
0.0
 10
198.0604817288533
 20
80.02128210563588
 30
0.0
 10
198.1866119958156
 20
80.19359093852933
 30
0.0
 10
198.3267135061456
 20
80.34375447876526
 30
0.0
 10
198.4383372648736
 20
80.444679922938
 30
0.0
 10
198.554754601237
 20
80.53260363450772
 30
0.0
 10
198.6752435404859
 20
80.60735262361642
 30
0.0
 10
198.8005953064838
 20
80.66918136163991
 30
0.0
 10
198.9421487844141
 20
80.72116094273554
 30
0.0
 10
199.0994578431953
 20
80.75901402600238
 30
0.0
 10
199.212794651669
 20
80.76410869457239
 30
0.0
 10
199.2698231161555
 20
80.76667221413437
 30
0.0
  0
SPLINE
  5
2E0
330
1F
100
AcDbEntity
  8
0
  6
Continuous
 62
     7
370
    25
100
AcDbSpline
210
0.0
220
0.0
230
1.0
 70
    11
 71
     3
 72
    45
 73
    41
 74
     0
 42
0.000000001
 43
0.00000001
 40
0.0
 40
0.0
 40
0.0
 40
0.0
 40
0.0263487683894927
 40
0.0534645613969619
 40
0.0798125043145003
 40
0.1069189459928432
 40
0.1333692010609512
 40
0.1605822117466257
 40
0.1870984522164821
 40
0.2143898188214617
 40
0.2407931508992875
 40
0.2679692428088211
 40
0.2942568362450914
 40
0.3213037294225664
 40
0.3476532650916393
 40
0.3747586645228445
 40
0.4012508899783549
 40
0.4285107111897005
 40
0.4550045534720747
 40
0.4822747750773338
 40
0.5086273536572047
 40
0.5357483461025364
 40
0.5620371819305496
 40
0.5890823951030206
 40
0.6154822846988699
 40
0.6426408367758307
 40
0.6691559158167644
 40
0.6964429023502234
 40
0.7228971497178301
 40
0.750127013575825
 40
0.7764378125561819
 40
0.8035122914567482
 40
0.8298214481798645
 40
0.8568855945002705
 40
0.8833366608920329
 40
0.9105505642092955
 40
0.9370665387843098
 40
0.9643576437656117
 40
0.9820655895105863
 40
1.0
 40
1.0
 40
1.0
 40
1.0
 10
172.7580532204645
 20
80.76667221413437
 30
0.0
 10
172.8389484184087
 20
80.76110219722477
 30
0.0
 10
173.0030937102598
 20
80.74980001768289
 30
0.0
 10
173.2471337288993
 20
80.65889823322344
 30
0.0
 10
173.4831141433324
 20
80.51516450350414
 30
0.0
 10
173.7000404940823
 20
80.31971521289469
 30
0.0
 10
173.8944854032084
 20
80.07573337339578
 30
0.0
 10
174.0564022082408
 20
79.7935714613388
 30
0.0
 10
174.1825901952222
 20
79.476301658115
 30
0.0
 10
174.2659043630106
 20
79.13891902261034
 30
0.0
 10
174.3047635493717
 20
78.78531586655586
 30
0.0
 10
174.2972118419892
 20
78.43254922570408
 30
0.0
 10
174.2437034515961
 20
78.08383863422205
 30
0.0
 10
174.147399358721
 20
77.75499530871669
 30
0.0
 10
174.0099664233709
 20
77.44880417525735
 30
0.0
 10
173.8383800134756
 20
77.17881548954391
 30
0.0
 10
173.6354399972017
 20
76.94810532655491
 30
0.0
 10
173.4114435265701
 20
76.76757154988995
 30
0.0
 10
173.1700878328662
 20
76.63954979551487
 30
0.0
 10
172.9238052909163
 20
76.57022693272769
 30
0.0
 10
172.6757187232803
 20
76.56005217979492
 30
0.0
 10
172.4376351211039
 20
76.6090894472925
 30
0.0
 10
172.2112128320831
 20
76.71658316919832
 30
0.0
 10
172.0058451834094
 20
76.87753823107211
 30
0.0
 10
171.822444526956
 20
77.09063273379857
 30
0.0
 10
171.6681306159212
 20
77.3466952529384
 30
0.0
 10
171.5435902223489
 20
77.64314374344859
 30
0.0
 10
171.4537168687708
 20
77.96630401609228
 30
0.0
 10
171.3986475142838
 20
78.31237403720736
 30
0.0
 10
171.3803491229048
 20
78.66456416268636
 30
0.0
 10
171.3985497743861
 20
79.01935139908828
 30
0.0
 10
171.4523420219643
 20
79.36026417492242
 30
0.0
 10
171.541751125441
 20
79.68450127090799
 30
0.0
 10
171.6637163468966
 20
79.97775826105655
 30
0.0
 10
171.8183554089927
 20
80.2370561930342
 30
0.0
 10
172.0001439568213
 20
80.45037984266975
 30
0.0
 10
172.2082383223147
 20
80.61526427516903
 30
0.0
 10
172.4095091628701
 20
80.71089917163802
 30
0.0
 10
172.5951963975916
 20
80.75898171271729
 30
0.0
 10
172.7035381518815
 20
80.76409787794879
 30
0.0
 10
172.7580532204645
 20
80.76667221413437
 30
0.0
  0
LINE
  5
2E1
330
1F
100
AcDbEntity
  8
0
  6
Continuous
 62
     7
370
    25
100
AcDbLine
 10
167.5144661098
 20
76.1166722141
 30
0.0
 11
205.0144661098
 21
76.1166722141
 31
0.0
  0
LINE
  5
2E2
330
1F
100
AcDbEntity
  8
0
  6
Continuous
 62
     7
370
    25
100
AcDbLine
 10
204.2644661098
 20
75.3666722141
 30
0.0
 11
168.2644661098
 21
75.3666722141
 31
0.0
  0
SPLINE
  5
2E3
330
1F
100
AcDbEntity
  8
0
  6
Continuous
 62
     7
370
    25
100
AcDbSpline
210
0.0
220
0.0
230
1.0
 70
    11
 71
     3
 72
    66
 73
    62
 74
     0
 42
0.000000001
 43
0.00000001
 40
0.0
 40
0.0
 40
0.0
 40
0.0
 40
0.0131333911845153
 40
0.0263584260831225
 40
0.0398721630972933
 40
0.0534854588581793
 40
0.0666187577029541
 40
0.0933288028676885
 40
0.1069366456051653
 40
0.1201209811982332
 40
0.1469350800344233
 40
0.1605967853960736
 40
0.1738136554191433
 40
0.1871227614730503
 40
0.2007236305032832
 40
0.2144257172632189
 40
0.2275862103360986
 40
0.2543582349032943
 40
0.2680023370828711
 40
0.2811054579958609
 40
0.3077555443646298
 40
0.3213336969538628
 40
0.3344679244741722
 40
0.3611782028635089
 40
0.3747853664105552
 40
0.3879905091274654
 40
0.414848804718834
 40
0.4285344033556929
 40
0.4417400240813029
 40
0.4686041145079342
 40
0.4822957140922275
 40
0.4954309895728715
 40
0.5221502840324407
 40
0.5357663849558483
 40
0.5488702377473265
 40
0.5755201716696225
 40
0.5890972206934937
 40
0.6022565230437513
 40
0.6290184002277818
 40
0.6426524471140056
 40
0.6558688570830853
 40
0.6827520142869768
 40
0.696451616088412
 40
0.7096374645968601
 40
0.7364616688985602
 40
0.7501329760215477
 40
0.7632475361327771
 40
0.7899228734792768
 40
0.8035152408011486
 40
0.816629308426477
 40
0.8432988642411782
 40
0.856885277720815
 40
0.8700700163666106
 40
0.8968849626433751
 40
0.9105471233661104
 40
0.9237638594273504
 40
0.9370728343076666
 40
0.9506735741137894
 40
0.9643755272925979
 40
0.9820745880883406
 40
1.0
 40
1.0
 40
1.0
 40
1.0
 10
130.0644661098463
 20
161.0137702559419
 30
0.0
 10
130.0630873320954
 20
160.9567765846042
 30
0.0
 10
130.0603201555968
 20
160.8423915448186
 30
0.0
 10
130.0377620183075
 20
160.6702145592695
 30
0.0
 10
130.0012752824833
 20
160.4981754409281
 30
0.0
 10
129.9499542664241
 20
160.3299866731096
 30
0.0
 10
129.8633302631615
 20
160.11294210364
 30
0.0
 10
129.7495630801955
 20
159.9070146552085
 30
0.0
 10
129.6111076483736
 20
159.7174177766743
 30
0.0
 10
129.4569343742892
 20
159.5395213093676
 30
0.0
 10
129.280641455634
 20
159.3811387604304
 30
0.0
 10
129.0864381698847
 20
159.2467250862849
 30
0.0
 10
128.9330672287598
 20
159.1586106428369
 30
0.0
 10
128.7731247321588
 20
159.0836384341029
 30
0.0
 10
128.6053875458444
 20
159.0216723594182
 30
0.0
 10
128.4335414985395
 20
158.9744933565956
 30
0.0
 10
128.2013851227777
 20
158.9314342490976
 30
0.0
 10
127.9647555241196
 20
158.9178722301096
 30
0.0
 10
127.7296844220873
 20
158.9344934912202
 30
0.0
 10
127.4974049038409
 20
158.9707428890088
 30
0.0
 10
127.2707358999661
 20
159.0360020436913
 30
0.0
 10
127.0550266669182
 20
159.1289602477908
 30
0.0
 10
126.8476544840942
 20
159.2396918398887
 30
0.0
 10
126.6547725608417
 20
159.3760313633739
 30
0.0
 10
126.4812228274657
 20
159.5348843729189
 30
0.0
 10
126.3211783353797
 20
159.7079948751188
 30
0.0
 10
126.1832969599781
 20
159.9006695869702
 30
0.0
 10
126.0715767908913
 20
160.1079240519561
 30
0.0
 10
125.977759331534
 20
160.32354182798
 30
0.0
 10
125.9116184004584
 20
160.5498461813492
 30
0.0
 10
125.8752848682515
 20
160.7807846586066
 30
0.0
 10
125.8587491832456
 20
161.0129279322404
 30
0.0
 10
125.871807524618
 20
161.245502617388
 30
0.0
 10
125.9144281011447
 20
161.4727964255997
 30
0.0
 10
125.976158259852
 20
161.6950854566656
 30
0.0
 10
126.0659900088183
 20
161.90833917083
 30
0.0
 10
126.1821341590968
 20
162.107594899631
 30
0.0
 10
126.31517833759
 20
162.2967489038065
 30
0.0
 10
126.4723093544859
 20
162.4687808279346
 30
0.0
 10
126.6499370331037
 20
162.6193010862236
 30
0.0
 10
126.8403822459784
 20
162.7549684748237
 30
0.0
 10
127.0481729882185
 20
162.8668609746235
 30
0.0
 10
127.2679178498234
 20
162.9517260309858
 30
0.0
 10
127.4940472919776
 20
163.018285405521
 30
0.0
 10
127.7280836201967
 20
163.0569976202169
 30
0.0
 10
127.9639354412339
 20
163.066571628435
 30
0.0
 10
128.1991066847083
 20
163.0570071241507
 30
0.0
 10
128.4319107541752
 20
163.0189975688518
 30
0.0
 10
128.6567700940591
 20
162.9531296619452
 30
0.0
 10
128.8750524491839
 20
162.8692936709411
 30
0.0
 10
129.0816741278162
 20
162.7591898392097
 30
0.0
 10
129.271640038487
 20
162.6249781808096
 30
0.0
 10
129.4498089179091
 20
162.4752723576944
 30
0.0
 10
129.6082157399382
 20
162.3037340033514
 30
0.0
 10
129.742463213718
 20
162.1143786772529
 30
0.0
 10
129.8304003514965
 20
161.9646290738993
 30
0.0
 10
129.9051457433037
 20
161.808242242845
 30
0.0
 10
129.96697546706
 20
161.6439780071915
 30
0.0
 10
130.0189547638472
 20
161.4565492266185
 30
0.0
 10
130.0568079426065
 20
161.245959983312
 30
0.0
 10
130.0619025972779
 20
161.0914939809204
 30
0.0
 10
130.0644661098463
 20
161.0137702559419
 30
0.0
  0
SPLINE
  5
2E4
330
1F
100
AcDbEntity
  8
0
  6
Continuous
 62
     7
370
    25
100
AcDbSpline
210
0.0
220
0.0
230
1.0
 70
    11
 71
     3
 72
    26
 73
    22
 74
     0
 42
0.000000001
 43
0.00000001
 40
0.0
 40
0.0
 40
0.0
 40
0.0
 40
0.0534601751351939
 40
0.1069123401768129
 40
0.1605728564583304
 40
0.2143749610407137
 40
0.2679488047953187
 40
0.3212804345606112
 40
0.3747337621564352
 40
0.4284820805386291
 40
0.4822401898939231
 40
0.535708979441975
 40
0.5890409224759464
 40
0.6425973520441078
 40
0.6963947282425653
 40
0.7500728388891579
 40
0.8034542870099803
 40
0.8568259596906288
 40
0.9104881633857758
 40
0.9642897398709482
 40
1.0
 40
1.0
 40
1.0
 40
1.0
 10
130.0644661098463
 20
139.3826717295189
 30
0.0
 10
130.0413962722076
 20
139.3457931595863
 30
0.0
 10
129.9952600535509
 20
139.2720415453446
 30
0.0
 10
129.6357837666179
 20
139.203282431086
 30
0.0
 10
129.1052391280697
 20
139.1637549562257
 30
0.0
 10
128.4405023826533
 20
139.1471344461886
 30
0.0
 10
127.7241349012766
 20
139.1450340848209
 30
0.0
 10
127.0364817891952
 20
139.1562486820152
 30
0.0
 10
126.4525719103361
 20
139.1866213143008
 30
0.0
 10
126.0366500753717
 20
139.2456472840975
 30
0.0
 10
125.8376940584892
 20
139.3395190690071
 30
0.0
 10
125.8783953357692
 20
139.4643500787183
 30
0.0
 10
126.152064698553
 20
139.6044027691289
 30
0.0
 10
126.6286347804808
 20
139.7352030629513
 30
0.0
 10
127.2569095867507
 20
139.8288637332191
 30
0.0
 10
127.9651657303236
 20
139.8627432785492
 30
0.0
 10
128.6710080296153
 20
139.8288054442204
 30
0.0
 10
129.2979615537139
 20
139.7356779513813
 30
0.0
 10
129.7734011862161
 20
139.6052632729909
 30
0.0
 10
130.0279014638327
 20
139.4789768200434
 30
0.0
 10
130.0540387727019
 20
139.4101355711557
 30
0.0
 10
130.0644661098463
 20
139.3826717295189
 30
0.0
  0
LINE
  5
2E5
330
1F
100
AcDbEntity
  8
0
  6
Continuous
 62
     7
370
    25
100
AcDbLine
 10
130.5144661098
 20
161.0137702559
 30
0.0
 11
130.5144661098
 21
176.6166722141
 31
0.0
  0
LINE
  5
2E6
330
1F
100
AcDbEntity
  8
0
  6
Continuous
 62
     7
370
    25
100
AcDbLine
 10
130.5144661098
 20
139.1166722141
 30
0.0
 11
130.5144661098
 21
161.0137702559
 31
0.0
  0
LINE
  5
2E7
330
1F
100
AcDbEntity
  8
0
  6
Continuous
 62
     7
370
    25
100
AcDbLine
 10
131.2644661098
 20
160.8878863343
 30
0.0
 11
131.2644661098
 21
139.8666722141
 31
0.0
  0
LINE
  5
2E8
330
1F
100
AcDbEntity
  8
0
  6
Continuous
 62
     7
370
    25
100
AcDbLine
 10
131.2644661098
 20
175.8666722141
 30
0.0
 11
131.2644661098
 21
160.8878863343
 31
0.0
  0
ARC
  5
2E9
330
1F
100
AcDbEntity
  8
0
  6
Continuous
 62
     7
370
    25
100
AcDbCircle
 10
127.9644144991
 20
160.1464857654
 30
0.0
 40
2.103888078930157
100
AcDbArc
 50
9.7854556134
 51
169.8920196107
  0
ARC
  5
2EA
330
1F
100
AcDbEntity
  8
0
  6
Continuous
 62
     7
370
    25
100
AcDbCircle
 10
223.6932547845
 20
99.566686492
 30
0.0
 40
18.79646473106098
100
AcDbArc
 50
173.5853873985
 51
186.401763517
  0
SPLINE
  5
2EB
330
1F
100
AcDbEntity
  8
0
  6
Continuous
 62
     7
370
    25
100
AcDbSpline
210
0.0
220
0.0
230
1.0
 70
     8
 71
     3
 72
    37
 73
    33
 74
     0
 42
0.000000001
 43
0.00000001
 40
0.0
 40
0.0
 40
0.0
 40
0.0
 40
0.0174798939640537
 40
0.0443180529396588
 40
0.0715494643877152
 40
0.1242892119611516
 40
0.1510560585822409
 40
0.1782093684981427
 40
0.2311716689795162
 40
0.2580508229537404
 40
0.2853181252856864
 40
0.3385139840162757
 40
0.3655165640912158
 40
0.3929149724481926
 40
0.4459901640829539
 40
0.4729343980993186
 40
0.5002762187418743
 40
0.5530616929978911
 40
0.5798551281842738
 40
0.607039073806961
 40
0.659819092842133
 40
0.6866053347714869
 40
0.7137773730553121
 40
0.7668430122744883
 40
0.7937759109942959
 40
0.821099439367285
 40
0.8475321442736627
 40
0.8741493214638368
 40
0.901350011568999
 40
0.9287531225442198
 40
0.9641502167258997
 40
0.9999999999999999
 40
0.9999999999999999
 40
0.9999999999999999
 40
0.9999999999999999
 10
167.5151837841937
 20
101.6602496644621
 30
0.0
 10
167.5149637421635
 20
101.6622204846783
 30
0.0
 10
167.5144058535197
 20
101.6672172492385
 30
0.0
 10
167.5165866876977
 20
101.6477074902765
 30
0.0
 10
167.5211096005415
 20
101.606734787368
 30
0.0
 10
167.5288943698523
 20
101.5345961683494
 30
0.0
 10
167.5389254515792
 20
101.4363096485726
 30
0.0
 10
167.5502905222472
 20
101.320052578194
 30
0.0
 10
167.5631478668971
 20
101.178368757415
 30
0.0
 10
167.5764009371078
 20
101.0147091712007
 30
0.0
 10
167.5895766676418
 20
100.836911198093
 30
0.0
 10
167.6020586626247
 20
100.639830863377
 30
0.0
 10
167.6127629554475
 20
100.4283074014199
 30
0.0
 10
167.6219573818142
 20
100.2086984168111
 30
0.0
 10
167.6285137629646
 20
99.97878985102557
 30
0.0
 10
167.6318744785336
 20
99.74435455630874
 30
0.0
 10
167.6329984987522
 20
99.5088236473191
 30
0.0
 10
167.6307487065468
 20
99.27320596850291
 30
0.0
 10
167.6253543992555
 20
99.04333889711891
 30
0.0
 10
167.6180009626602
 20
98.81847084297746
 30
0.0
 10
167.6080199450415
 20
98.60306386655961
 30
0.0
 10
167.5962857700243
 20
98.40231319749546
 30
0.0
 10
167.5836623379232
 20
98.21206232263307
 30
0.0
 10
167.5702537085711
 20
98.0397534897396
 30
0.0
 10
167.5572145733168
 20
97.88958994950366
 30
0.0
 10
167.5478726848436
 20
97.78866450533093
 30
0.0
 10
167.539294250639
 20
97.7007407937612
 30
0.0
 10
167.5316820422619
 20
97.6259918046525
 30
0.0
 10
167.5251607206287
 20
97.56416306662899
 30
0.0
 10
167.5195283152955
 20
97.5121834855334
 30
0.0
 10
167.5153264863883
 20
97.47433040226655
 30
0.0
 10
167.5147541142749
 20
97.46923573369654
 30
0.0
 10
167.5144661098465
 20
97.46667221413455
 30
0.0
  0
SPLINE
  5
2EC
330
1F
100
AcDbEntity
  8
0
  6
Continuous
 62
     7
370
    25
100
AcDbSpline
210
0.0
220
0.0
230
1.0
 70
    11
 71
     3
 72
    45
 73
    41
 74
     0
 42
0.000000001
 43
0.00000001
 40
0.0
 40
0.0
 40
0.0
 40
0.0
 40
0.0263487683894928
 40
0.0534645613969619
 40
0.0798125043145002
 40
0.1069189459928431
 40
0.1333692010609511
 40
0.1605822117466255
 40
0.187098452216482
 40
0.2143898188214617
 40
0.2407931508992875
 40
0.2679692428088211
 40
0.2942568362450913
 40
0.3213037294225664
 40
0.3476532650916392
 40
0.3747586645228443
 40
0.4012508899783547
 40
0.4285107111897003
 40
0.4550045534720749
 40
0.4822747750773336
 40
0.5086273536572049
 40
0.5357483461025362
 40
0.5620371819305495
 40
0.5890823951030203
 40
0.6154822846988696
 40
0.6426408367758311
 40
0.6691559158167643
 40
0.6964429023502232
 40
0.72289714971783
 40
0.7501270135758248
 40
0.7764378125561816
 40
0.803512291456748
 40
0.8298214481798643
 40
0.8568855945002701
 40
0.8833366608920326
 40
0.9105505642092951
 40
0.9370665387843096
 40
0.9643576437656115
 40
0.982065589510586
 40
1.0
 40
1.0
 40
1.0
 40
1.0
 10
186.2644661098469
 20
97.46667221413455
 30
0.0
 10
186.1484906130544
 20
97.47224223104415
 30
0.0
 10
185.9131635200705
 20
97.48354441058603
 30
0.0
 10
185.5716951763215
 20
97.57444619504548
 30
0.0
 10
185.2469157256256
 20
97.71817992476478
 30
0.0
 10
184.9533473206592
 20
97.91362921537421
 30
0.0
 10
184.693957099036
 20
98.15761105487314
 30
0.0
 10
184.4806133205113
 20
98.43977296693012
 30
0.0
 10
184.3159505298377
 20
98.75704277015392
 30
0.0
 10
184.2079977788986
 20
99.09442540565858
 30
0.0
 10
184.1578465546857
 20
99.44802856171306
 30
0.0
 10
184.167582138485
 20
99.80079520256483
 30
0.0
 10
184.2367080410907
 20
100.1495057940469
 30
0.0
 10
184.3617330112543
 20
100.4783491195522
 30
0.0
 10
184.5415623972982
 20
100.7845402530116
 30
0.0
 10
184.7684416381962
 20
101.054528938725
 30
0.0
 10
185.0402949553944
 20
101.285239101714
 30
0.0
 10
185.3449410180049
 20
101.465772878379
 30
0.0
 10
185.6788473532665
 20
101.593794632754
 30
0.0
 10
186.0259209080917
 20
101.6631174955412
 30
0.0
 10
186.3823956184759
 20
101.673292248474
 30
0.0
 10
186.7313539517472
 20
101.6242549809764
 30
0.0
 10
187.0698352360794
 20
101.5167612590706
 30
0.0
 10
187.382766342317
 20
101.3558061971968
 30
0.0
 10
187.6672662365634
 20
101.1427116944703
 30
0.0
 10
187.9105505354702
 20
100.8866491753305
 30
0.0
 10
188.1096111387706
 20
100.5902006848203
 30
0.0
 10
188.2548447232445
 20
100.2670404121766
 30
0.0
 10
188.344501254098
 20
99.92097039106154
 30
0.0
 10
188.3744092513148
 20
99.56878026558257
 30
0.0
 10
188.344663216804
 20
99.21399302918063
 30
0.0
 10
188.2570749993895
 20
98.87308025334649
 30
0.0
 10
188.1125793599245
 20
98.54884315736093
 30
0.0
 10
187.9175629679901
 20
98.25558616721236
 30
0.0
 10
187.6736672941684
 20
97.99628823523473
 30
0.0
 10
187.3915290872032
 20
97.78296458559917
 30
0.0
 10
187.0742919808155
 20
97.61808015309992
 30
0.0
 10
186.7734053435134
 20
97.52244525663093
 30
0.0
 10
186.5001566042729
 20
97.47436271555165
 30
0.0
 10
186.3433616896657
 20
97.46924655032014
 30
0.0
 10
186.2644661098469
 20
97.46667221413455
 30
0.0
  0
LINE
  5
2ED
330
1F
100
AcDbEntity
  8
0
  6
Continuous
 62
     7
370
    25
100
AcDbLine
 10
205.0144661098
 20
102.1166722141
 30
0.0
 11
167.5144661098
 21
102.1166722141
 31
0.0
  0
LINE
  5
2EE
330
1F
100
AcDbEntity
  8
0
  6
Continuous
 62
     7
370
    25
100
AcDbLine
 10
168.2644661098
 20
102.8666722141
 30
0.0
 11
204.2644661098
 21
102.8666722141
 31
0.0
  0
ARC
  5
2EF
330
1F
100
AcDbEntity
  8
0
  6
Continuous
 62
     7
370
    25
100
AcDbCircle
 10
129.2644661098
 20
100.8666722141
 30
0.0
 40
10.00000000000001
100
AcDbArc
 50
180.0
 51
270.0
  0
LINE
  5
2F0
330
1F
100
AcDbEntity
  8
0
  6
Continuous
 62
     7
370
    25
100
AcDbLine
 10
119.2644661098
 20
178.8666722141
 30
0.0
 11
119.2644661098
 21
100.8666722141
 31
0.0
  0
LINE
  5
2F1
330
1F
100
AcDbEntity
  8
0
  6
Continuous
 62
     7
370
    25
100
AcDbLine
 10
124.2644661098
 20
178.8666722141
 30
0.0
 11
119.2644661098
 21
178.8666722141
 31
0.0
  0
LINE
  5
2F2
330
1F
100
AcDbEntity
  8
0
  6
Continuous
 62
     7
370
    25
100
AcDbLine
 10
124.2644661098
 20
100.8666722141
 30
0.0
 11
124.2644661098
 21
178.8666722141
 31
0.0
  0
ARC
  5
2F3
330
1F
100
AcDbEntity
  8
0
  6
Continuous
 62
     7
370
    25
100
AcDbCircle
 10
129.2644661098
 20
100.8666722141
 30
0.0
 40
4.999999999999986
100
AcDbArc
 50
180.0
 51
270.0
  0
LINE
  5
2F4
330
1F
100
AcDbEntity
  8
0
  6
Continuous
 62
     7
370
    25
100
AcDbLine
 10
207.2644661098
 20
95.8666722141
 30
0.0
 11
129.2644661098
 21
95.8666722141
 31
0.0
  0
LINE
  5
2F5
330
1F
100
AcDbEntity
  8
0
  6
Continuous
 62
     7
370
    25
100
AcDbLine
 10
207.2644661098
 20
90.8666722141
 30
0.0
 11
207.2644661098
 21
95.8666722141
 31
0.0
  0
LINE
  5
2F6
330
1F
100
AcDbEntity
  8
0
  6
Continuous
 62
     7
370
    25
100
AcDbLine
 10
129.2644661098
 20
90.8666722141
 30
0.0
 11
207.2644661098
 21
90.8666722141
 31
0.0
  0
LINE
  5
2F7
330
1F
100
AcDbEntity
  8
0
  6
Continuous
 62
     7
370
    25
100
AcDbLine
 10
124.2644661098
 20
178.8666722141
 30
0.0
 11
125.2644661098
 21
178.8666722141
 31
0.0
  0
LINE
  5
2F8
330
1F
100
AcDbEntity
  8
0
  6
Continuous
 62
     7
370
    25
100
AcDbLine
 10
125.2644661098
 20
178.8666722141
 30
0.0
 11
125.2644661098
 21
100.8666722141
 31
0.0
  0
LINE
  5
2F9
330
1F
100
AcDbEntity
  8
0
  6
Continuous
 62
     7
370
    25
100
AcDbLine
 10
124.2644661098
 20
100.8666722141
 30
0.0
 11
125.2644661098
 21
100.8666722141
 31
0.0
  0
LINE
  5
2FA
330
1F
100
AcDbEntity
  8
0
  6
Continuous
 62
     7
370
    25
100
AcDbLine
 10
124.2644661098
 20
179.8666722141
 30
0.0
 11
125.2644661098
 21
178.8666722141
 31
0.0
  0
LINE
  5
2FB
330
1F
100
AcDbEntity
  8
0
  6
Continuous
 62
     7
370
    25
100
AcDbLine
 10
124.2644661098
 20
179.8666722141
 30
0.0
 11
124.2644661098
 21
178.8666722141
 31
0.0
  0
LINE
  5
2FC
330
1F
100
AcDbEntity
  8
0
  6
Continuous
 62
     7
370
    25
100
AcDbLine
 10
119.2644661098
 20
179.8666722141
 30
0.0
 11
124.2644661098
 21
179.8666722141
 31
0.0
  0
LINE
  5
2FD
330
1F
100
AcDbEntity
  8
0
  6
Continuous
 62
     7
370
    25
100
AcDbLine
 10
119.2644661098
 20
178.8666722141
 30
0.0
 11
119.2644661098
 21
179.8666722141
 31
0.0
  0
ARC
  5
2FE
330
1F
100
AcDbEntity
  8
0
  6
Continuous
 62
     7
370
    25
100
AcDbCircle
 10
129.2644661098
 20
100.8666722141
 30
0.0
 40
4.000000000000014
100
AcDbArc
 50
180.0
 51
270.0
  0
LINE
  5
2FF
330
1F
100
AcDbEntity
  8
0
  6
Continuous
 62
     7
370
    25
100
AcDbLine
 10
129.2644661098
 20
95.8666722141
 30
0.0
 11
129.2644661098
 21
96.8666722141
 31
0.0
  0
LINE
  5
300
330
1F
100
AcDbEntity
  8
0
  6
Continuous
 62
     7
370
    25
100
AcDbLine
 10
207.2644661098
 20
95.8666722141
 30
0.0
 11
208.2644661098
 21
95.8666722141
 31
0.0
  0
LINE
  5
301
330
1F
100
AcDbEntity
  8
0
  6
Continuous
 62
     7
370
    25
100
AcDbLine
 10
208.2644661098
 20
95.8666722141
 30
0.0
 11
208.2644661098
 21
90.8666722141
 31
0.0
  0
LINE
  5
302
330
1F
100
AcDbEntity
  8
0
  6
Continuous
 62
     7
370
    25
100
AcDbLine
 10
208.2644661098
 20
90.8666722141
 30
0.0
 11
207.2644661098
 21
90.8666722141
 31
0.0
  0
LINE
  5
303
330
1F
100
AcDbEntity
  8
0
  6
Continuous
 62
     7
370
    25
100
AcDbLine
 10
207.2644661098
 20
95.8666722141
 30
0.0
 11
207.2644661098
 21
96.8666722141
 31
0.0
  0
LINE
  5
304
330
1F
100
AcDbEntity
  8
0
  6
Continuous
 62
     7
370
    25
100
AcDbLine
 10
208.2644661098
 20
95.8666722141
 30
0.0
 11
207.2644661098
 21
96.8666722141
 31
0.0
  0
LINE
  5
305
330
1F
100
AcDbEntity
  8
0
  6
Continuous
 62
     7
370
    25
100
AcDbLine
 10
129.2644661098
 20
96.8666722141
 30
0.0
 11
207.2644661098
 21
96.8666722141
 31
0.0
  0
DIMENSION
  5
306
330
1F
100
AcDbEntity
  8
0
100
AcDbDimension
  2
_D_1
 10
177.3144661098
 20
118.324336939
 30
0.0
 11
186.2644661098
 21
118.324336939
 31
0.0
 70
   160
  1
%%c<>
 71
     2
 42
-1.0
  3
SLDDIMSTYLE1
100
AcDbAlignedDimension
 13
195.2144661098
 23
89.8666722141
 33
0.0
 14
177.3144661098
 24
89.8666722141
 34
0.0
100
AcDbRotatedDimension
  0
DIMENSION
  5
31E
330
1F
100
AcDbEntity
  8
0
100
AcDbDimension
  2
_D_2
 10
153.2551645262
 20
148.9166722141
 30
0.0
 11
153.2551645262
 21
157.8666722141
 31
0.0
 70
   160
  1
%%c<>
 71
     2
 42
-1.0
  3
SLDDIMSTYLE1
100
AcDbAlignedDimension
 13
118.2644661098
 23
166.8166722141
 33
0.0
 14
118.2644661098
 24
148.9166722141
 34
0.0
 50
90.0
100
AcDbRotatedDimension
  0
DIMENSION
  5
335
330
1F
100
AcDbEntity
  8
0
100
AcDbDimension
  2
_D_3
 10
97.6811251175
 20
89.8666722141
 30
0.0
 11
97.6811251175
 21
123.8666722141
 31
0.0
 70
   160
  1
<>
 71
     2
 42
-1.0
  3
SLDDIMSTYLE0
100
AcDbAlignedDimension
 13
108.7644661098
 23
157.8666722141
 33
0.0
 14
168.7644661098
 24
89.8666722141
 34
0.0
 50
90.0
100
AcDbRotatedDimension
  0
DIMENSION
  5
34C
330
1F
100
AcDbEntity
  8
0
100
AcDbDimension
  2
_D_4
 10
118.2644661098
 20
65.3666722141
 30
0.0
 11
152.2644661098
 21
65.3666722141
 31
0.0
 70
   160
  1
<>
 71
     2
 42
-1.0
  3
SLDDIMSTYLE0
100
AcDbAlignedDimension
 13
186.2644661098
 23
80.3666722141
 33
0.0
 14
118.2644661098
 24
140.3666722141
 34
0.0
100
AcDbRotatedDimension
  0
LINE
  5
363
330
1F
100
AcDbEntity
  8
0
  6
CENTERX2
370
    18
100
AcDbLine
 10
186.2644661098
 20
80.3666722141
 30
0.0
 11
186.2644661098
 21
91.8666722141
 31
0.0
  0
LINE
  5
364
330
1F
100
AcDbEntity
  8
0
  6
CENTERX2
370
    18
100
AcDbLine
 10
108.7644661098
 20
157.8666722141
 30
0.0
 11
120.2644661098
 21
157.8666722141
 31
0.0
  0
ENDSEC
  0
SECTION
  2
OBJECTS
  0
DICTIONARY
  5
C
330
0
100
AcDbDictionary
281
     1
  3
ACAD_GROUP
350
D
  3
ACAD_LAYOUT
350
1A
  3
ACAD_MLINESTYLE
350
17
  3
ACAD_PLOTSETTINGS
350
19
  3
ACAD_PLOTSTYLENAME
350
E
  3
ACAD_SCALELIST
350
47
  0
DICTIONARY
  5
D
102
{ACAD_REACTORS
330
C
102
}
330
C
100
AcDbDictionary
281
     1
  0
DICTIONARY
  5
1A
102
{ACAD_REACTORS
330
C
102
}
330
C
100
AcDbDictionary
281
     1
  3
Layout1
350
1E
  3
Layout2
350
26
  3
Model
350
22
  0
DICTIONARY
  5
17
102
{ACAD_REACTORS
330
C
102
}
330
C
100
AcDbDictionary
281
     1
  3
Standard
350
18
  0
DICTIONARY
  5
19
102
{ACAD_REACTORS
330
C
102
}
330
C
100
AcDbDictionary
281
     1
  0
ACDBDICTIONARYWDFLT
  5
E
102
{ACAD_REACTORS
330
C
102
}
330
C
100
AcDbDictionary
281
     1
  3
Normal
350
F
100
AcDbDictionaryWithDefault
340
F
  0
DICTIONARY
  5
47
102
{ACAD_REACTORS
330
C
102
}
330
C
100
AcDbDictionary
281
     1
  3
A0
350
48
  3
A1
350
49
  3
A2
350
4A
  3
A3
350
4B
  3
A4
350
4C
  3
A5
350
4D
  3
A6
350
4E
  3
A7
350
4F
  3
A8
350
50
  3
A9
350
51
  3
B0
350
52
  3
B1
350
53
  3
B2
350
54
  3
B3
350
55
  3
B4
350
56
  3
B5
350
57
  3
B6
350
58
  3
B7
350
59
  3
B8
350
5A
  3
B9
350
5B
  3
C0
350
5C
  3
C1
350
5D
  3
C2
350
5E
  3
C3
350
5F
  3
C4
350
60
  3
C5
350
61
  3
C6
350
62
  3
C7
350
63
  3
C8
350
64
  3
C9
350
65
  3
D0
350
66
  3
D1
350
67
  3
D2
350
68
  0
LAYOUT
  5
1E
102
{ACAD_REACTORS
330
1A
102
}
330
1A
100
AcDbPlotSettings
  1

  2
none_device
  4

  6

 40
0.0
 41
0.0
 42
0.0
 43
0.0
 44
0.0
 45
0.0
 46
0.0
 47
0.0
 48
0.0
 49
0.0
140
0.0
141
0.0
142
1.0
143
1.0
 70
   688
 72
     1
 73
     0
 74
     5
  7

 75
    16
147
1.0
148
0.0
149
0.0
100
AcDbLayout
  1
Layout1
 70
     1
 71
     1
 10
0.0
 20
0.0
 11
420.0
 21
297.0
 12
0.0
 22
0.0
 32
0.0
 14
1.0000000000E+20
 24
1.0000000000E+20
 34
1.0000000000E+20
 15
-1.0000000000E+20
 25
-1.0000000000E+20
 35
-1.0000000000E+20
146
0.0
 13
0.0
 23
0.0
 33
0.0
 16
1.0
 26
0.0
 36
0.0
 17
0.0
 27
1.0
 37
0.0
 76
     0
330
1B
  0
LAYOUT
  5
26
102
{ACAD_REACTORS
330
1A
102
}
330
1A
100
AcDbPlotSettings
  1

  2
none_device
  4

  6

 40
0.0
 41
0.0
 42
0.0
 43
0.0
 44
0.0
 45
0.0
 46
0.0
 47
0.0
 48
0.0
 49
0.0
140
0.0
141
0.0
142
1.0
143
1.0
 70
   688
 72
     1
 73
     0
 74
     5
  7

 75
    16
147
1.0
148
0.0
149
0.0
100
AcDbLayout
  1
Layout2
 70
     1
 71
     2
 10
0.0
 20
0.0
 11
0.0
 21
0.0
 12
0.0
 22
0.0
 32
0.0
 14
0.0
 24
0.0
 34
0.0
 15
0.0
 25
0.0
 35
0.0
146
0.0
 13
0.0
 23
0.0
 33
0.0
 16
1.0
 26
0.0
 36
0.0
 17
0.0
 27
1.0
 37
0.0
 76
     0
330
23
  0
LAYOUT
  5
22
102
{ACAD_REACTORS
330
1A
102
}
330
1A
100
AcDbPlotSettings
  1

  2
none_device
  4
Letter_(8.50_x_11.00_Inches)
  6

 40
6.35
 41
6.35
 42
6.35000508
 43
6.35000508
 44
215.9
 45
279.4
 46
0.0
 47
0.0
 48
0.0
 49
0.0
140
0.0
141
0.0
142
1.0
143
1.0
 70
  1712
 72
     1
 73
     0
 74
     0
  7

 75
     0
147
1.0
148
0.0
149
0.0
100
AcDbLayout
  1
Model
 70
     1
 71
     0
 10
0.0
 20
0.0
 11
431.8
 21
279.4
 12
0.0
 22
0.0
 32
0.0
 14
0.0
 24
0.0
 34
0.0
 15
431.8
 25
279.4
 35
0.0
146
0.0
 13
0.0
 23
0.0
 33
0.0
 16
1.0
 26
0.0
 36
0.0
 17
0.0
 27
1.0
 37
0.0
 76
     0
330
1F
331
29
  0
MLINESTYLE
  5
18
102
{ACAD_REACTORS
330
17
102
}
330
17
100
AcDbMlineStyle
  2
Standard
 70
     0
  3

 62
   256
 51
90.0
 52
90.0
 71
     2
 49
0.5
 62
   256
  6
BYLAYER
 49
-0.5
 62
   256
  6
BYLAYER
  0
ACDBPLACEHOLDER
  5
F
102
{ACAD_REACTORS
330
E
102
}
330
E
  0
SCALE
  5
48
102
{ACAD_REACTORS
330
47
102
}
330
47
100
AcDbScale
 70
     0
300
1:1
140
1.0
141
1.0
290
     1
  0
SCALE
  5
49
102
{ACAD_REACTORS
330
47
102
}
330
47
100
AcDbScale
 70
     0
300
1:2
140
1.0
141
2.0
290
     0
  0
SCALE
  5
4A
102
{ACAD_REACTORS
330
47
102
}
330
47
100
AcDbScale
 70
     0
300
1:4
140
1.0
141
4.0
290
     0
  0
SCALE
  5
4B
102
{ACAD_REACTORS
330
47
102
}
330
47
100
AcDbScale
 70
     0
300
1:5
140
1.0
141
5.0
290
     0
  0
SCALE
  5
4C
102
{ACAD_REACTORS
330
47
102
}
330
47
100
AcDbScale
 70
     0
300
1:8
140
1.0
141
8.0
290
     0
  0
SCALE
  5
4D
102
{ACAD_REACTORS
330
47
102
}
330
47
100
AcDbScale
 70
     0
300
1:10
140
1.0
141
10.0
290
     0
  0
SCALE
  5
4E
102
{ACAD_REACTORS
330
47
102
}
330
47
100
AcDbScale
 70
     0
300
1:16
140
1.0
141
16.0
290
     0
  0
SCALE
  5
4F
102
{ACAD_REACTORS
330
47
102
}
330
47
100
AcDbScale
 70
     0
300
1:20
140
1.0
141
20.0
290
     0
  0
SCALE
  5
50
102
{ACAD_REACTORS
330
47
102
}
330
47
100
AcDbScale
 70
     0
300
1:30
140
1.0
141
30.0
290
     0
  0
SCALE
  5
51
102
{ACAD_REACTORS
330
47
102
}
330
47
100
AcDbScale
 70
     0
300
1:40
140
1.0
141
40.0
290
     0
  0
SCALE
  5
52
102
{ACAD_REACTORS
330
47
102
}
330
47
100
AcDbScale
 70
     0
300
1:50
140
1.0
141
50.0
290
     0
  0
SCALE
  5
53
102
{ACAD_REACTORS
330
47
102
}
330
47
100
AcDbScale
 70
     0
300
1:100
140
1.0
141
100.0
290
     0
  0
SCALE
  5
54
102
{ACAD_REACTORS
330
47
102
}
330
47
100
AcDbScale
 70
     0
300
2:1
140
2.0
141
1.0
290
     0
  0
SCALE
  5
55
102
{ACAD_REACTORS
330
47
102
}
330
47
100
AcDbScale
 70
     0
300
4:1
140
4.0
141
1.0
290
     0
  0
SCALE
  5
56
102
{ACAD_REACTORS
330
47
102
}
330
47
100
AcDbScale
 70
     0
300
8:1
140
8.0
141
1.0
290
     0
  0
SCALE
  5
57
102
{ACAD_REACTORS
330
47
102
}
330
47
100
AcDbScale
 70
     0
300
10:1
140
10.0
141
1.0
290
     0
  0
SCALE
  5
58
102
{ACAD_REACTORS
330
47
102
}
330
47
100
AcDbScale
 70
     0
300
100:1
140
100.0
141
1.0
290
     0
  0
SCALE
  5
59
102
{ACAD_REACTORS
330
47
102
}
330
47
100
AcDbScale
 70
     0
300
1/128" = 1'-0"
140
0.0078125
141
12.0
290
     0
  0
SCALE
  5
5A
102
{ACAD_REACTORS
330
47
102
}
330
47
100
AcDbScale
 70
     0
300
1/64" = 1'-0"
140
0.015625
141
12.0
290
     0
  0
SCALE
  5
5B
102
{ACAD_REACTORS
330
47
102
}
330
47
100
AcDbScale
 70
     0
300
1/32" = 1'-0"
140
0.03125
141
12.0
290
     0
  0
SCALE
  5
5C
102
{ACAD_REACTORS
330
47
102
}
330
47
100
AcDbScale
 70
     0
300
1/16" = 1'-0"
140
0.0625
141
12.0
290
     0
  0
SCALE
  5
5D
102
{ACAD_REACTORS
330
47
102
}
330
47
100
AcDbScale
 70
     0
300
3/32" = 1'-0"
140
0.09375
141
12.0
290
     0
  0
SCALE
  5
5E
102
{ACAD_REACTORS
330
47
102
}
330
47
100
AcDbScale
 70
     0
300
1/8" = 1'-0"
140
0.125
141
12.0
290
     0
  0
SCALE
  5
5F
102
{ACAD_REACTORS
330
47
102
}
330
47
100
AcDbScale
 70
     0
300
3/16" = 1'-0"
140
0.1875
141
12.0
290
     0
  0
SCALE
  5
60
102
{ACAD_REACTORS
330
47
102
}
330
47
100
AcDbScale
 70
     0
300
1/4" = 1'-0"
140
0.25
141
12.0
290
     0
  0
SCALE
  5
61
102
{ACAD_REACTORS
330
47
102
}
330
47
100
AcDbScale
 70
     0
300
3/8" = 1'-0"
140
0.375
141
12.0
290
     0
  0
SCALE
  5
62
102
{ACAD_REACTORS
330
47
102
}
330
47
100
AcDbScale
 70
     0
300
1/2" = 1'-0"
140
0.5
141
12.0
290
     0
  0
SCALE
  5
63
102
{ACAD_REACTORS
330
47
102
}
330
47
100
AcDbScale
 70
     0
300
3/4" = 1'-0"
140
0.75
141
12.0
290
     0
  0
SCALE
  5
64
102
{ACAD_REACTORS
330
47
102
}
330
47
100
AcDbScale
 70
     0
300
1" = 1'-0"
140
1.0
141
12.0
290
     0
  0
SCALE
  5
65
102
{ACAD_REACTORS
330
47
102
}
330
47
100
AcDbScale
 70
     0
300
1-1/2" = 1'-0"
140
1.5
141
12.0
290
     0
  0
SCALE
  5
66
102
{ACAD_REACTORS
330
47
102
}
330
47
100
AcDbScale
 70
     0
300
3" = 1'-0"
140
3.0
141
12.0
290
     0
  0
SCALE
  5
67
102
{ACAD_REACTORS
330
47
102
}
330
47
100
AcDbScale
 70
     0
300
6" = 1'-0"
140
6.0
141
12.0
290
     0
  0
SCALE
  5
68
102
{ACAD_REACTORS
330
47
102
}
330
47
100
AcDbScale
 70
     0
300
1'-0" = 1'-0"
140
12.0
141
12.0
290
     0
  0
ENDSEC
  0
EOF
