  0
SECTION
  2
HEADER
  9
$ACADVER
  1
AC1015
  9
$ACADMAINTVER
 70
     6
  9
$DWGCODEPAGE
  3
ANSI_1252
  9
$INSBASE
 10
0.0
 20
0.0
 30
0.0
  9
$EXTMIN
 10
0.0
 20
0.0
 30
0.0
  9
$EXTMAX
 10
431.8
 20
279.4
 30
0.0
  9
$LIMMIN
 10
0.0
 20
0.0
  9
$LIMMAX
 10
431.8
 20
279.4
  9
$ORTHOMODE
 70
     0
  9
$REGENMODE
 70
     1
  9
$FILLMODE
 70
     1
  9
$QTEXTMODE
 70
     0
  9
$MIRRTEXT
 70
     1
  9
$LTSCALE
 40
1.0
  9
$ATTMODE
 70
     1
  9
$TEXTSIZE
 40
3.0
  9
$TRACEWID
 40
1.0
  9
$TEXTSTYLE
  7
Standard
  9
$CLAYER
  8
0
  9
$CELTYPE
  6
ByLayer
  9
$CECOLOR
 62
   256
  9
$CELTSCALE
 40
1.0
  9
$DISPSILH
 70
     0
  9
$DIMSCALE
 40
1.0
  9
$DIMASZ
 40
3.0
  9
$DIMEXO
 40
1.0
  9
$DIMDLI
 40
3.75
  9
$DIMRND
 40
0.0
  9
$DIMDLE
 40
0.0
  9
$DIMEXE
 40
1.0
  9
$DIMTP
 40
0.0
  9
$DIMTM
 40
0.0
  9
$DIMTXT
 40
3.0
  9
$DIMCEN
 40
2.5
  9
$DIMTSZ
 40
0.0
  9
$DIMTOL
 70
     0
  9
$DIMLIM
 70
     0
  9
$DIMTIH
 70
     1
  9
$DIMTOH
 70
     1
  9
$DIMSE1
 70
     0
  9
$DIMSE2
 70
     0
  9
$DIMTAD
 70
     1
  9
$DIMZIN
 70
     0
  9
$DIMBLK
  1

  9
$DIMASO
 70
     1
  9
$DIMSHO
 70
     1
  9
$DIMPOST
  1

  9
$DIMAPOST
  1

  9
$DIMALT
 70
     0
  9
$DIMALTD
 70
     3
  9
$DIMALTF
 40
0.0393700787
  9
$DIMLFAC
 40
1.0
  9
$DIMTOFL
 70
     1
  9
$DIMTVP
 40
0.0
  9
$DIMTIX
 70
     0
  9
$DIMSOXD
 70
     0
  9
$DIMSAH
 70
     0
  9
$DIMBLK1
  1

  9
$DIMBLK2
  1

  9
$DIMSTYLE
  2
ISO-25
  9
$DIMCLRD
 70
     0
  9
$DIMCLRE
 70
     0
  9
$DIMCLRT
 70
     0
  9
$DIMTFAC
 40
1.0
  9
$DIMGAP
 40
1.0
  9
$DIMJUST
 70
     0
  9
$DIMSD1
 70
     0
  9
$DIMSD2
 70
     0
  9
$DIMTOLJ
 70
     0
  9
$DIMTZIN
 70
     0
  9
$DIMALTZ
 70
     0
  9
$DIMALTTZ
 70
     0
  9
$DIMUPT
 70
     0
  9
$DIMDEC
 70
     1
  9
$DIMTDEC
 70
     1
  9
$DIMALTU
 70
     2
  9
$DIMALTTD
 70
     3
  9
$DIMTXSTY
  7
Standard
  9
$DIMAUNIT
 70
     0
  9
$DIMADEC
 70
     0
  9
$DIMALTRND
 40
0.0
  9
$DIMAZIN
 70
     0
  9
$DIMDSEP
 70
    44
  9
$DIMATFIT
 70
     3
  9
$DIMFRAC
 70
     0
  9
$DIMLDRBLK
  1

  9
$DIMLUNIT
 70
     2
  9
$DIMLWD
 70
    -2
  9
$DIMLWE
 70
    -2
  9
$DIMTMOVE
 70
     0
  9
$LUNITS
 70
     2
  9
$LUPREC
 70
     4
  9
$SKETCHINC
 40
1.0
  9
$FILLETRAD
 40
10.0
  9
$AUNITS
 70
     0
  9
$AUPREC
 70
     0
  9
$MENU
  1
.
  9
$ELEVATION
 40
0.0
  9
$PELEVATION
 40
0.0
  9
$THICKNESS
 40
0.0
  9
$LIMCHECK
 70
     0
  9
$CHAMFERA
 40
0.0
  9
$CHAMFERB
 40
0.0
  9
$CHAMFERC
 40
0.0
  9
$CHAMFERD
 40
0.0
  9
$SKPOLY
 70
     0
  9
$TDCREATE
 40
2459900.664581308
  9
$TDUCREATE
 40
2459900.622914641
  9
$TDUPDATE
 40
2459900.664582894
  9
$TDUUPDATE
 40
2459900.622916227
  9
$TDINDWG
 40
0.0000000116
  9
$TDUSRTIMER
 40
0.0000000116
  9
$USRTIMER
 70
     1
  9
$ANGBASE
 50
0.0
  9
$ANGDIR
 70
     0
  9
$PDMODE
 70
     0
  9
$PDSIZE
 40
-1.0
  9
$PLINEWID
 40
0.0
  9
$SPLFRAME
 70
     0
  9
$SPLINETYPE
 70
     6
  9
$SPLINESEGS
 70
     8
  9
$HANDSEED
  5
315
  9
$SURFTAB1
 70
     6
  9
$SURFTAB2
 70
     6
  9
$SURFTYPE
 70
     6
  9
$SURFU
 70
     6
  9
$SURFV
 70
     6
  9
$UCSBASE
  2

  9
$UCSNAME
  2

  9
$UCSORG
 10
0.0
 20
0.0
 30
0.0
  9
$UCSXDIR
 10
1.0
 20
0.0
 30
0.0
  9
$UCSYDIR
 10
0.0
 20
1.0
 30
0.0
  9
$UCSORTHOREF
  2

  9
$UCSORTHOVIEW
 70
     0
  9
$UCSORGTOP
 10
0.0
 20
0.0
 30
0.0
  9
$UCSORGBOTTOM
 10
0.0
 20
0.0
 30
0.0
  9
$UCSORGLEFT
 10
0.0
 20
0.0
 30
0.0
  9
$UCSORGRIGHT
 10
0.0
 20
0.0
 30
0.0
  9
$UCSORGFRONT
 10
0.0
 20
0.0
 30
0.0
  9
$UCSORGBACK
 10
0.0
 20
0.0
 30
0.0
  9
$PUCSBASE
  2

  9
$PUCSNAME
  2

  9
$PUCSORG
 10
0.0
 20
0.0
 30
0.0
  9
$PUCSXDIR
 10
1.0
 20
0.0
 30
0.0
  9
$PUCSYDIR
 10
0.0
 20
1.0
 30
0.0
  9
$PUCSORTHOREF
  2

  9
$PUCSORTHOVIEW
 70
     0
  9
$PUCSORGTOP
 10
0.0
 20
0.0
 30
0.0
  9
$PUCSORGBOTTOM
 10
0.0
 20
0.0
 30
0.0
  9
$PUCSORGLEFT
 10
0.0
 20
0.0
 30
0.0
  9
$PUCSORGRIGHT
 10
0.0
 20
0.0
 30
0.0
  9
$PUCSORGFRONT
 10
0.0
 20
0.0
 30
0.0
  9
$PUCSORGBACK
 10
0.0
 20
0.0
 30
0.0
  9
$USERI1
 70
     0
  9
$USERI2
 70
     0
  9
$USERI3
 70
     0
  9
$USERI4
 70
     0
  9
$USERI5
 70
     0
  9
$USERR1
 40
0.0
  9
$USERR2
 40
0.0
  9
$USERR3
 40
0.0
  9
$USERR4
 40
0.0
  9
$USERR5
 40
0.0
  9
$WORLDVIEW
 70
     1
  9
$SHADEDGE
 70
     3
  9
$SHADEDIF
 70
    70
  9
$TILEMODE
 70
     1
  9
$MAXACTVP
 70
    64
  9
$PINSBASE
 10
0.0
 20
0.0
 30
0.0
  9
$PLIMCHECK
 70
     0
  9
$PEXTMIN
 10
1.0000000000E+20
 20
1.0000000000E+20
 30
1.0000000000E+20
  9
$PEXTMAX
 10
-1.0000000000E+20
 20
-1.0000000000E+20
 30
-1.0000000000E+20
  9
$PLIMMIN
 10
0.0
 20
0.0
  9
$PLIMMAX
 10
420.0
 20
297.0
  9
$UNITMODE
 70
     0
  9
$VISRETAIN
 70
     1
  9
$PLINEGEN
 70
     0
  9
$PSLTSCALE
 70
     1
  9
$TREEDEPTH
 70
  3020
  9
$CMLSTYLE
  2
Standard
  9
$CMLJUST
 70
     0
  9
$CMLSCALE
 40
20.0
  9
$PROXYGRAPHICS
 70
     1
  9
$MEASUREMENT
 70
     1
  9
$CELWEIGHT
370
    -1
  9
$ENDCAPS
280
     0
  9
$JOINSTYLE
280
     0
  9
$LWDISPLAY
290
     1
  9
$INSUNITS
 70
     4
  9
$HYPERLINKBASE
  1

  9
$STYLESHEET
  1

  9
$XEDIT
290
     1
  9
$CEPSNTYPE
380
     0
  9
$PSTYLEMODE
290
     1
  9
$FINGERPRINTGUID
  2
{4b7c3d3f-8d17-4fb3-8885-3eb6b4c315a4}
  9
$VERSIONGUID
  2
{FAEB1C32-E019-11D5-929B-00C0DF256EC4}
  9
$EXTNAMES
290
     1
  9
$PSVPSCALE
 40
0.0
  9
$OLESTARTUP
290
     0
  0
ENDSEC
  0
SECTION
  2
CLASSES
  0
CLASS
  1
ACDBDICTIONARYWDFLT
  2
AcDbDictionaryWithDefault
  3
ObjectDBX Classes
 90
        0
280
     0
281
     0
  0
CLASS
  1
VISUALSTYLE
  2
AcDbVisualStyle
  3
ObjectDBX Classes
 90
     4095
280
     0
281
     0
  0
CLASS
  1
MATERIAL
  2
AcDbMaterial
  3
ObjectDBX Classes
 90
     1153
280
     0
281
     0
  0
CLASS
  1
SCALE
  2
AcDbScale
  3
ObjectDBX Classes
 90
     1153
280
     0
281
     0
  0
CLASS
  1
TABLESTYLE
  2
AcDbTableStyle
  3
ObjectDBX Classes
 90
     4095
280
     0
281
     0
  0
CLASS
  1
MLEADERSTYLE
  2
AcDbMLeaderStyle
  3
ACDB_MLEADERSTYLE_CLASS
 90
     4095
280
     0
281
     0
  0
CLASS
  1
SUN
  2
AcDbSun
  3
SCENEOE
 90
     1153
280
     0
281
     0
  0
CLASS
  1
ACDBPLACEHOLDER
  2
AcDbPlaceHolder
  3
ObjectDBX Classes
 90
        0
280
     0
281
     0
  0
CLASS
  1
LAYOUT
  2
AcDbLayout
  3
ObjectDBX Classes
 90
        0
280
     0
281
     0
  0
ENDSEC
  0
SECTION
  2
TABLES
  0
TABLE
  2
VPORT
  5
8
330
0
100
AcDbSymbolTable
 70
     1
  0
VPORT
  5
29
330
8
100
AcDbSymbolTableRecord
100
AcDbViewportTableRecord
  2
*Active
 70
     0
 10
0.0
 20
0.0
 11
1.0
 21
1.0
 12
215.9
 22
139.7
 13
0.0
 23
0.0
 14
10.0
 24
10.0
 15
10.0
 25
10.0
 16
0.0
 26
0.0
 36
1.0
 17
0.0
 27
0.0
 37
0.0
 40
279.4
 41
1.5454545455
 42
50.0
 43
0.0
 44
0.0
 50
0.0
 51
0.0
 71
     0
 72
  2000
 73
     1
 74
     3
 75
     0
 76
     0
 77
     0
 78
     0
281
     0
 65
     1
110
0.0
120
0.0
130
0.0
111
1.0
121
0.0
131
0.0
112
0.0
122
1.0
132
0.0
 79
     0
146
0.0
  0
ENDTAB
  0
TABLE
  2
LTYPE
  5
5
330
0
100
AcDbSymbolTable
 70
     6
  0
LTYPE
  5
14
330
5
100
AcDbSymbolTableRecord
100
AcDbLinetypeTableRecord
  2
ByBlock
 70
     0
  3

 72
    65
 73
     0
 40
0.0
  0
LTYPE
  5
15
330
5
100
AcDbSymbolTableRecord
100
AcDbLinetypeTableRecord
  2
ByLayer
 70
     0
  3

 72
    65
 73
     0
 40
0.0
  0
LTYPE
  5
16
330
5
100
AcDbSymbolTableRecord
100
AcDbLinetypeTableRecord
  2
Continuous
 70
     0
  3
Solid line
 72
    65
 73
     0
 40
0.0
  0
LTYPE
  5
6E
330
5
100
AcDbSymbolTableRecord
100
AcDbLinetypeTableRecord
  2
HIDDEN
 70
     0
  3
Hidden __ __ __ __ __ __ __ __ __ __ __ __ __ __
 72
    65
 73
     2
 40
1.905
 49
1.27
 74
     0
 49
-0.635
 74
     0
  0
LTYPE
  5
6F
330
5
100
AcDbSymbolTableRecord
100
AcDbLinetypeTableRecord
  2
PHANTOM
 70
     0
  3
Phantom ______  __  __  ______  __  __  ______
 72
    65
 73
     6
 40
12.7
 49
6.35
 74
     0
 49
-1.27
 74
     0
 49
1.27
 74
     0
 49
-1.27
 74
     0
 49
1.27
 74
     0
 49
-1.27
 74
     0
  0
LTYPE
  5
70
330
5
100
AcDbSymbolTableRecord
100
AcDbLinetypeTableRecord
  2
CENTER
 70
     0
  3
Center ____ _ ____ _ ____ _ ____ _ ____ _ ____
 72
    65
 73
     4
 40
10.16
 49
6.35
 74
     0
 49
-1.27
 74
     0
 49
1.27
 74
     0
 49
-1.27
 74
     0
  0
LTYPE
  5
71
330
5
100
AcDbSymbolTableRecord
100
AcDbLinetypeTableRecord
  2
CENTERX2
 70
     0
  3
Center (2x) ________  __  ________  __  _____
 72
    65
 73
     4
 40
20.32
 49
12.7
 74
     0
 49
-2.54
 74
     0
 49
2.54
 74
     0
 49
-2.54
 74
     0
  0
LTYPE
  5
72
330
5
100
AcDbSymbolTableRecord
100
AcDbLinetypeTableRecord
  2
DOT2
 70
     0
  3
Dot (.5x) ........................................
 72
    65
 73
     2
 40
0.635
 49
0.0
 74
     0
 49
-0.635
 74
     0
  0
ENDTAB
  0
TABLE
  2
LAYER
  5
2
330
0
100
AcDbSymbolTable
 70
     1
  0
LAYER
  5
10
330
2
100
AcDbSymbolTableRecord
100
AcDbLayerTableRecord
  2
0
 70
     0
 62
     7
  6
Continuous
370
    -3
390
F
  0
ENDTAB
  0
TABLE
  2
STYLE
  5
3
330
0
100
AcDbSymbolTable
 70
     3
  0
STYLE
  5
11
330
3
100
AcDbSymbolTableRecord
100
AcDbTextStyleTableRecord
  2
Standard
 70
     0
 40
0.0
 41
1.0
 50
0.0
 71
     0
 42
3.0
  3
txt
  4

  0
STYLE
  5
9E
330
3
100
AcDbSymbolTableRecord
100
AcDbTextStyleTableRecord
  2
SLDTEXTSTYLE0
 70
     0
 40
0.0
 41
0.605
 50
0.0
 71
     0
 42
3.0
  3
TXT
  4

  0
STYLE
  5
180
330
3
100
AcDbSymbolTableRecord
100
AcDbTextStyleTableRecord
  2
SLDTEXTSTYLE1
 70
     0
 40
0.0
 41
0.75
 50
0.0
 71
     0
 42
3.0
  3
TXT
  4

  0
ENDTAB
  0
TABLE
  2
VIEW
  5
6
330
0
100
AcDbSymbolTable
 70
     0
  0
ENDTAB
  0
TABLE
  2
UCS
  5
7
330
0
100
AcDbSymbolTable
 70
     0
  0
ENDTAB
  0
TABLE
  2
APPID
  5
9
330
0
100
AcDbSymbolTable
 70
     1
  0
APPID
  5
12
330
9
100
AcDbSymbolTableRecord
100
AcDbRegAppTableRecord
  2
ACAD
 70
     0
  0
ENDTAB
  0
TABLE
  2
DIMSTYLE
  5
A
330
0
100
AcDbSymbolTable
 70
     2
100
AcDbDimStyleTable
  0
DIMSTYLE
105
27
330
A
100
AcDbSymbolTableRecord
100
AcDbDimStyleTableRecord
  2
ISO-25
 70
     0
 41
2.5
 42
0.625
 43
3.75
 44
1.25
 73
     0
 74
     0
 77
     1
 78
     8
140
2.5
141
2.5
143
0.0393700787
147
0.625
171
     3
172
     1
178
     0
271
     2
272
     2
274
     3
278
    44
283
     0
284
     8
340
11
  0
DIMSTYLE
105
30A
102
{ACAD_REACTORS
330
309
102
}
330
A
100
AcDbSymbolTableRecord
100
AcDbDimStyleTableRecord
  2
SLDDIMSTYLE0
 70
     0
 41
3.0
 44
0.0
 45
0.000000001
 78
    12
 79
     3
140
3.0
147
0.75
173
     1
178
     0
271
     1
272
     1
276
     2
284
    12
340
9E
  0
ENDTAB
  0
TABLE
  2
BLOCK_RECORD
  5
1
330
0
100
AcDbSymbolTable
 70
    28
  0
BLOCK_RECORD
  5
1F
330
1
100
AcDbSymbolTableRecord
100
AcDbBlockTableRecord
  2
*Model_Space
340
22
  0
BLOCK_RECORD
  5
1B
330
1
100
AcDbSymbolTableRecord
100
AcDbBlockTableRecord
  2
*Paper_Space
340
1E
  0
BLOCK_RECORD
  5
23
330
1
100
AcDbSymbolTableRecord
100
AcDbBlockTableRecord
  2
*Paper_Space0
340
26
  0
BLOCK_RECORD
  5
73
330
1
100
AcDbSymbolTableRecord
100
AcDbBlockTableRecord
  2
Projektion
340
0
  0
BLOCK_RECORD
  5
7D
330
1
100
AcDbSymbolTableRecord
100
AcDbBlockTableRecord
  2
Block5
340
0
102
{BLKREFS
331
17F
102
}
  0
BLOCK_RECORD
  5
94
330
1
100
AcDbSymbolTableRecord
100
AcDbBlockTableRecord
  2
SW_BLOCK_DIMENSION_0
340
0
102
{BLKREFS
331
A0
102
}
  0
BLOCK_RECORD
  5
97
330
1
100
AcDbSymbolTableRecord
100
AcDbBlockTableRecord
  2
_Origin
340
0
102
{BLKREFS
331
9C
331
10C
102
}
  0
BLOCK_RECORD
  5
A1
330
1
100
AcDbSymbolTableRecord
100
AcDbBlockTableRecord
  2
SW_BLOCK_DIMENSION_1
340
0
102
{BLKREFS
331
A8
102
}
  0
BLOCK_RECORD
  5
A9
330
1
100
AcDbSymbolTableRecord
100
AcDbBlockTableRecord
  2
SW_BLOCK_DIMENSION_2
340
0
102
{BLKREFS
331
B0
102
}
  0
BLOCK_RECORD
  5
B1
330
1
100
AcDbSymbolTableRecord
100
AcDbBlockTableRecord
  2
SW_BLOCK_DIMENSION_3
340
0
102
{BLKREFS
331
B8
102
}
  0
BLOCK_RECORD
  5
B9
330
1
100
AcDbSymbolTableRecord
100
AcDbBlockTableRecord
  2
SW_BLOCK_DIMENSION_4
340
0
102
{BLKREFS
331
C0
102
}
  0
BLOCK_RECORD
  5
C1
330
1
100
AcDbSymbolTableRecord
100
AcDbBlockTableRecord
  2
SW_BLOCK_DIMENSION_5
340
0
102
{BLKREFS
331
C8
102
}
  0
BLOCK_RECORD
  5
C9
330
1
100
AcDbSymbolTableRecord
100
AcDbBlockTableRecord
  2
SW_BLOCK_DIMENSION_6
340
0
102
{BLKREFS
331
D0
102
}
  0
BLOCK_RECORD
  5
D1
330
1
100
AcDbSymbolTableRecord
100
AcDbBlockTableRecord
  2
SW_BLOCK_DIMENSION_7
340
0
102
{BLKREFS
331
D8
102
}
  0
BLOCK_RECORD
  5
D9
330
1
100
AcDbSymbolTableRecord
100
AcDbBlockTableRecord
  2
SW_BLOCK_DIMENSION_8
340
0
102
{BLKREFS
331
E0
102
}
  0
BLOCK_RECORD
  5
E1
330
1
100
AcDbSymbolTableRecord
100
AcDbBlockTableRecord
  2
SW_BLOCK_DIMENSION_9
340
0
102
{BLKREFS
331
E8
102
}
  0
BLOCK_RECORD
  5
E9
330
1
100
AcDbSymbolTableRecord
100
AcDbBlockTableRecord
  2
SW_BLOCK_DIMENSION_10
340
0
102
{BLKREFS
331
F0
102
}
  0
BLOCK_RECORD
  5
F1
330
1
100
AcDbSymbolTableRecord
100
AcDbBlockTableRecord
  2
SW_BLOCK_DIMENSION_11
340
0
102
{BLKREFS
331
F8
102
}
  0
BLOCK_RECORD
  5
F9
330
1
100
AcDbSymbolTableRecord
100
AcDbBlockTableRecord
  2
SW_BLOCK_DIMENSION_12
340
0
102
{BLKREFS
331
100
102
}
  0
BLOCK_RECORD
  5
101
330
1
100
AcDbSymbolTableRecord
100
AcDbBlockTableRecord
  2
SW_BLOCK_DIMENSION_13
340
0
102
{BLKREFS
331
108
102
}
  0
BLOCK_RECORD
  5
109
330
1
100
AcDbSymbolTableRecord
100
AcDbBlockTableRecord
  2
SW_BLOCK_DIMENSION_14
340
0
102
{BLKREFS
331
118
102
}
  0
BLOCK_RECORD
  5
119
330
1
100
AcDbSymbolTableRecord
100
AcDbBlockTableRecord
  2
SW_BLOCK_DIMENSION_15
340
0
102
{BLKREFS
331
129
102
}
  0
BLOCK_RECORD
  5
12A
330
1
100
AcDbSymbolTableRecord
100
AcDbBlockTableRecord
  2
SW_BLOCK_DIMENSION_16
340
0
102
{BLKREFS
331
13A
102
}
  0
BLOCK_RECORD
  5
13B
330
1
100
AcDbSymbolTableRecord
100
AcDbBlockTableRecord
  2
SW_BLOCK_DIMENSION_17
340
0
102
{BLKREFS
331
14B
102
}
  0
BLOCK_RECORD
  5
14C
330
1
100
AcDbSymbolTableRecord
100
AcDbBlockTableRecord
  2
SW_BLOCK_DIMENSION_18
340
0
102
{BLKREFS
331
15C
102
}
  0
BLOCK_RECORD
  5
15D
330
1
100
AcDbSymbolTableRecord
100
AcDbBlockTableRecord
  2
SW_BLOCK_DIMENSION_19
340
0
102
{BLKREFS
331
16D
102
}
  0
BLOCK_RECORD
  5
16E
330
1
100
AcDbSymbolTableRecord
100
AcDbBlockTableRecord
  2
SW_NOTE_0
340
0
102
{BLKREFS
331
173
102
}
  0
BLOCK_RECORD
  5
174
330
1
100
AcDbSymbolTableRecord
100
AcDbBlockTableRecord
  2
SW_NOTE_0_1
340
0
102
{BLKREFS
331
178
102
}
  0
BLOCK_RECORD
  5
183
330
1
100
AcDbSymbolTableRecord
100
AcDbBlockTableRecord
  2
SW_NOTE_0_2
340
0
102
{BLKREFS
331
18A
102
}
  0
BLOCK_RECORD
  5
30B
330
1
100
AcDbSymbolTableRecord
100
AcDbBlockTableRecord
  2
_D
340
0
  0
ENDTAB
  0
ENDSEC
  0
SECTION
  2
BLOCKS
  0
BLOCK
  5
20
330
1F
100
AcDbEntity
  8
0
100
AcDbBlockBegin
  2
*Model_Space
 70
     0
 10
0.0
 20
0.0
 30
0.0
  3
*Model_Space
  1

  0
ENDBLK
  5
21
330
1F
100
AcDbEntity
  8
0
100
AcDbBlockEnd
  0
BLOCK
  5
1C
330
1B
100
AcDbEntity
 67
     1
  8
0
100
AcDbBlockBegin
  2
*Paper_Space
 70
     0
 10
0.0
 20
0.0
 30
0.0
  3
*Paper_Space
  1

  0
ENDBLK
  5
1D
330
1B
100
AcDbEntity
 67
     1
  8
0
100
AcDbBlockEnd
  0
BLOCK
  5
24
330
23
100
AcDbEntity
  8
0
100
AcDbBlockBegin
  2
*Paper_Space0
 70
     0
 10
0.0
 20
0.0
 30
0.0
  3
*Paper_Space0
  1

  0
ENDBLK
  5
25
330
23
100
AcDbEntity
  8
0
100
AcDbBlockEnd
  0
BLOCK
  5
74
330
73
100
AcDbEntity
  8
0
100
AcDbBlockBegin
  2
Projektion
 70
     0
 10
0.0
 20
0.0
 30
0.0
  3
Projektion
  1

  0
CIRCLE
  5
76
330
73
100
AcDbEntity
  8
0
  6
Continuous
 62
     7
370
    18
100
AcDbCircle
 10
174.3600996763
 20
116.0271411334
 30
0.0
 40
3.403359543179178
  0
CIRCLE
  5
77
330
73
100
AcDbEntity
  8
0
  6
Continuous
 62
     7
370
    18
100
AcDbCircle
 10
174.3600996763
 20
116.0271411334
 30
0.0
 40
6.87995547039705
  0
LINE
  5
78
330
73
100
AcDbEntity
  8
0
  6
Continuous
 62
     7
370
    18
100
AcDbLine
 10
135.2082544366
 20
119.4271411334
 30
0.0
 11
135.2082544366
 21
112.6271411334
 31
0.0
  0
LINE
  5
79
330
73
100
AcDbEntity
  8
0
  6
Continuous
 62
     7
370
    18
100
AcDbLine
 10
135.2082544366
 20
112.6271411334
 30
0.0
 11
157.5294737026
 21
109.1471411334
 31
0.0
  0
LINE
  5
7A
330
73
100
AcDbEntity
  8
0
  6
Continuous
 62
     7
370
    18
100
AcDbLine
 10
157.5294737026
 20
109.1471411334
 30
0.0
 11
157.5294737026
 21
122.9071411334
 31
0.0
  0
LINE
  5
7B
330
73
100
AcDbEntity
  8
0
  6
Continuous
 62
     7
370
    18
100
AcDbLine
 10
157.5294737026
 20
122.9071411334
 30
0.0
 11
135.2082544366
 21
119.4271411334
 31
0.0
  0
LINE
  5
7C
330
73
100
AcDbEntity
  8
0
  6
CENTERX2
 62
     7
370
    18
100
AcDbLine
 10
164.5632959991
 20
116.0271411334
 30
0.0
 11
132.3261221773
 21
116.0271411334
 31
0.0
  0
ENDBLK
  5
75
330
73
100
AcDbEntity
  8
0
100
AcDbBlockEnd
  0
BLOCK
  5
7E
330
7D
100
AcDbEntity
  8
0
100
AcDbBlockBegin
  2
Block5
 70
     0
 10
0.0
 20
0.0
 30
0.0
  3
Block5
  1

  0
LINE
  5
80
330
7D
100
AcDbEntity
  8
0
100
AcDbLine
 10
363.6834285714
 20
41.3579706949
 30
0.0
 11
388.6834285714
 21
41.3579706949
 31
0.0
  0
LINE
  5
81
330
7D
100
AcDbEntity
  8
0
100
AcDbLine
 10
374.9034285714
 20
41.3579706949
 30
0.0
 11
374.9034285714
 21
171.3579706949
 31
0.0
  0
LINE
  5
82
330
7D
100
AcDbEntity
  8
0
100
AcDbLine
 10
374.9034285714
 20
51.3579706949
 30
0.0
 11
384.9034285714
 21
51.3579706949
 31
0.0
  0
LINE
  5
83
330
7D
100
AcDbEntity
  8
0
100
AcDbLine
 10
374.9034285714
 20
61.3579706949
 30
0.0
 11
384.9034285714
 21
61.3579706949
 31
0.0
  0
LINE
  5
84
330
7D
100
AcDbEntity
  8
0
100
AcDbLine
 10
374.9034285714
 20
71.3579706949
 30
0.0
 11
384.9034285714
 21
71.3579706949
 31
0.0
  0
LINE
  5
85
330
7D
100
AcDbEntity
  8
0
100
AcDbLine
 10
374.9034285714
 20
81.3579706949
 30
0.0
 11
384.9034285714
 21
81.3579706949
 31
0.0
  0
LINE
  5
86
330
7D
100
AcDbEntity
  8
0
100
AcDbLine
 10
374.9034285714
 20
91.3579706949
 30
0.0
 11
384.9034285714
 21
91.3579706949
 31
0.0
  0
LINE
  5
87
330
7D
100
AcDbEntity
  8
0
100
AcDbLine
 10
374.9034285714
 20
101.3579706949
 30
0.0
 11
384.9034285714
 21
101.3579706949
 31
0.0
  0
LINE
  5
88
330
7D
100
AcDbEntity
  8
0
100
AcDbLine
 10
374.9034285714
 20
111.3579706949
 30
0.0
 11
384.9034285714
 21
111.3579706949
 31
0.0
  0
LINE
  5
89
330
7D
100
AcDbEntity
  8
0
100
AcDbLine
 10
374.9034285714
 20
121.3579706949
 30
0.0
 11
384.9034285714
 21
121.3579706949
 31
0.0
  0
LINE
  5
8A
330
7D
100
AcDbEntity
  8
0
100
AcDbLine
 10
374.9034285714
 20
131.3579706949
 30
0.0
 11
384.9034285714
 21
131.3579706949
 31
0.0
  0
LINE
  5
8B
330
7D
100
AcDbEntity
  8
0
100
AcDbLine
 10
374.9034285714
 20
141.3579706949
 30
0.0
 11
384.9034285714
 21
141.3579706949
 31
0.0
  0
LINE
  5
8C
330
7D
100
AcDbEntity
  8
0
100
AcDbLine
 10
374.9034285714
 20
151.3579706949
 30
0.0
 11
384.9034285714
 21
151.3579706949
 31
0.0
  0
LINE
  5
8D
330
7D
100
AcDbEntity
  8
0
100
AcDbLine
 10
374.9034285714
 20
161.3579706949
 30
0.0
 11
384.9034285714
 21
161.3579706949
 31
0.0
  0
LINE
  5
8E
330
7D
100
AcDbEntity
  8
0
100
AcDbLine
 10
374.9034285714
 20
171.3579706949
 30
0.0
 11
384.9034285714
 21
171.3579706949
 31
0.0
  0
LINE
  5
8F
330
7D
100
AcDbEntity
  8
0
100
AcDbLine
 10
374.9034285714
 20
66.7579706949
 30
0.0
 11
362.9034285714
 21
66.7579706949
 31
0.0
  0
LINE
  5
90
330
7D
100
AcDbEntity
  8
0
100
AcDbLine
 10
374.9034285714
 20
92.1579706949
 30
0.0
 11
362.9034285714
 21
92.1579706949
 31
0.0
  0
LINE
  5
91
330
7D
100
AcDbEntity
  8
0
100
AcDbLine
 10
374.9034285714
 20
117.5579706949
 30
0.0
 11
362.9034285714
 21
117.5579706949
 31
0.0
  0
LINE
  5
92
330
7D
100
AcDbEntity
  8
0
100
AcDbLine
 10
374.9034285714
 20
142.9579706949
 30
0.0
 11
362.9034285714
 21
142.9579706949
 31
0.0
  0
LINE
  5
93
330
7D
100
AcDbEntity
  8
0
100
AcDbLine
 10
374.9034285714
 20
168.3579706949
 30
0.0
 11
362.9034285714
 21
168.3579706949
 31
0.0
  0
INSERT
  5
A0
330
7D
100
AcDbEntity
  8
0
100
AcDbBlockReference
  2
SW_BLOCK_DIMENSION_0
 10
397.2096946378
 20
38.9914197296
 30
0.0
  0
INSERT
  5
A8
330
7D
100
AcDbEntity
  8
0
100
AcDbBlockReference
  2
SW_BLOCK_DIMENSION_1
 10
397.2096946378
 20
48.9914197296
 30
0.0
  0
INSERT
  5
B0
330
7D
100
AcDbEntity
  8
0
100
AcDbBlockReference
  2
SW_BLOCK_DIMENSION_2
 10
397.2096946378
 20
58.9914197296
 30
0.0
  0
INSERT
  5
B8
330
7D
100
AcDbEntity
  8
0
100
AcDbBlockReference
  2
SW_BLOCK_DIMENSION_3
 10
397.2096946378
 20
68.9914197296
 30
0.0
  0
INSERT
  5
C0
330
7D
100
AcDbEntity
  8
0
100
AcDbBlockReference
  2
SW_BLOCK_DIMENSION_4
 10
397.2096946378
 20
78.9914197296
 30
0.0
  0
INSERT
  5
C8
330
7D
100
AcDbEntity
  8
0
100
AcDbBlockReference
  2
SW_BLOCK_DIMENSION_5
 10
397.2096946378
 20
88.9914197296
 30
0.0
  0
INSERT
  5
D0
330
7D
100
AcDbEntity
  8
0
100
AcDbBlockReference
  2
SW_BLOCK_DIMENSION_6
 10
397.2096946378
 20
98.9914197296
 30
0.0
  0
INSERT
  5
D8
330
7D
100
AcDbEntity
  8
0
100
AcDbBlockReference
  2
SW_BLOCK_DIMENSION_7
 10
397.2096946378
 20
108.9914197296
 30
0.0
  0
INSERT
  5
E0
330
7D
100
AcDbEntity
  8
0
100
AcDbBlockReference
  2
SW_BLOCK_DIMENSION_8
 10
397.2096946378
 20
118.9914197296
 30
0.0
  0
INSERT
  5
E8
330
7D
100
AcDbEntity
  8
0
100
AcDbBlockReference
  2
SW_BLOCK_DIMENSION_9
 10
397.2096946378
 20
128.9914197296
 30
0.0
  0
INSERT
  5
F0
330
7D
100
AcDbEntity
  8
0
100
AcDbBlockReference
  2
SW_BLOCK_DIMENSION_10
 10
397.2096946378
 20
138.9914197296
 30
0.0
  0
INSERT
  5
F8
330
7D
100
AcDbEntity
  8
0
100
AcDbBlockReference
  2
SW_BLOCK_DIMENSION_11
 10
397.2096946378
 20
148.9914197296
 30
0.0
  0
INSERT
  5
100
330
7D
100
AcDbEntity
  8
0
100
AcDbBlockReference
  2
SW_BLOCK_DIMENSION_12
 10
397.2096946378
 20
158.9914197296
 30
0.0
  0
INSERT
  5
108
330
7D
100
AcDbEntity
  8
0
100
AcDbBlockReference
  2
SW_BLOCK_DIMENSION_13
 10
397.2096946378
 20
168.9914197296
 30
0.0
  0
INSERT
  5
118
330
7D
100
AcDbEntity
  8
0
100
AcDbBlockReference
  2
SW_BLOCK_DIMENSION_14
 10
341.1734707322
 20
36.1691980072
 30
0.0
  0
INSERT
  5
129
330
7D
100
AcDbEntity
  8
0
100
AcDbBlockReference
  2
SW_BLOCK_DIMENSION_15
 10
341.1734707322
 20
61.5691980072
 30
0.0
  0
INSERT
  5
13A
330
7D
100
AcDbEntity
  8
0
100
AcDbBlockReference
  2
SW_BLOCK_DIMENSION_16
 10
341.1734707322
 20
86.9691980072
 30
0.0
  0
INSERT
  5
14B
330
7D
100
AcDbEntity
  8
0
100
AcDbBlockReference
  2
SW_BLOCK_DIMENSION_17
 10
341.1734707322
 20
112.3691980072
 30
0.0
  0
INSERT
  5
15C
330
7D
100
AcDbEntity
  8
0
100
AcDbBlockReference
  2
SW_BLOCK_DIMENSION_18
 10
339.1802765097
 20
137.7691980072
 30
0.0
  0
INSERT
  5
16D
330
7D
100
AcDbEntity
  8
0
100
AcDbBlockReference
  2
SW_BLOCK_DIMENSION_19
 10
341.1734707322
 20
163.1691980072
 30
0.0
  0
INSERT
  5
173
330
7D
100
AcDbEntity
  8
0
 62
     7
100
AcDbBlockReference
  2
SW_NOTE_0
 10
337.5586028241
 20
28.8175207347
 30
0.0
  0
INSERT
  5
178
330
7D
100
AcDbEntity
  8
0
 62
     7
100
AcDbBlockReference
  2
SW_NOTE_0_1
 10
393.160738319
 20
28.8175207347
 30
0.0
  0
ENDBLK
  5
7F
330
7D
100
AcDbEntity
  8
0
100
AcDbBlockEnd
  0
BLOCK
  5
95
330
94
100
AcDbEntity
  8
0
100
AcDbBlockBegin
  2
SW_BLOCK_DIMENSION_0
 70
     0
 10
0.0
 20
0.0
 30
0.0
  3
SW_BLOCK_DIMENSION_0
  1

  0
INSERT
  5
9C
330
94
100
AcDbEntity
  8
0
 62
     0
100
AcDbBlockReference
  2
_Origin
 10
-0.9230769231
 20
2.3665509652
 30
0.0
 41
0.9483022837
 42
0.9483022837
 50
0.0
  0
LINE
  5
9D
330
94
100
AcDbEntity
  8
0
 62
     0
100
AcDbLine
 10
-7.5262660664
 20
2.3665509652
 30
0.0
 11
0.0
 21
2.3665509652
 31
0.0
  0
MTEXT
  5
9F
330
94
100
AcDbEntity
  8
0
 62
     0
100
AcDbMText
 10
0.0
 20
4.0927900738
 30
0.0
 40
3.175
 41
0.0
 71
     1
 72
     1
  1
0
  7
SLDTEXTSTYLE0
 73
     1
 44
1.0
  0
ENDBLK
  5
96
330
94
100
AcDbEntity
  8
0
100
AcDbBlockEnd
  0
BLOCK
  5
98
330
97
100
AcDbEntity
  8
0
100
AcDbBlockBegin
  2
_Origin
 70
     0
 10
0.0
 20
0.0
 30
0.0
  3
_Origin
  1

  0
CIRCLE
  5
9A
330
97
100
AcDbEntity
  8
0
  6
ByBlock
 62
     0
370
    -2
100
AcDbCircle
 10
0.0
 20
0.0
 30
0.0
 40
0.5
  0
LINE
  5
9B
330
97
100
AcDbEntity
  8
0
  6
ByBlock
 62
     0
370
    -2
100
AcDbLine
 10
0.0
 20
0.0
 30
0.0
 11
-1.0
 21
0.0
 31
0.0
  0
ENDBLK
  5
99
330
97
100
AcDbEntity
  8
0
100
AcDbBlockEnd
  0
BLOCK
  5
A2
330
A1
100
AcDbEntity
  8
0
100
AcDbBlockBegin
  2
SW_BLOCK_DIMENSION_1
 70
     0
 10
0.0
 20
0.0
 30
0.0
  3
SW_BLOCK_DIMENSION_1
  1

  0
SOLID
  5
A4
330
A1
100
AcDbEntity
  8
0
 62
     0
100
AcDbTrace
 10
-0.9230769231
 20
2.3665509652
 30
0.0
 11
-1.3972280649
 21
-0.7154314566
 31
0.0
 12
-0.4489257813
 22
-0.7154314566
 32
0.0
 13
-0.4489257813
 23
-0.7154314566
 33
0.0
  0
LINE
  5
A5
330
A1
100
AcDbEntity
  8
0
 62
     0
100
AcDbLine
 10
-11.3062660664
 20
2.3665509652
 30
0.0
 11
0.0
 21
2.3665509652
 31
0.0
  0
LINE
  5
A6
330
A1
100
AcDbEntity
  8
0
 62
     0
100
AcDbLine
 10
-0.9230769231
 20
-7.6334490348
 30
0.0
 11
-0.9230769231
 21
2.3665509652
 31
0.0
  0
MTEXT
  5
A7
330
A1
100
AcDbEntity
  8
0
 62
     0
100
AcDbMText
 10
0.0
 20
4.0927900738
 30
0.0
 40
3.175
 41
0.0
 71
     1
 72
     1
  1
10
  7
SLDTEXTSTYLE0
 73
     1
 44
1.0
  0
ENDBLK
  5
A3
330
A1
100
AcDbEntity
  8
0
100
AcDbBlockEnd
  0
BLOCK
  5
AA
330
A9
100
AcDbEntity
  8
0
100
AcDbBlockBegin
  2
SW_BLOCK_DIMENSION_2
 70
     0
 10
0.0
 20
0.0
 30
0.0
  3
SW_BLOCK_DIMENSION_2
  1

  0
SOLID
  5
AC
330
A9
100
AcDbEntity
  8
0
 62
     0
100
AcDbTrace
 10
-0.9230769231
 20
2.3665509652
 30
0.0
 11
-1.3972280649
 21
-0.7154314566
 31
0.0
 12
-0.4489257813
 22
-0.7154314566
 32
0.0
 13
-0.4489257813
 23
-0.7154314566
 33
0.0
  0
LINE
  5
AD
330
A9
100
AcDbEntity
  8
0
 62
     0
100
AcDbLine
 10
-11.3062660664
 20
2.3665509652
 30
0.0
 11
0.0
 21
2.3665509652
 31
0.0
  0
LINE
  5
AE
330
A9
100
AcDbEntity
  8
0
 62
     0
100
AcDbLine
 10
-0.9230769231
 20
-7.6334490348
 30
0.0
 11
-0.9230769231
 21
2.3665509652
 31
0.0
  0
MTEXT
  5
AF
330
A9
100
AcDbEntity
  8
0
 62
     0
100
AcDbMText
 10
0.0
 20
4.0927900738
 30
0.0
 40
3.175
 41
0.0
 71
     1
 72
     1
  1
20
  7
SLDTEXTSTYLE0
 73
     1
 44
1.0
  0
ENDBLK
  5
AB
330
A9
100
AcDbEntity
  8
0
100
AcDbBlockEnd
  0
BLOCK
  5
B2
330
B1
100
AcDbEntity
  8
0
100
AcDbBlockBegin
  2
SW_BLOCK_DIMENSION_3
 70
     0
 10
0.0
 20
0.0
 30
0.0
  3
SW_BLOCK_DIMENSION_3
  1

  0
SOLID
  5
B4
330
B1
100
AcDbEntity
  8
0
 62
     0
100
AcDbTrace
 10
-0.9230769231
 20
2.3665509652
 30
0.0
 11
-1.3972280649
 21
-0.7154314566
 31
0.0
 12
-0.4489257813
 22
-0.7154314566
 32
0.0
 13
-0.4489257813
 23
-0.7154314566
 33
0.0
  0
LINE
  5
B5
330
B1
100
AcDbEntity
  8
0
 62
     0
100
AcDbLine
 10
-11.3062660664
 20
2.3665509652
 30
0.0
 11
0.0
 21
2.3665509652
 31
0.0
  0
LINE
  5
B6
330
B1
100
AcDbEntity
  8
0
 62
     0
100
AcDbLine
 10
-0.9230769231
 20
-7.6334490348
 30
0.0
 11
-0.9230769231
 21
2.3665509652
 31
0.0
  0
MTEXT
  5
B7
330
B1
100
AcDbEntity
  8
0
 62
     0
100
AcDbMText
 10
0.0
 20
4.0927900738
 30
0.0
 40
3.175
 41
0.0
 71
     1
 72
     1
  1
30
  7
SLDTEXTSTYLE0
 73
     1
 44
1.0
  0
ENDBLK
  5
B3
330
B1
100
AcDbEntity
  8
0
100
AcDbBlockEnd
  0
BLOCK
  5
BA
330
B9
100
AcDbEntity
  8
0
100
AcDbBlockBegin
  2
SW_BLOCK_DIMENSION_4
 70
     0
 10
0.0
 20
0.0
 30
0.0
  3
SW_BLOCK_DIMENSION_4
  1

  0
SOLID
  5
BC
330
B9
100
AcDbEntity
  8
0
 62
     0
100
AcDbTrace
 10
-0.9230769231
 20
2.3665509652
 30
0.0
 11
-1.3972280649
 21
-0.7154314566
 31
0.0
 12
-0.4489257813
 22
-0.7154314566
 32
0.0
 13
-0.4489257813
 23
-0.7154314566
 33
0.0
  0
LINE
  5
BD
330
B9
100
AcDbEntity
  8
0
 62
     0
100
AcDbLine
 10
-11.3062660664
 20
2.3665509652
 30
0.0
 11
0.0
 21
2.3665509652
 31
0.0
  0
LINE
  5
BE
330
B9
100
AcDbEntity
  8
0
 62
     0
100
AcDbLine
 10
-0.9230769231
 20
-7.6334490348
 30
0.0
 11
-0.9230769231
 21
2.3665509652
 31
0.0
  0
MTEXT
  5
BF
330
B9
100
AcDbEntity
  8
0
 62
     0
100
AcDbMText
 10
0.0
 20
4.0927900738
 30
0.0
 40
3.175
 41
0.0
 71
     1
 72
     1
  1
40
  7
SLDTEXTSTYLE0
 73
     1
 44
1.0
  0
ENDBLK
  5
BB
330
B9
100
AcDbEntity
  8
0
100
AcDbBlockEnd
  0
BLOCK
  5
C2
330
C1
100
AcDbEntity
  8
0
100
AcDbBlockBegin
  2
SW_BLOCK_DIMENSION_5
 70
     0
 10
0.0
 20
0.0
 30
0.0
  3
SW_BLOCK_DIMENSION_5
  1

  0
SOLID
  5
C4
330
C1
100
AcDbEntity
  8
0
 62
     0
100
AcDbTrace
 10
-0.9230769231
 20
2.3665509652
 30
0.0
 11
-1.3972280649
 21
-0.7154314566
 31
0.0
 12
-0.4489257813
 22
-0.7154314566
 32
0.0
 13
-0.4489257813
 23
-0.7154314566
 33
0.0
  0
LINE
  5
C5
330
C1
100
AcDbEntity
  8
0
 62
     0
100
AcDbLine
 10
-11.3062660664
 20
2.3665509652
 30
0.0
 11
0.0
 21
2.3665509652
 31
0.0
  0
LINE
  5
C6
330
C1
100
AcDbEntity
  8
0
 62
     0
100
AcDbLine
 10
-0.9230769231
 20
-7.6334490348
 30
0.0
 11
-0.9230769231
 21
2.3665509652
 31
0.0
  0
MTEXT
  5
C7
330
C1
100
AcDbEntity
  8
0
 62
     0
100
AcDbMText
 10
0.0
 20
4.0927900738
 30
0.0
 40
3.175
 41
0.0
 71
     1
 72
     1
  1
50
  7
SLDTEXTSTYLE0
 73
     1
 44
1.0
  0
ENDBLK
  5
C3
330
C1
100
AcDbEntity
  8
0
100
AcDbBlockEnd
  0
BLOCK
  5
CA
330
C9
100
AcDbEntity
  8
0
100
AcDbBlockBegin
  2
SW_BLOCK_DIMENSION_6
 70
     0
 10
0.0
 20
0.0
 30
0.0
  3
SW_BLOCK_DIMENSION_6
  1

  0
SOLID
  5
CC
330
C9
100
AcDbEntity
  8
0
 62
     0
100
AcDbTrace
 10
-0.9230769231
 20
2.3665509652
 30
0.0
 11
-1.3972280649
 21
-0.7154314566
 31
0.0
 12
-0.4489257813
 22
-0.7154314566
 32
0.0
 13
-0.4489257813
 23
-0.7154314566
 33
0.0
  0
LINE
  5
CD
330
C9
100
AcDbEntity
  8
0
 62
     0
100
AcDbLine
 10
-11.3062660664
 20
2.3665509652
 30
0.0
 11
0.0
 21
2.3665509652
 31
0.0
  0
LINE
  5
CE
330
C9
100
AcDbEntity
  8
0
 62
     0
100
AcDbLine
 10
-0.9230769231
 20
-7.6334490348
 30
0.0
 11
-0.9230769231
 21
2.3665509652
 31
0.0
  0
MTEXT
  5
CF
330
C9
100
AcDbEntity
  8
0
 62
     0
100
AcDbMText
 10
0.0
 20
4.0927900738
 30
0.0
 40
3.175
 41
0.0
 71
     1
 72
     1
  1
60
  7
SLDTEXTSTYLE0
 73
     1
 44
1.0
  0
ENDBLK
  5
CB
330
C9
100
AcDbEntity
  8
0
100
AcDbBlockEnd
  0
BLOCK
  5
D2
330
D1
100
AcDbEntity
  8
0
100
AcDbBlockBegin
  2
SW_BLOCK_DIMENSION_7
 70
     0
 10
0.0
 20
0.0
 30
0.0
  3
SW_BLOCK_DIMENSION_7
  1

  0
SOLID
  5
D4
330
D1
100
AcDbEntity
  8
0
 62
     0
100
AcDbTrace
 10
-0.9230769231
 20
2.3665509652
 30
0.0
 11
-1.3972280649
 21
-0.7154314566
 31
0.0
 12
-0.4489257813
 22
-0.7154314566
 32
0.0
 13
-0.4489257813
 23
-0.7154314566
 33
0.0
  0
LINE
  5
D5
330
D1
100
AcDbEntity
  8
0
 62
     0
100
AcDbLine
 10
-11.3062660664
 20
2.3665509652
 30
0.0
 11
0.0
 21
2.3665509652
 31
0.0
  0
LINE
  5
D6
330
D1
100
AcDbEntity
  8
0
 62
     0
100
AcDbLine
 10
-0.9230769231
 20
-7.6334490348
 30
0.0
 11
-0.9230769231
 21
2.3665509652
 31
0.0
  0
MTEXT
  5
D7
330
D1
100
AcDbEntity
  8
0
 62
     0
100
AcDbMText
 10
0.0
 20
4.0927900738
 30
0.0
 40
3.175
 41
0.0
 71
     1
 72
     1
  1
70
  7
SLDTEXTSTYLE0
 73
     1
 44
1.0
  0
ENDBLK
  5
D3
330
D1
100
AcDbEntity
  8
0
100
AcDbBlockEnd
  0
BLOCK
  5
DA
330
D9
100
AcDbEntity
  8
0
100
AcDbBlockBegin
  2
SW_BLOCK_DIMENSION_8
 70
     0
 10
0.0
 20
0.0
 30
0.0
  3
SW_BLOCK_DIMENSION_8
  1

  0
SOLID
  5
DC
330
D9
100
AcDbEntity
  8
0
 62
     0
100
AcDbTrace
 10
-0.9230769231
 20
2.3665509652
 30
0.0
 11
-1.3972280649
 21
-0.7154314566
 31
0.0
 12
-0.4489257813
 22
-0.7154314566
 32
0.0
 13
-0.4489257813
 23
-0.7154314566
 33
0.0
  0
LINE
  5
DD
330
D9
100
AcDbEntity
  8
0
 62
     0
100
AcDbLine
 10
-11.3062660664
 20
2.3665509652
 30
0.0
 11
0.0
 21
2.3665509652
 31
0.0
  0
LINE
  5
DE
330
D9
100
AcDbEntity
  8
0
 62
     0
100
AcDbLine
 10
-0.9230769231
 20
-7.6334490348
 30
0.0
 11
-0.9230769231
 21
2.3665509652
 31
0.0
  0
MTEXT
  5
DF
330
D9
100
AcDbEntity
  8
0
 62
     0
100
AcDbMText
 10
0.0
 20
4.0927900738
 30
0.0
 40
3.175
 41
0.0
 71
     1
 72
     1
  1
80
  7
SLDTEXTSTYLE0
 73
     1
 44
1.0
  0
ENDBLK
  5
DB
330
D9
100
AcDbEntity
  8
0
100
AcDbBlockEnd
  0
BLOCK
  5
E2
330
E1
100
AcDbEntity
  8
0
100
AcDbBlockBegin
  2
SW_BLOCK_DIMENSION_9
 70
     0
 10
0.0
 20
0.0
 30
0.0
  3
SW_BLOCK_DIMENSION_9
  1

  0
SOLID
  5
E4
330
E1
100
AcDbEntity
  8
0
 62
     0
100
AcDbTrace
 10
-0.9230769231
 20
2.3665509652
 30
0.0
 11
-1.3972280649
 21
-0.7154314566
 31
0.0
 12
-0.4489257813
 22
-0.7154314566
 32
0.0
 13
-0.4489257813
 23
-0.7154314566
 33
0.0
  0
LINE
  5
E5
330
E1
100
AcDbEntity
  8
0
 62
     0
100
AcDbLine
 10
-11.3062660664
 20
2.3665509652
 30
0.0
 11
0.0
 21
2.3665509652
 31
0.0
  0
LINE
  5
E6
330
E1
100
AcDbEntity
  8
0
 62
     0
100
AcDbLine
 10
-0.9230769231
 20
-7.6334490348
 30
0.0
 11
-0.9230769231
 21
2.3665509652
 31
0.0
  0
MTEXT
  5
E7
330
E1
100
AcDbEntity
  8
0
 62
     0
100
AcDbMText
 10
0.0
 20
4.0927900738
 30
0.0
 40
3.175
 41
0.0
 71
     1
 72
     1
  1
90
  7
SLDTEXTSTYLE0
 73
     1
 44
1.0
  0
ENDBLK
  5
E3
330
E1
100
AcDbEntity
  8
0
100
AcDbBlockEnd
  0
BLOCK
  5
EA
330
E9
100
AcDbEntity
  8
0
100
AcDbBlockBegin
  2
SW_BLOCK_DIMENSION_10
 70
     0
 10
0.0
 20
0.0
 30
0.0
  3
SW_BLOCK_DIMENSION_10
  1

  0
SOLID
  5
EC
330
E9
100
AcDbEntity
  8
0
 62
     0
100
AcDbTrace
 10
-0.9230769231
 20
2.3665509652
 30
0.0
 11
-1.3972280649
 21
-0.7154314566
 31
0.0
 12
-0.4489257813
 22
-0.7154314566
 32
0.0
 13
-0.4489257813
 23
-0.7154314566
 33
0.0
  0
LINE
  5
ED
330
E9
100
AcDbEntity
  8
0
 62
     0
100
AcDbLine
 10
-11.3062660664
 20
2.3665509652
 30
0.0
 11
0.0
 21
2.3665509652
 31
0.0
  0
LINE
  5
EE
330
E9
100
AcDbEntity
  8
0
 62
     0
100
AcDbLine
 10
-0.9230769231
 20
-7.6334490348
 30
0.0
 11
-0.9230769231
 21
2.3665509652
 31
0.0
  0
MTEXT
  5
EF
330
E9
100
AcDbEntity
  8
0
 62
     0
100
AcDbMText
 10
0.0
 20
4.0927900738
 30
0.0
 40
3.175
 41
0.0
 71
     1
 72
     1
  1
100
  7
SLDTEXTSTYLE0
 73
     1
 44
1.0
  0
ENDBLK
  5
EB
330
E9
100
AcDbEntity
  8
0
100
AcDbBlockEnd
  0
BLOCK
  5
F2
330
F1
100
AcDbEntity
  8
0
100
AcDbBlockBegin
  2
SW_BLOCK_DIMENSION_11
 70
     0
 10
0.0
 20
0.0
 30
0.0
  3
SW_BLOCK_DIMENSION_11
  1

  0
SOLID
  5
F4
330
F1
100
AcDbEntity
  8
0
 62
     0
100
AcDbTrace
 10
-0.9230769231
 20
2.3665509652
 30
0.0
 11
-1.3972280649
 21
-0.7154314566
 31
0.0
 12
-0.4489257813
 22
-0.7154314566
 32
0.0
 13
-0.4489257813
 23
-0.7154314566
 33
0.0
  0
LINE
  5
F5
330
F1
100
AcDbEntity
  8
0
 62
     0
100
AcDbLine
 10
-11.3062660664
 20
2.3665509652
 30
0.0
 11
0.0
 21
2.3665509652
 31
0.0
  0
LINE
  5
F6
330
F1
100
AcDbEntity
  8
0
 62
     0
100
AcDbLine
 10
-0.9230769231
 20
-7.6334490348
 30
0.0
 11
-0.9230769231
 21
2.3665509652
 31
0.0
  0
MTEXT
  5
F7
330
F1
100
AcDbEntity
  8
0
 62
     0
100
AcDbMText
 10
0.0
 20
4.0927900738
 30
0.0
 40
3.175
 41
0.0
 71
     1
 72
     1
  1
110
  7
SLDTEXTSTYLE0
 73
     1
 44
1.0
  0
ENDBLK
  5
F3
330
F1
100
AcDbEntity
  8
0
100
AcDbBlockEnd
  0
BLOCK
  5
FA
330
F9
100
AcDbEntity
  8
0
100
AcDbBlockBegin
  2
SW_BLOCK_DIMENSION_12
 70
     0
 10
0.0
 20
0.0
 30
0.0
  3
SW_BLOCK_DIMENSION_12
  1

  0
SOLID
  5
FC
330
F9
100
AcDbEntity
  8
0
 62
     0
100
AcDbTrace
 10
-0.9230769231
 20
2.3665509652
 30
0.0
 11
-1.3972280649
 21
-0.7154314566
 31
0.0
 12
-0.4489257813
 22
-0.7154314566
 32
0.0
 13
-0.4489257813
 23
-0.7154314566
 33
0.0
  0
LINE
  5
FD
330
F9
100
AcDbEntity
  8
0
 62
     0
100
AcDbLine
 10
-11.3062660664
 20
2.3665509652
 30
0.0
 11
0.0
 21
2.3665509652
 31
0.0
  0
LINE
  5
FE
330
F9
100
AcDbEntity
  8
0
 62
     0
100
AcDbLine
 10
-0.9230769231
 20
-7.6334490348
 30
0.0
 11
-0.9230769231
 21
2.3665509652
 31
0.0
  0
MTEXT
  5
FF
330
F9
100
AcDbEntity
  8
0
 62
     0
100
AcDbMText
 10
0.0
 20
4.0927900738
 30
0.0
 40
3.175
 41
0.0
 71
     1
 72
     1
  1
120
  7
SLDTEXTSTYLE0
 73
     1
 44
1.0
  0
ENDBLK
  5
FB
330
F9
100
AcDbEntity
  8
0
100
AcDbBlockEnd
  0
BLOCK
  5
102
330
101
100
AcDbEntity
  8
0
100
AcDbBlockBegin
  2
SW_BLOCK_DIMENSION_13
 70
     0
 10
0.0
 20
0.0
 30
0.0
  3
SW_BLOCK_DIMENSION_13
  1

  0
SOLID
  5
104
330
101
100
AcDbEntity
  8
0
 62
     0
100
AcDbTrace
 10
-0.9230769231
 20
2.3665509652
 30
0.0
 11
-1.3972280649
 21
-0.7154314566
 31
0.0
 12
-0.4489257813
 22
-0.7154314566
 32
0.0
 13
-0.4489257813
 23
-0.7154314566
 33
0.0
  0
LINE
  5
105
330
101
100
AcDbEntity
  8
0
 62
     0
100
AcDbLine
 10
-11.3062660664
 20
2.3665509652
 30
0.0
 11
0.0
 21
2.3665509652
 31
0.0
  0
LINE
  5
106
330
101
100
AcDbEntity
  8
0
 62
     0
100
AcDbLine
 10
-0.9230769231
 20
-7.6334490348
 30
0.0
 11
-0.9230769231
 21
2.3665509652
 31
0.0
  0
MTEXT
  5
107
330
101
100
AcDbEntity
  8
0
 62
     0
100
AcDbMText
 10
0.0
 20
4.0927900738
 30
0.0
 40
3.175
 41
0.0
 71
     1
 72
     1
  1
130
  7
SLDTEXTSTYLE0
 73
     1
 44
1.0
  0
ENDBLK
  5
103
330
101
100
AcDbEntity
  8
0
100
AcDbBlockEnd
  0
BLOCK
  5
10A
330
109
100
AcDbEntity
  8
0
100
AcDbBlockBegin
  2
SW_BLOCK_DIMENSION_14
 70
     0
 10
0.0
 20
0.0
 30
0.0
  3
SW_BLOCK_DIMENSION_14
  1

  0
INSERT
  5
10C
330
109
100
AcDbEntity
  8
0
 62
     0
100
AcDbBlockReference
  2
_Origin
 10
11.8650685056
 20
5.1887726877
 30
0.0
 41
0.9483022837
 42
0.9483022837
 50
0.0
  0
LINE
  5
10D
330
109
100
AcDbEntity
  8
0
 62
     0
100
AcDbLine
 10
3.2925925916
 20
9.671990294
 30
0.0
 11
2.2342592711
 21
9.671990294
 31
0.0
  0
LINE
  5
10E
330
109
100
AcDbEntity
  8
0
 62
     0
100
AcDbLine
 10
2.2342592711
 20
9.671990294
 30
0.0
 11
2.2342592711
 21
4.9388883635
 31
0.0
  0
LINE
  5
10F
330
109
100
AcDbEntity
  8
0
 62
     0
100
AcDbLine
 10
2.2342592711
 20
4.9388883635
 30
0.0
 11
3.2925925916
 21
4.9388883635
 31
0.0
  0
LINE
  5
110
330
109
100
AcDbEntity
  8
0
 62
     0
100
AcDbLine
 10
7.6493982924
 20
9.671990294
 30
0.0
 11
8.707731613
 21
9.671990294
 31
0.0
  0
LINE
  5
111
330
109
100
AcDbEntity
  8
0
 62
     0
100
AcDbLine
 10
8.707731613
 20
9.671990294
 30
0.0
 11
8.707731613
 21
4.9388883635
 31
0.0
  0
LINE
  5
112
330
109
100
AcDbEntity
  8
0
 62
     0
100
AcDbLine
 10
8.707731613
 20
4.9388883635
 30
0.0
 11
7.6493982924
 21
4.9388883635
 31
0.0
  0
LINE
  5
113
330
109
100
AcDbEntity
  8
0
 62
     0
100
AcDbLine
 10
21.5099578393
 20
5.1887726877
 30
0.0
 11
10.9419915825
 21
5.1887726877
 31
0.0
  0
MTEXT
  5
114
330
109
100
AcDbEntity
  8
0
 62
     0
100
AcDbMText
 10
1.190625
 20
4.0927900738
 30
0.0
 40
3.175
 41
0.0
 71
     1
 72
     1
  1

  7
SLDTEXTSTYLE0
 73
     1
 44
1.0
  0
MTEXT
  5
115
330
109
100
AcDbEntity
  8
0
 62
     0
100
AcDbMText
 10
3.2925925916
 20
9.0316784373
 30
0.0
 40
3.175
 41
0.0
 71
     1
 72
     1
  1
0"
  7
SLDTEXTSTYLE0
 73
     1
 44
1.0
  0
MTEXT
  5
116
330
109
100
AcDbEntity
  8
0
 62
     0
100
AcDbMText
 10
4.2950697243
 20
4.0927898409
 30
0.0
 40
3.175
 41
0.0
 71
     1
 72
     1
  1
0
  7
SLDTEXTSTYLE0
 73
     1
 44
1.0
  0
MTEXT
  5
117
330
109
100
AcDbEntity
  8
0
 62
     0
100
AcDbMText
 10
10.9566905156
 20
4.0927900738
 30
0.0
 40
3.175
 41
0.0
 71
     1
 72
     1
  1

  7
SLDTEXTSTYLE0
 73
     1
 44
1.0
  0
ENDBLK
  5
10B
330
109
100
AcDbEntity
  8
0
100
AcDbBlockEnd
  0
BLOCK
  5
11A
330
119
100
AcDbEntity
  8
0
100
AcDbBlockBegin
  2
SW_BLOCK_DIMENSION_15
 70
     0
 10
0.0
 20
0.0
 30
0.0
  3
SW_BLOCK_DIMENSION_15
  1

  0
SOLID
  5
11C
330
119
100
AcDbEntity
  8
0
 62
     0
100
AcDbTrace
 10
11.8650685056
 20
5.1887726877
 30
0.0
 11
11.3909173638
 21
2.1067902658
 31
0.0
 12
12.3392196474
 22
2.1067902658
 32
0.0
 13
12.3392196474
 23
2.1067902658
 33
0.0
  0
LINE
  5
11D
330
119
100
AcDbEntity
  8
0
 62
     0
100
AcDbLine
 10
3.2925925916
 20
9.671990294
 30
0.0
 11
2.2342592711
 21
9.671990294
 31
0.0
  0
LINE
  5
11E
330
119
100
AcDbEntity
  8
0
 62
     0
100
AcDbLine
 10
2.2342592711
 20
9.671990294
 30
0.0
 11
2.2342592711
 21
4.9388883635
 31
0.0
  0
LINE
  5
11F
330
119
100
AcDbEntity
  8
0
 62
     0
100
AcDbLine
 10
2.2342592711
 20
4.9388883635
 30
0.0
 11
3.2925925916
 21
4.9388883635
 31
0.0
  0
LINE
  5
120
330
119
100
AcDbEntity
  8
0
 62
     0
100
AcDbLine
 10
7.6493982924
 20
9.671990294
 30
0.0
 11
8.707731613
 21
9.671990294
 31
0.0
  0
LINE
  5
121
330
119
100
AcDbEntity
  8
0
 62
     0
100
AcDbLine
 10
8.707731613
 20
9.671990294
 30
0.0
 11
8.707731613
 21
4.9388883635
 31
0.0
  0
LINE
  5
122
330
119
100
AcDbEntity
  8
0
 62
     0
100
AcDbLine
 10
8.707731613
 20
4.9388883635
 30
0.0
 11
7.6493982924
 21
4.9388883635
 31
0.0
  0
LINE
  5
123
330
119
100
AcDbEntity
  8
0
 62
     0
100
AcDbLine
 10
20.7299578393
 20
5.1887726877
 30
0.0
 11
10.9419915825
 21
5.1887726877
 31
0.0
  0
LINE
  5
124
330
119
100
AcDbEntity
  8
0
 62
     0
100
AcDbLine
 10
11.8650685056
 20
-20.2112273123
 30
0.0
 11
11.8650685056
 21
5.1887726877
 31
0.0
  0
MTEXT
  5
125
330
119
100
AcDbEntity
  8
0
 62
     0
100
AcDbMText
 10
1.190625
 20
4.0927900738
 30
0.0
 40
3.175
 41
0.0
 71
     1
 72
     1
  1

  7
SLDTEXTSTYLE0
 73
     1
 44
1.0
  0
MTEXT
  5
126
330
119
100
AcDbEntity
  8
0
 62
     0
100
AcDbMText
 10
3.2925925916
 20
9.0316784373
 30
0.0
 40
3.175
 41
0.0
 71
     1
 72
     1
  1
1"
  7
SLDTEXTSTYLE0
 73
     1
 44
1.0
  0
MTEXT
  5
127
330
119
100
AcDbEntity
  8
0
 62
     0
100
AcDbMText
 10
1.3552549062
 20
4.0927898409
 30
0.0
 40
3.175
 41
0.0
 71
     1
 72
     1
  1
25,4
  7
SLDTEXTSTYLE0
 73
     1
 44
1.0
  0
MTEXT
  5
128
330
119
100
AcDbEntity
  8
0
 62
     0
100
AcDbMText
 10
10.9566905156
 20
4.0927900738
 30
0.0
 40
3.175
 41
0.0
 71
     1
 72
     1
  1

  7
SLDTEXTSTYLE0
 73
     1
 44
1.0
  0
ENDBLK
  5
11B
330
119
100
AcDbEntity
  8
0
100
AcDbBlockEnd
  0
BLOCK
  5
12B
330
12A
100
AcDbEntity
  8
0
100
AcDbBlockBegin
  2
SW_BLOCK_DIMENSION_16
 70
     0
 10
0.0
 20
0.0
 30
0.0
  3
SW_BLOCK_DIMENSION_16
  1

  0
SOLID
  5
12D
330
12A
100
AcDbEntity
  8
0
 62
     0
100
AcDbTrace
 10
11.8650685056
 20
5.1887726877
 30
0.0
 11
11.3909173638
 21
2.1067902658
 31
0.0
 12
12.3392196474
 22
2.1067902658
 32
0.0
 13
12.3392196474
 23
2.1067902658
 33
0.0
  0
LINE
  5
12E
330
12A
100
AcDbEntity
  8
0
 62
     0
100
AcDbLine
 10
3.2925925916
 20
9.671990294
 30
0.0
 11
2.2342592711
 21
9.671990294
 31
0.0
  0
LINE
  5
12F
330
12A
100
AcDbEntity
  8
0
 62
     0
100
AcDbLine
 10
2.2342592711
 20
9.671990294
 30
0.0
 11
2.2342592711
 21
4.9388883635
 31
0.0
  0
LINE
  5
130
330
12A
100
AcDbEntity
  8
0
 62
     0
100
AcDbLine
 10
2.2342592711
 20
4.9388883635
 30
0.0
 11
3.2925925916
 21
4.9388883635
 31
0.0
  0
LINE
  5
131
330
12A
100
AcDbEntity
  8
0
 62
     0
100
AcDbLine
 10
7.6493982924
 20
9.671990294
 30
0.0
 11
8.707731613
 21
9.671990294
 31
0.0
  0
LINE
  5
132
330
12A
100
AcDbEntity
  8
0
 62
     0
100
AcDbLine
 10
8.707731613
 20
9.671990294
 30
0.0
 11
8.707731613
 21
4.9388883635
 31
0.0
  0
LINE
  5
133
330
12A
100
AcDbEntity
  8
0
 62
     0
100
AcDbLine
 10
8.707731613
 20
4.9388883635
 30
0.0
 11
7.6493982924
 21
4.9388883635
 31
0.0
  0
LINE
  5
134
330
12A
100
AcDbEntity
  8
0
 62
     0
100
AcDbLine
 10
20.7299578393
 20
5.1887726877
 30
0.0
 11
10.9419915825
 21
5.1887726877
 31
0.0
  0
LINE
  5
135
330
12A
100
AcDbEntity
  8
0
 62
     0
100
AcDbLine
 10
11.8650685056
 20
-20.2112273123
 30
0.0
 11
11.8650685056
 21
5.1887726877
 31
0.0
  0
MTEXT
  5
136
330
12A
100
AcDbEntity
  8
0
 62
     0
100
AcDbMText
 10
1.190625
 20
4.0927900738
 30
0.0
 40
3.175
 41
0.0
 71
     1
 72
     1
  1

  7
SLDTEXTSTYLE0
 73
     1
 44
1.0
  0
MTEXT
  5
137
330
12A
100
AcDbEntity
  8
0
 62
     0
100
AcDbMText
 10
3.2925925916
 20
9.0316784373
 30
0.0
 40
3.175
 41
0.0
 71
     1
 72
     1
  1
2"
  7
SLDTEXTSTYLE0
 73
     1
 44
1.0
  0
MTEXT
  5
138
330
12A
100
AcDbEntity
  8
0
 62
     0
100
AcDbMText
 10
1.3552549062
 20
4.0927898409
 30
0.0
 40
3.175
 41
0.0
 71
     1
 72
     1
  1
50,8
  7
SLDTEXTSTYLE0
 73
     1
 44
1.0
  0
MTEXT
  5
139
330
12A
100
AcDbEntity
  8
0
 62
     0
100
AcDbMText
 10
10.9566905156
 20
4.0927900738
 30
0.0
 40
3.175
 41
0.0
 71
     1
 72
     1
  1

  7
SLDTEXTSTYLE0
 73
     1
 44
1.0
  0
ENDBLK
  5
12C
330
12A
100
AcDbEntity
  8
0
100
AcDbBlockEnd
  0
BLOCK
  5
13C
330
13B
100
AcDbEntity
  8
0
100
AcDbBlockBegin
  2
SW_BLOCK_DIMENSION_17
 70
     0
 10
0.0
 20
0.0
 30
0.0
  3
SW_BLOCK_DIMENSION_17
  1

  0
SOLID
  5
13E
330
13B
100
AcDbEntity
  8
0
 62
     0
100
AcDbTrace
 10
11.8650685056
 20
5.1887726877
 30
0.0
 11
11.3909173638
 21
2.1067902658
 31
0.0
 12
12.3392196474
 22
2.1067902658
 32
0.0
 13
12.3392196474
 23
2.1067902658
 33
0.0
  0
LINE
  5
13F
330
13B
100
AcDbEntity
  8
0
 62
     0
100
AcDbLine
 10
3.2925925916
 20
9.671990294
 30
0.0
 11
2.2342592711
 21
9.671990294
 31
0.0
  0
LINE
  5
140
330
13B
100
AcDbEntity
  8
0
 62
     0
100
AcDbLine
 10
2.2342592711
 20
9.671990294
 30
0.0
 11
2.2342592711
 21
4.9388883635
 31
0.0
  0
LINE
  5
141
330
13B
100
AcDbEntity
  8
0
 62
     0
100
AcDbLine
 10
2.2342592711
 20
4.9388883635
 30
0.0
 11
3.2925925916
 21
4.9388883635
 31
0.0
  0
LINE
  5
142
330
13B
100
AcDbEntity
  8
0
 62
     0
100
AcDbLine
 10
7.6493982924
 20
9.671990294
 30
0.0
 11
8.707731613
 21
9.671990294
 31
0.0
  0
LINE
  5
143
330
13B
100
AcDbEntity
  8
0
 62
     0
100
AcDbLine
 10
8.707731613
 20
9.671990294
 30
0.0
 11
8.707731613
 21
4.9388883635
 31
0.0
  0
LINE
  5
144
330
13B
100
AcDbEntity
  8
0
 62
     0
100
AcDbLine
 10
8.707731613
 20
4.9388883635
 30
0.0
 11
7.6493982924
 21
4.9388883635
 31
0.0
  0
LINE
  5
145
330
13B
100
AcDbEntity
  8
0
 62
     0
100
AcDbLine
 10
20.7299578393
 20
5.1887726877
 30
0.0
 11
10.9419915825
 21
5.1887726877
 31
0.0
  0
LINE
  5
146
330
13B
100
AcDbEntity
  8
0
 62
     0
100
AcDbLine
 10
11.8650685056
 20
-20.2112273123
 30
0.0
 11
11.8650685056
 21
5.1887726877
 31
0.0
  0
MTEXT
  5
147
330
13B
100
AcDbEntity
  8
0
 62
     0
100
AcDbMText
 10
1.190625
 20
4.0927900738
 30
0.0
 40
3.175
 41
0.0
 71
     1
 72
     1
  1

  7
SLDTEXTSTYLE0
 73
     1
 44
1.0
  0
MTEXT
  5
148
330
13B
100
AcDbEntity
  8
0
 62
     0
100
AcDbMText
 10
3.2925925916
 20
9.0316784373
 30
0.0
 40
3.175
 41
0.0
 71
     1
 72
     1
  1
3"
  7
SLDTEXTSTYLE0
 73
     1
 44
1.0
  0
MTEXT
  5
149
330
13B
100
AcDbEntity
  8
0
 62
     0
100
AcDbMText
 10
1.3552549062
 20
4.0927898409
 30
0.0
 40
3.175
 41
0.0
 71
     1
 72
     1
  1
76,2
  7
SLDTEXTSTYLE0
 73
     1
 44
1.0
  0
MTEXT
  5
14A
330
13B
100
AcDbEntity
  8
0
 62
     0
100
AcDbMText
 10
10.9566905156
 20
4.0927900738
 30
0.0
 40
3.175
 41
0.0
 71
     1
 72
     1
  1

  7
SLDTEXTSTYLE0
 73
     1
 44
1.0
  0
ENDBLK
  5
13D
330
13B
100
AcDbEntity
  8
0
100
AcDbBlockEnd
  0
BLOCK
  5
14D
330
14C
100
AcDbEntity
  8
0
100
AcDbBlockBegin
  2
SW_BLOCK_DIMENSION_18
 70
     0
 10
0.0
 20
0.0
 30
0.0
  3
SW_BLOCK_DIMENSION_18
  1

  0
SOLID
  5
14F
330
14C
100
AcDbEntity
  8
0
 62
     0
100
AcDbTrace
 10
13.858262728
 20
5.1887726877
 30
0.0
 11
13.3841115862
 21
2.1067902658
 31
0.0
 12
14.3324138699
 22
2.1067902658
 32
0.0
 13
14.3324138699
 23
2.1067902658
 33
0.0
  0
LINE
  5
150
330
14C
100
AcDbEntity
  8
0
 62
     0
100
AcDbLine
 10
4.2891897028
 20
9.671990294
 30
0.0
 11
3.2308563823
 21
9.671990294
 31
0.0
  0
LINE
  5
151
330
14C
100
AcDbEntity
  8
0
 62
     0
100
AcDbLine
 10
3.2308563823
 20
9.671990294
 30
0.0
 11
3.2308563823
 21
4.9388883635
 31
0.0
  0
LINE
  5
152
330
14C
100
AcDbEntity
  8
0
 62
     0
100
AcDbLine
 10
3.2308563823
 20
4.9388883635
 30
0.0
 11
4.2891897028
 21
4.9388883635
 31
0.0
  0
LINE
  5
153
330
14C
100
AcDbEntity
  8
0
 62
     0
100
AcDbLine
 10
8.6459954036
 20
9.671990294
 30
0.0
 11
9.7043287242
 21
9.671990294
 31
0.0
  0
LINE
  5
154
330
14C
100
AcDbEntity
  8
0
 62
     0
100
AcDbLine
 10
9.7043287242
 20
9.671990294
 30
0.0
 11
9.7043287242
 21
4.9388883635
 31
0.0
  0
LINE
  5
155
330
14C
100
AcDbEntity
  8
0
 62
     0
100
AcDbLine
 10
9.7043287242
 20
4.9388883635
 30
0.0
 11
8.6459954036
 21
4.9388883635
 31
0.0
  0
LINE
  5
156
330
14C
100
AcDbEntity
  8
0
 62
     0
100
AcDbLine
 10
22.7231520617
 20
5.1887726877
 30
0.0
 11
12.935185805
 21
5.1887726877
 31
0.0
  0
LINE
  5
157
330
14C
100
AcDbEntity
  8
0
 62
     0
100
AcDbLine
 10
13.858262728
 20
-20.2112273123
 30
0.0
 11
13.858262728
 21
5.1887726877
 31
0.0
  0
MTEXT
  5
158
330
14C
100
AcDbEntity
  8
0
 62
     0
100
AcDbMText
 10
1.190625
 20
4.0927900738
 30
0.0
 40
3.175
 41
0.0
 71
     1
 72
     1
  1

  7
SLDTEXTSTYLE0
 73
     1
 44
1.0
  0
MTEXT
  5
159
330
14C
100
AcDbEntity
  8
0
 62
     0
100
AcDbMText
 10
4.2891897028
 20
9.0316784373
 30
0.0
 40
3.175
 41
0.0
 71
     1
 72
     1
  1
4"
  7
SLDTEXTSTYLE0
 73
     1
 44
1.0
  0
MTEXT
  5
15A
330
14C
100
AcDbEntity
  8
0
 62
     0
100
AcDbMText
 10
1.1759259505
 20
4.0927898409
 30
0.0
 40
3.175
 41
0.0
 71
     1
 72
     1
  1
101,6
  7
SLDTEXTSTYLE0
 73
     1
 44
1.0
  0
MTEXT
  5
15B
330
14C
100
AcDbEntity
  8
0
 62
     0
100
AcDbMText
 10
12.949884738
 20
4.0927900738
 30
0.0
 40
3.175
 41
0.0
 71
     1
 72
     1
  1

  7
SLDTEXTSTYLE0
 73
     1
 44
1.0
  0
ENDBLK
  5
14E
330
14C
100
AcDbEntity
  8
0
100
AcDbBlockEnd
  0
BLOCK
  5
15E
330
15D
100
AcDbEntity
  8
0
100
AcDbBlockBegin
  2
SW_BLOCK_DIMENSION_19
 70
     0
 10
0.0
 20
0.0
 30
0.0
  3
SW_BLOCK_DIMENSION_19
  1

  0
SOLID
  5
160
330
15D
100
AcDbEntity
  8
0
 62
     0
100
AcDbTrace
 10
11.8650685056
 20
5.1887726877
 30
0.0
 11
11.3909173638
 21
2.1067902658
 31
0.0
 12
12.3392196474
 22
2.1067902658
 32
0.0
 13
12.3392196474
 23
2.1067902658
 33
0.0
  0
LINE
  5
161
330
15D
100
AcDbEntity
  8
0
 62
     0
100
AcDbLine
 10
3.2925925916
 20
9.671990294
 30
0.0
 11
2.2342592711
 21
9.671990294
 31
0.0
  0
LINE
  5
162
330
15D
100
AcDbEntity
  8
0
 62
     0
100
AcDbLine
 10
2.2342592711
 20
9.671990294
 30
0.0
 11
2.2342592711
 21
4.9388883635
 31
0.0
  0
LINE
  5
163
330
15D
100
AcDbEntity
  8
0
 62
     0
100
AcDbLine
 10
2.2342592711
 20
4.9388883635
 30
0.0
 11
3.2925925916
 21
4.9388883635
 31
0.0
  0
LINE
  5
164
330
15D
100
AcDbEntity
  8
0
 62
     0
100
AcDbLine
 10
7.6493982924
 20
9.671990294
 30
0.0
 11
8.707731613
 21
9.671990294
 31
0.0
  0
LINE
  5
165
330
15D
100
AcDbEntity
  8
0
 62
     0
100
AcDbLine
 10
8.707731613
 20
9.671990294
 30
0.0
 11
8.707731613
 21
4.9388883635
 31
0.0
  0
LINE
  5
166
330
15D
100
AcDbEntity
  8
0
 62
     0
100
AcDbLine
 10
8.707731613
 20
4.9388883635
 30
0.0
 11
7.6493982924
 21
4.9388883635
 31
0.0
  0
LINE
  5
167
330
15D
100
AcDbEntity
  8
0
 62
     0
100
AcDbLine
 10
20.7299578393
 20
5.1887726877
 30
0.0
 11
10.9419915825
 21
5.1887726877
 31
0.0
  0
LINE
  5
168
330
15D
100
AcDbEntity
  8
0
 62
     0
100
AcDbLine
 10
11.8650685056
 20
-20.2112273123
 30
0.0
 11
11.8650685056
 21
5.1887726877
 31
0.0
  0
MTEXT
  5
169
330
15D
100
AcDbEntity
  8
0
 62
     0
100
AcDbMText
 10
1.190625
 20
4.0927900738
 30
0.0
 40
3.175
 41
0.0
 71
     1
 72
     1
  1

  7
SLDTEXTSTYLE0
 73
     1
 44
1.0
  0
MTEXT
  5
16A
330
15D
100
AcDbEntity
  8
0
 62
     0
100
AcDbMText
 10
3.2925925916
 20
9.0316784373
 30
0.0
 40
3.175
 41
0.0
 71
     1
 72
     1
  1
5"
  7
SLDTEXTSTYLE0
 73
     1
 44
1.0
  0
MTEXT
  5
16B
330
15D
100
AcDbEntity
  8
0
 62
     0
100
AcDbMText
 10
1.9432179397
 20
4.0927898409
 30
0.0
 40
3.175
 41
0.0
 71
     1
 72
     1
  1
127
  7
SLDTEXTSTYLE0
 73
     1
 44
1.0
  0
MTEXT
  5
16C
330
15D
100
AcDbEntity
  8
0
 62
     0
100
AcDbMText
 10
10.9566905156
 20
4.0927900738
 30
0.0
 40
3.175
 41
0.0
 71
     1
 72
     1
  1

  7
SLDTEXTSTYLE0
 73
     1
 44
1.0
  0
ENDBLK
  5
15F
330
15D
100
AcDbEntity
  8
0
100
AcDbBlockEnd
  0
BLOCK
  5
16F
330
16E
100
AcDbEntity
  8
0
100
AcDbBlockBegin
  2
SW_NOTE_0
 70
     0
 10
0.0
 20
0.0
 30
0.0
  3
SW_NOTE_0
  1

  0
MTEXT
  5
171
330
16E
100
AcDbEntity
  8
0
 62
     0
100
AcDbMText
 10
6.7138020833
 20
4.7749217527
 30
0.0
 40
3.7041666667
 41
0.0
 71
     2
 72
     1
  1
(Inch)
  7
SLDTEXTSTYLE0
 73
     1
 44
1.0
  0
MTEXT
  5
172
330
16E
100
AcDbEntity
  8
0
 62
     0
100
AcDbMText
 10
6.7309508326
 20
-1.1639672404
 30
0.0
 40
3.7041666667
 41
0.0
 71
     2
 72
     1
  1
mm
  7
SLDTEXTSTYLE0
 73
     1
 44
1.0
  0
ENDBLK
  5
170
330
16E
100
AcDbEntity
  8
0
100
AcDbBlockEnd
  0
BLOCK
  5
175
330
174
100
AcDbEntity
  8
0
100
AcDbBlockBegin
  2
SW_NOTE_0_1
 70
     0
 10
0.0
 20
0.0
 30
0.0
  3
SW_NOTE_0_1
  1

  0
MTEXT
  5
177
330
174
100
AcDbEntity
  8
0
 62
     0
100
AcDbMText
 10
0.0
 20
4.7749217527
 30
0.0
 40
3.7041666667
 41
0.0
 71
     1
 72
     1
  1
mm
  7
SLDTEXTSTYLE0
 73
     1
 44
1.0
  0
ENDBLK
  5
176
330
174
100
AcDbEntity
  8
0
100
AcDbBlockEnd
  0
BLOCK
  5
184
330
183
100
AcDbEntity
  8
0
100
AcDbBlockBegin
  2
SW_NOTE_0_2
 70
     0
 10
0.0
 20
0.0
 30
0.0
  3
SW_NOTE_0_2
  1

  0
MTEXT
  5
186
330
183
100
AcDbEntity
  8
0
  6
Continuous
 62
     0
370
     0
100
AcDbMText
 10
19.893359375
 20
4.0927900738
 30
0.0
 40
3.175
 41
0.0
 71
     2
 72
     1
  1
ABP-Beyerle GmbH
  7
SLDTEXTSTYLE0
 73
     1
 44
1.0
  0
MTEXT
  5
187
330
183
100
AcDbEntity
  8
0
  6
Continuous
 62
     0
370
     0
100
AcDbMText
 10
20.6558884293
 20
-0.1405432084
 30
0.0
 40
3.175
 41
0.0
 71
     2
 72
     1
  1
Im Schollengarten 24b, 76646 Bruchsal
  7
SLDTEXTSTYLE0
 73
     1
 44
1.0
  0
MTEXT
  5
188
330
183
100
AcDbEntity
  8
0
  6
Continuous
 62
     0
370
     0
100
AcDbMText
 10
20.7863491923
 20
-4.3738764906
 30
0.0
 40
3.175
 41
0.0
 71
     2
 72
     1
  1
Tel. +49 (0)7251-9127-0, Fax. +49 (0)7251-9127-29
  7
SLDTEXTSTYLE0
 73
     1
 44
1.0
  0
MTEXT
  5
189
330
183
100
AcDbEntity
  8
0
  6
Continuous
 62
     0
370
     0
100
AcDbMText
 10
20.8392552227
 20
-8.6072097727
 30
0.0
 40
3.175
 41
0.0
 71
     2
 72
     1
  1
info@abp-beyerle.de, www.abp-beyerle.de
  7
SLDTEXTSTYLE0
 73
     1
 44
1.0
  0
ENDBLK
  5
185
330
183
100
AcDbEntity
  8
0
100
AcDbBlockEnd
  0
BLOCK
  5
30C
330
30B
100
AcDbEntity
  8
0
100
AcDbBlockBegin
  2
_D
 70
     0
 10
0.0
 20
0.0
 30
0.0
  3
_D
  1

  0
SOLID
  5
30E
330
30B
100
AcDbEntity
  8
0
  6
Continuous
 62
   102
370
    18
100
AcDbTrace
 10
279.6297848853
 20
226.8227930175
 30
0.0
 11
279.1682464238
 21
223.8227930175
 31
0.0
 12
280.0913233468
 22
223.8227930175
 32
0.0
 13
280.0913233468
 23
223.8227930175
 33
0.0
  0
SOLID
  5
30F
330
30B
100
AcDbEntity
  8
0
  6
Continuous
 62
   102
370
    18
100
AcDbTrace
 10
279.6297848853
 20
201.8227930175
 30
0.0
 11
280.0913233468
 21
204.8227930175
 31
0.0
 12
279.1682464238
 22
204.8227930175
 32
0.0
 13
279.1682464238
 23
204.8227930175
 33
0.0
  0
LINE
  5
310
330
30B
100
AcDbEntity
  8
0
  6
Continuous
 62
   102
370
    18
100
AcDbLine
 10
273.2804545656
 20
226.8227930175
 30
0.0
 11
280.6297848853
 21
226.8227930175
 31
0.0
  0
LINE
  5
311
330
30B
100
AcDbEntity
  8
0
  6
Continuous
 62
   102
370
    18
100
AcDbLine
 10
273.2804545656
 20
201.8227930175
 30
0.0
 11
280.6297848853
 21
201.8227930175
 31
0.0
  0
LINE
  5
312
330
30B
100
AcDbEntity
  8
0
  6
Continuous
 62
   102
370
    18
100
AcDbLine
 10
279.6297848853
 20
226.8227930175
 30
0.0
 11
279.6297848853
 21
216.6248764371
 31
0.0
  0
LINE
  5
313
330
30B
100
AcDbEntity
  8
0
  6
Continuous
 62
   102
370
    18
100
AcDbLine
 10
279.6297848853
 20
201.8227930175
 30
0.0
 11
279.6297848853
 21
212.0207095978
 31
0.0
  0
MTEXT
  5
314
330
30B
100
AcDbEntity
  8
0
  6
Continuous
 62
   102
370
    18
100
AcDbMText
 10
277.3381183087
 20
215.88791305
 30
0.0
 40
3.0
 41
0.0
 71
     1
 72
     1
  1
25
  7
SLDTEXTSTYLE0
 73
     1
 44
1.0
  0
ENDBLK
  5
30D
330
30B
100
AcDbEntity
  8
0
100
AcDbBlockEnd
  0
ENDSEC
  0
SECTION
  2
ENTITIES
  0
LINE
  5
179
330
1F
100
AcDbEntity
  8
0
100
AcDbLine
 10
127.4819306314
 20
27.1626886523
 30
0.0
 11
127.4819306314
 21
7.1626886523
 31
0.0
  0
LINE
  5
17A
330
1F
100
AcDbEntity
  8
0
100
AcDbLine
 10
127.4819306314
 20
7.1626886523
 30
0.0
 11
231.2890403829
 21
7.1626886523
 31
0.0
  0
LINE
  5
17B
330
1F
100
AcDbEntity
  8
0
100
AcDbLine
 10
231.2890403829
 20
7.1626886523
 30
0.0
 11
231.2890403829
 21
27.1626886523
 31
0.0
  0
LINE
  5
17C
330
1F
100
AcDbEntity
  8
0
100
AcDbLine
 10
231.2890403829
 20
27.1626886523
 30
0.0
 11
127.4819306314
 21
27.1626886523
 31
0.0
  0
LINE
  5
17D
330
1F
100
AcDbEntity
  8
0
100
AcDbLine
 10
231.2890403829
 20
17.1626886523
 30
0.0
 11
127.4819306314
 21
17.1626886523
 31
0.0
  0
LINE
  5
17E
330
1F
100
AcDbEntity
  8
0
100
AcDbLine
 10
188.5336333335
 20
27.1626886523
 30
0.0
 11
188.5336333335
 21
7.1626886523
 31
0.0
  0
INSERT
  5
17F
330
1F
100
AcDbEntity
  8
0
100
AcDbBlockReference
  2
Block5
 10
19.561342692
 20
-6.9223244521
 30
0.0
  0
MTEXT
  5
181
330
1F
100
AcDbEntity
  8
0
  6
Continuous
 62
     7
370
     0
100
AcDbMText
 10
402.5
 20
14.7189135832
 30
0.0
 40
6.35
 41
0.0
 71
     1
 72
     1
  1
1:1
  7
SLDTEXTSTYLE1
 73
     1
 44
1.0
  0
MTEXT
  5
182
330
1F
100
AcDbEntity
  8
0
  6
Continuous
 62
     7
370
     0
100
AcDbMText
 10
190.3749692016
 20
25.1056679674
 30
0.0
 40
4.2333333333
 41
0.0
 71
     1
 72
     1
  1
224.00005
  7
SLDTEXTSTYLE1
 73
     1
 44
1.0
  0
INSERT
  5
18A
330
1F
100
AcDbEntity
  8
0
  6
Continuous
 62
     7
370
     0
100
AcDbBlockReference
  2
SW_NOTE_0_2
 10
35.4202146835
 20
20.1681939512
 30
0.0
  0
MTEXT
  5
18B
330
1F
100
AcDbEntity
  8
0
100
AcDbMText
 10
131.6112989967
 20
25.1056677346
 30
0.0
 40
4.2333333333
 41
0.0
 71
     1
 72
     1
  1
Artikelnummer
  7
SLDTEXTSTYLE1
 73
     1
 44
1.0
  0
MTEXT
  5
18C
330
1F
100
AcDbEntity
  8
0
100
AcDbMText
 10
131.6112989967
 20
15.1068467326
 30
0.0
 40
4.2333333333
 41
0.0
 71
     1
 72
     1
  1
Index
  7
SLDTEXTSTYLE1
 73
     1
 44
1.0
  0
MTEXT
  5
18D
330
1F
100
AcDbEntity
  8
0
100
AcDbMText
 10
191.3424447454
 20
14.5571014523
 30
0.0
 40
4.2333333333
 41
0.0
 71
     1
 72
     1
  1
0
  7
SLDTEXTSTYLE1
 73
     1
 44
1.0
  0
LINE
  5
18E
330
1F
100
AcDbEntity
  8
0
  6
Continuous
 62
     7
370
    25
100
AcDbLine
 10
95.3969498743
 20
225.3227929579
 30
0.0
 11
95.1969502141
 21
225.1227932976
 31
0.0
  0
LINE
  5
18F
330
1F
100
AcDbEntity
  8
0
  6
Continuous
 62
     7
370
    25
100
AcDbLine
 10
95.1969502141
 20
203.5227927373
 30
0.0
 11
95.3969498743
 21
203.3227930771
 31
0.0
  0
LINE
  5
190
330
1F
100
AcDbEntity
  8
0
  6
Continuous
 62
     7
370
    25
100
AcDbLine
 10
99.4969503601
 20
203.3227930771
 30
0.0
 11
99.6969500204
 21
203.5227927373
 31
0.0
  0
LINE
  5
191
330
1F
100
AcDbEntity
  8
0
  6
Continuous
 62
     7
370
    25
100
AcDbLine
 10
99.6969500204
 20
225.1227932976
 30
0.0
 11
99.4969503601
 21
225.3227929579
 31
0.0
  0
LINE
  5
192
330
1F
100
AcDbEntity
  8
0
  6
Continuous
 62
     7
370
    25
100
AcDbLine
 10
95.3969498743
 20
203.3227930771
 30
0.0
 11
99.4969503601
 21
203.3227930771
 31
0.0
  0
LINE
  5
193
330
1F
100
AcDbEntity
  8
0
  6
Continuous
 62
     7
370
    25
100
AcDbLine
 10
99.4969503601
 20
225.3227929579
 30
0.0
 11
95.3969498743
 21
225.3227929579
 31
0.0
  0
LINE
  5
194
330
1F
100
AcDbEntity
  8
0
  6
Continuous
 62
     7
370
    25
100
AcDbLine
 10
104.6969499086
 20
210.3227928275
 30
0.0
 11
105.4969499466
 21
210.3227928275
 31
0.0
  0
LINE
  5
195
330
1F
100
AcDbEntity
  8
0
  6
Continuous
 62
     7
370
    25
100
AcDbLine
 10
105.4969499466
 20
218.3227932074
 30
0.0
 11
104.6969499086
 21
218.3227932074
 31
0.0
  0
LINE
  5
196
330
1F
100
AcDbEntity
  8
0
  6
Continuous
 62
     7
370
    25
100
AcDbLine
 10
105.4969499466
 20
210.3227928275
 30
0.0
 11
105.6969500725
 21
210.5227929534
 31
0.0
  0
LINE
  5
197
330
1F
100
AcDbEntity
  8
0
  6
Continuous
 62
     7
370
    25
100
AcDbLine
 10
105.6969500725
 20
218.1227930815
 30
0.0
 11
105.4969499466
 21
218.3227932074
 31
0.0
  0
LINE
  5
198
330
1F
100
AcDbEntity
  8
0
  6
Continuous
 62
     7
370
    25
100
AcDbLine
 10
115.8969499749
 20
225.3227929579
 30
0.0
 11
115.6969503147
 21
225.1227932976
 31
0.0
  0
LINE
  5
199
330
1F
100
AcDbEntity
  8
0
  6
Continuous
 62
     7
370
    25
100
AcDbLine
 10
115.6969503147
 20
203.5227927373
 30
0.0
 11
115.8969499749
 21
203.3227930771
 31
0.0
  0
LINE
  5
19A
330
1F
100
AcDbEntity
  8
0
  6
Continuous
 62
     7
370
    25
100
AcDbLine
 10
119.996949995
 20
225.3227929579
 30
0.0
 11
115.8969499749
 21
225.3227929579
 31
0.0
  0
LINE
  5
19B
330
1F
100
AcDbEntity
  8
0
  6
Continuous
 62
     7
370
    25
100
AcDbLine
 10
115.8969499749
 20
203.3227930771
 30
0.0
 11
119.996949995
 21
203.3227930771
 31
0.0
  0
LINE
  5
19C
330
1F
100
AcDbEntity
  8
0
  6
Continuous
 62
     7
370
    25
100
AcDbLine
 10
119.996949995
 20
203.3227930771
 30
0.0
 11
120.1969505866
 21
203.5227927373
 31
0.0
  0
LINE
  5
19D
330
1F
100
AcDbEntity
  8
0
  6
Continuous
 62
     7
370
    25
100
AcDbLine
 10
120.1969505866
 20
225.1227932976
 30
0.0
 11
119.996949995
 21
225.3227929579
 31
0.0
  0
LINE
  5
19E
330
1F
100
AcDbEntity
  8
0
  6
Continuous
 62
     7
370
    25
100
AcDbLine
 10
109.8969501556
 20
218.3227932074
 30
0.0
 11
109.6969500297
 21
218.1227930815
 31
0.0
  0
LINE
  5
19F
330
1F
100
AcDbEntity
  8
0
  6
Continuous
 62
     7
370
    25
100
AcDbLine
 10
109.6969500297
 20
210.5227929534
 30
0.0
 11
109.8969501556
 21
210.3227928275
 31
0.0
  0
LINE
  5
1A0
330
1F
100
AcDbEntity
  8
0
  6
Continuous
 62
     7
370
    25
100
AcDbLine
 10
110.6969500772
 20
218.3227932074
 30
0.0
 11
109.8969501556
 21
218.3227932074
 31
0.0
  0
LINE
  5
1A1
330
1F
100
AcDbEntity
  8
0
  6
Continuous
 62
     7
370
    25
100
AcDbLine
 10
109.8969501556
 20
210.3227928275
 30
0.0
 11
110.6969500772
 21
210.3227928275
 31
0.0
  0
LINE
  5
1A2
330
1F
100
AcDbEntity
  8
0
  6
Continuous
 62
     7
370
    25
100
AcDbLine
 10
109.6969500297
 20
219.3227929057
 30
0.0
 11
105.6969500725
 21
219.3227929057
 31
0.0
  0
LINE
  5
1A3
330
1F
100
AcDbEntity
  8
0
  6
Continuous
 62
     7
370
    25
100
AcDbLine
 10
105.6969500725
 20
209.3227931292
 30
0.0
 11
109.6969500297
 21
209.3227931292
 31
0.0
  0
LINE
  5
1A4
330
1F
100
AcDbEntity
  8
0
  6
Continuous
 62
     7
370
    25
100
AcDbLine
 10
103.6969497447
 20
203.822793159
 30
0.0
 11
104.6969499086
 21
203.822793159
 31
0.0
  0
LINE
  5
1A5
330
1F
100
AcDbEntity
  8
0
  6
Continuous
 62
     7
370
    25
100
AcDbLine
 10
104.6969499086
 20
224.8227928759
 30
0.0
 11
103.6969497447
 21
224.8227928759
 31
0.0
  0
LINE
  5
1A6
330
1F
100
AcDbEntity
  8
0
  6
Continuous
 62
     7
370
    25
100
AcDbLine
 10
110.6969500772
 20
203.822793159
 30
0.0
 11
111.6969501247
 21
203.822793159
 31
0.0
  0
LINE
  5
1A7
330
1F
100
AcDbEntity
  8
0
  6
Continuous
 62
     7
370
    25
100
AcDbLine
 10
111.6969501247
 20
224.8227928759
 30
0.0
 11
110.6969500772
 21
224.8227928759
 31
0.0
  0
LINE
  5
1A8
330
1F
100
AcDbEntity
  8
0
  6
Continuous
 62
     7
370
    25
100
AcDbLine
 10
100.1969501023
 20
226.8227932037
 30
0.0
 11
100.1969501023
 21
226.3227931218
 31
0.0
  0
LINE
  5
1A9
330
1F
100
AcDbEntity
  8
0
  6
Continuous
 62
     7
370
    25
100
AcDbLine
 10
99.6969500204
 20
226.3227931218
 30
0.0
 11
100.1969501023
 21
226.3227931218
 31
0.0
  0
LINE
  5
1AA
330
1F
100
AcDbEntity
  8
0
  6
Continuous
 62
     7
370
    25
100
AcDbLine
 10
100.1969501023
 20
226.8227932037
 30
0.0
 11
99.6969500204
 21
226.3227931218
 31
0.0
  0
LINE
  5
1AB
330
1F
100
AcDbEntity
  8
0
  6
Continuous
 62
     7
370
    25
100
AcDbLine
 10
100.1969501023
 20
226.8227932037
 30
0.0
 11
103.6969497447
 21
226.8227932037
 31
0.0
  0
LINE
  5
1AC
330
1F
100
AcDbEntity
  8
0
  6
Continuous
 62
     7
370
    25
100
AcDbLine
 10
103.6969497447
 20
226.3227931218
 30
0.0
 11
100.1969501023
 21
226.3227931218
 31
0.0
  0
LINE
  5
1AD
330
1F
100
AcDbEntity
  8
0
  6
Continuous
 62
     7
370
    25
100
AcDbLine
 10
103.6969497447
 20
226.8227932037
 30
0.0
 11
103.6969497447
 21
226.3227931218
 31
0.0
  0
LINE
  5
1AE
330
1F
100
AcDbEntity
  8
0
  6
Continuous
 62
     7
370
    25
100
AcDbLine
 10
99.6969500204
 20
202.3227929131
 30
0.0
 11
99.6969500204
 21
226.3227931218
 31
0.0
  0
LINE
  5
1AF
330
1F
100
AcDbEntity
  8
0
  6
Continuous
 62
     7
370
    25
100
AcDbLine
 10
100.1969501023
 20
226.3227931218
 30
0.0
 11
100.1969501023
 21
202.3227929131
 31
0.0
  0
LINE
  5
1B0
330
1F
100
AcDbEntity
  8
0
  6
Continuous
 62
     7
370
    25
100
AcDbLine
 10
99.6969500204
 20
202.3227929131
 30
0.0
 11
100.1969501023
 21
202.3227929131
 31
0.0
  0
LINE
  5
1B1
330
1F
100
AcDbEntity
  8
0
  6
Continuous
 62
     7
370
    25
100
AcDbLine
 10
100.1969501023
 20
202.3227929131
 30
0.0
 11
103.6969497447
 21
202.3227929131
 31
0.0
  0
LINE
  5
1B2
330
1F
100
AcDbEntity
  8
0
  6
Continuous
 62
     7
370
    25
100
AcDbLine
 10
103.6969497447
 20
226.3227931218
 30
0.0
 11
103.6969497447
 21
202.3227929131
 31
0.0
  0
LINE
  5
1B3
330
1F
100
AcDbEntity
  8
0
  6
Continuous
 62
     7
370
    25
100
AcDbLine
 10
103.6969497447
 20
201.8227928312
 30
0.0
 11
100.1969501023
 21
201.8227928312
 31
0.0
  0
LINE
  5
1B4
330
1F
100
AcDbEntity
  8
0
  6
Continuous
 62
     7
370
    25
100
AcDbLine
 10
100.1969501023
 20
201.8227928312
 30
0.0
 11
100.1969501023
 21
202.3227929131
 31
0.0
  0
LINE
  5
1B5
330
1F
100
AcDbEntity
  8
0
  6
Continuous
 62
     7
370
    25
100
AcDbLine
 10
103.6969497447
 20
202.3227929131
 30
0.0
 11
103.6969497447
 21
201.8227928312
 31
0.0
  0
LINE
  5
1B6
330
1F
100
AcDbEntity
  8
0
  6
Continuous
 62
     7
370
    25
100
AcDbLine
 10
99.6969500204
 20
202.3227929131
 30
0.0
 11
100.1969501023
 21
201.8227928312
 31
0.0
  0
LINE
  5
1B7
330
1F
100
AcDbEntity
  8
0
  6
Continuous
 62
     7
370
    25
100
AcDbLine
 10
99.6969500204
 20
226.3227931218
 30
0.0
 11
95.6969493647
 21
226.3227931218
 31
0.0
  0
LINE
  5
1B8
330
1F
100
AcDbEntity
  8
0
  6
Continuous
 62
     7
370
    25
100
AcDbLine
 10
95.6969493647
 20
226.8227932037
 30
0.0
 11
95.6969493647
 21
226.3227931218
 31
0.0
  0
LINE
  5
1B9
330
1F
100
AcDbEntity
  8
0
  6
Continuous
 62
     7
370
    25
100
AcDbLine
 10
95.6969493647
 20
226.8227932037
 30
0.0
 11
100.1969501023
 21
226.8227932037
 31
0.0
  0
LINE
  5
1BA
330
1F
100
AcDbEntity
  8
0
  6
Continuous
 62
     7
370
    25
100
AcDbLine
 10
95.6969493647
 20
202.3227929131
 30
0.0
 11
99.6969500204
 21
202.3227929131
 31
0.0
  0
LINE
  5
1BB
330
1F
100
AcDbEntity
  8
0
  6
Continuous
 62
     7
370
    25
100
AcDbLine
 10
95.6969493647
 20
202.3227929131
 30
0.0
 11
95.6969493647
 21
201.8227928312
 31
0.0
  0
LINE
  5
1BC
330
1F
100
AcDbEntity
  8
0
  6
Continuous
 62
     7
370
    25
100
AcDbLine
 10
100.1969501023
 20
201.8227928312
 30
0.0
 11
95.6969493647
 21
201.8227928312
 31
0.0
  0
LINE
  5
1BD
330
1F
100
AcDbEntity
  8
0
  6
Continuous
 62
     7
370
    25
100
AcDbLine
 10
95.6969493647
 20
226.3227931218
 30
0.0
 11
53.6969517936
 21
226.3227931218
 31
0.0
  0
LINE
  5
1BE
330
1F
100
AcDbEntity
  8
0
  6
Continuous
 62
     7
370
    25
100
AcDbLine
 10
53.6969517936
 20
226.8227932037
 30
0.0
 11
53.6969517936
 21
226.3227931218
 31
0.0
  0
LINE
  5
1BF
330
1F
100
AcDbEntity
  8
0
  6
Continuous
 62
     7
370
    25
100
AcDbLine
 10
53.6969517936
 20
226.8227932037
 30
0.0
 11
95.6969493647
 21
226.8227932037
 31
0.0
  0
LINE
  5
1C0
330
1F
100
AcDbEntity
  8
0
  6
Continuous
 62
     7
370
    25
100
AcDbLine
 10
53.6969517936
 20
202.3227929131
 30
0.0
 11
95.6969493647
 21
202.3227929131
 31
0.0
  0
LINE
  5
1C1
330
1F
100
AcDbEntity
  8
0
  6
Continuous
 62
     7
370
    25
100
AcDbLine
 10
53.6969517936
 20
226.3227931218
 30
0.0
 11
53.6969517936
 21
202.3227929131
 31
0.0
  0
LINE
  5
1C2
330
1F
100
AcDbEntity
  8
0
  6
Continuous
 62
     7
370
    25
100
AcDbLine
 10
53.1969507803
 20
226.3227931218
 30
0.0
 11
53.6969517936
 21
226.3227931218
 31
0.0
  0
LINE
  5
1C3
330
1F
100
AcDbEntity
  8
0
  6
Continuous
 62
     7
370
    25
100
AcDbLine
 10
53.6969517936
 20
226.8227932037
 30
0.0
 11
53.1969507803
 21
226.3227931218
 31
0.0
  0
LINE
  5
1C4
330
1F
100
AcDbEntity
  8
0
  6
Continuous
 62
     7
370
    25
100
AcDbLine
 10
53.1969507803
 20
202.3227929131
 30
0.0
 11
53.1969507803
 21
226.3227931218
 31
0.0
  0
LINE
  5
1C5
330
1F
100
AcDbEntity
  8
0
  6
Continuous
 62
     7
370
    25
100
AcDbLine
 10
53.1969507803
 20
202.3227929131
 30
0.0
 11
53.6969517936
 21
202.3227929131
 31
0.0
  0
LINE
  5
1C6
330
1F
100
AcDbEntity
  8
0
  6
Continuous
 62
     7
370
    25
100
AcDbLine
 10
53.6969517936
 20
202.3227929131
 30
0.0
 11
53.6969517936
 21
201.8227928312
 31
0.0
  0
LINE
  5
1C7
330
1F
100
AcDbEntity
  8
0
  6
Continuous
 62
     7
370
    25
100
AcDbLine
 10
95.6969493647
 20
201.8227928312
 30
0.0
 11
53.6969517936
 21
201.8227928312
 31
0.0
  0
LINE
  5
1C8
330
1F
100
AcDbEntity
  8
0
  6
Continuous
 62
     7
370
    25
100
AcDbLine
 10
53.1969507803
 20
202.3227929131
 30
0.0
 11
53.6969517936
 21
201.8227928312
 31
0.0
  0
LINE
  5
1C9
330
1F
100
AcDbEntity
  8
0
  6
Continuous
 62
     7
370
    25
100
AcDbLine
 10
111.6969501247
 20
226.8227932037
 30
0.0
 11
115.1969502327
 21
226.8227932037
 31
0.0
  0
LINE
  5
1CA
330
1F
100
AcDbEntity
  8
0
  6
Continuous
 62
     7
370
    25
100
AcDbLine
 10
115.1969502327
 20
226.8227932037
 30
0.0
 11
115.1969502327
 21
226.3227931218
 31
0.0
  0
LINE
  5
1CB
330
1F
100
AcDbEntity
  8
0
  6
Continuous
 62
     7
370
    25
100
AcDbLine
 10
115.1969502327
 20
226.3227931218
 30
0.0
 11
111.6969501247
 21
226.3227931218
 31
0.0
  0
LINE
  5
1CC
330
1F
100
AcDbEntity
  8
0
  6
Continuous
 62
     7
370
    25
100
AcDbLine
 10
111.6969501247
 20
226.3227931218
 30
0.0
 11
111.6969501247
 21
226.8227932037
 31
0.0
  0
LINE
  5
1CD
330
1F
100
AcDbEntity
  8
0
  6
Continuous
 62
     7
370
    25
100
AcDbLine
 10
115.6969503147
 20
226.3227931218
 30
0.0
 11
115.6969503147
 21
202.3227929131
 31
0.0
  0
LINE
  5
1CE
330
1F
100
AcDbEntity
  8
0
  6
Continuous
 62
     7
370
    25
100
AcDbLine
 10
115.6969503147
 20
202.3227929131
 30
0.0
 11
115.1969502327
 21
202.3227929131
 31
0.0
  0
LINE
  5
1CF
330
1F
100
AcDbEntity
  8
0
  6
Continuous
 62
     7
370
    25
100
AcDbLine
 10
115.1969502327
 20
202.3227929131
 30
0.0
 11
115.1969502327
 21
226.3227931218
 31
0.0
  0
LINE
  5
1D0
330
1F
100
AcDbEntity
  8
0
  6
Continuous
 62
     7
370
    25
100
AcDbLine
 10
115.6969503147
 20
226.3227931218
 30
0.0
 11
115.1969502327
 21
226.3227931218
 31
0.0
  0
LINE
  5
1D1
330
1F
100
AcDbEntity
  8
0
  6
Continuous
 62
     7
370
    25
100
AcDbLine
 10
115.6969503147
 20
226.3227931218
 30
0.0
 11
115.1969502327
 21
226.8227932037
 31
0.0
  0
LINE
  5
1D2
330
1F
100
AcDbEntity
  8
0
  6
Continuous
 62
     7
370
    25
100
AcDbLine
 10
111.6969501247
 20
202.3227929131
 30
0.0
 11
115.1969502327
 21
202.3227929131
 31
0.0
  0
LINE
  5
1D3
330
1F
100
AcDbEntity
  8
0
  6
Continuous
 62
     7
370
    25
100
AcDbLine
 10
111.6969501247
 20
202.3227929131
 30
0.0
 11
111.6969501247
 21
226.3227931218
 31
0.0
  0
LINE
  5
1D4
330
1F
100
AcDbEntity
  8
0
  6
Continuous
 62
     7
370
    25
100
AcDbLine
 10
115.1969502327
 20
201.8227928312
 30
0.0
 11
111.6969501247
 21
201.8227928312
 31
0.0
  0
LINE
  5
1D5
330
1F
100
AcDbEntity
  8
0
  6
Continuous
 62
     7
370
    25
100
AcDbLine
 10
115.1969502327
 20
201.8227928312
 30
0.0
 11
115.1969502327
 21
202.3227929131
 31
0.0
  0
LINE
  5
1D6
330
1F
100
AcDbEntity
  8
0
  6
Continuous
 62
     7
370
    25
100
AcDbLine
 10
111.6969501247
 20
201.8227928312
 30
0.0
 11
111.6969501247
 21
202.3227929131
 31
0.0
  0
LINE
  5
1D7
330
1F
100
AcDbEntity
  8
0
  6
Continuous
 62
     7
370
    25
100
AcDbLine
 10
115.1969502327
 20
201.8227928312
 30
0.0
 11
115.6969503147
 21
202.3227929131
 31
0.0
  0
LINE
  5
1D8
330
1F
100
AcDbEntity
  8
0
  6
Continuous
 62
     7
370
    25
100
AcDbLine
 10
119.6969505047
 20
226.3227931218
 30
0.0
 11
115.6969503147
 21
226.3227931218
 31
0.0
  0
LINE
  5
1D9
330
1F
100
AcDbEntity
  8
0
  6
Continuous
 62
     7
370
    25
100
AcDbLine
 10
119.6969505047
 20
226.3227931218
 30
0.0
 11
119.6969505047
 21
226.8227932037
 31
0.0
  0
LINE
  5
1DA
330
1F
100
AcDbEntity
  8
0
  6
Continuous
 62
     7
370
    25
100
AcDbLine
 10
115.1969502327
 20
226.8227932037
 30
0.0
 11
119.6969505047
 21
226.8227932037
 31
0.0
  0
LINE
  5
1DB
330
1F
100
AcDbEntity
  8
0
  6
Continuous
 62
     7
370
    25
100
AcDbLine
 10
115.6969503147
 20
202.3227929131
 30
0.0
 11
119.6969505047
 21
202.3227929131
 31
0.0
  0
LINE
  5
1DC
330
1F
100
AcDbEntity
  8
0
  6
Continuous
 62
     7
370
    25
100
AcDbLine
 10
119.6969505047
 20
201.8227928312
 30
0.0
 11
119.6969505047
 21
202.3227929131
 31
0.0
  0
LINE
  5
1DD
330
1F
100
AcDbEntity
  8
0
  6
Continuous
 62
     7
370
    25
100
AcDbLine
 10
119.6969505047
 20
201.8227928312
 30
0.0
 11
115.1969502327
 21
201.8227928312
 31
0.0
  0
LINE
  5
1DE
330
1F
100
AcDbEntity
  8
0
  6
Continuous
 62
     7
370
    25
100
AcDbLine
 10
161.6969508697
 20
226.3227931218
 30
0.0
 11
119.6969505047
 21
226.3227931218
 31
0.0
  0
LINE
  5
1DF
330
1F
100
AcDbEntity
  8
0
  6
Continuous
 62
     7
370
    25
100
AcDbLine
 10
161.6969508697
 20
226.3227931218
 30
0.0
 11
161.6969508697
 21
226.8227932037
 31
0.0
  0
LINE
  5
1E0
330
1F
100
AcDbEntity
  8
0
  6
Continuous
 62
     7
370
    25
100
AcDbLine
 10
119.6969505047
 20
226.8227932037
 30
0.0
 11
161.6969508697
 21
226.8227932037
 31
0.0
  0
LINE
  5
1E1
330
1F
100
AcDbEntity
  8
0
  6
Continuous
 62
     7
370
    25
100
AcDbLine
 10
119.6969505047
 20
202.3227929131
 30
0.0
 11
161.6969508697
 21
202.3227929131
 31
0.0
  0
LINE
  5
1E2
330
1F
100
AcDbEntity
  8
0
  6
Continuous
 62
     7
370
    25
100
AcDbLine
 10
161.6969508697
 20
202.3227929131
 30
0.0
 11
161.6969508697
 21
226.3227931218
 31
0.0
  0
LINE
  5
1E3
330
1F
100
AcDbEntity
  8
0
  6
Continuous
 62
     7
370
    25
100
AcDbLine
 10
162.196951883
 20
226.3227931218
 30
0.0
 11
161.6969508697
 21
226.8227932037
 31
0.0
  0
LINE
  5
1E4
330
1F
100
AcDbEntity
  8
0
  6
Continuous
 62
     7
370
    25
100
AcDbLine
 10
162.196951883
 20
226.3227931218
 30
0.0
 11
161.6969508697
 21
226.3227931218
 31
0.0
  0
LINE
  5
1E5
330
1F
100
AcDbEntity
  8
0
  6
Continuous
 62
     7
370
    25
100
AcDbLine
 10
162.196951883
 20
226.3227931218
 30
0.0
 11
162.196951883
 21
202.3227929131
 31
0.0
  0
LINE
  5
1E6
330
1F
100
AcDbEntity
  8
0
  6
Continuous
 62
     7
370
    25
100
AcDbLine
 10
162.196951883
 20
202.3227929131
 30
0.0
 11
161.6969508697
 21
202.3227929131
 31
0.0
  0
LINE
  5
1E7
330
1F
100
AcDbEntity
  8
0
  6
Continuous
 62
     7
370
    25
100
AcDbLine
 10
161.6969508697
 20
201.8227928312
 30
0.0
 11
161.6969508697
 21
202.3227929131
 31
0.0
  0
LINE
  5
1E8
330
1F
100
AcDbEntity
  8
0
  6
Continuous
 62
     7
370
    25
100
AcDbLine
 10
161.6969508697
 20
201.8227928312
 30
0.0
 11
119.6969505047
 21
201.8227928312
 31
0.0
  0
LINE
  5
1E9
330
1F
100
AcDbEntity
  8
0
  6
Continuous
 62
     7
370
    25
100
AcDbLine
 10
161.6969508697
 20
201.8227928312
 30
0.0
 11
162.196951883
 21
202.3227929131
 31
0.0
  0
CIRCLE
  5
1EA
330
1F
100
AcDbEntity
  8
0
  6
Continuous
 62
     7
370
    25
100
AcDbCircle
 10
68.6969501247
 20
214.3227930175
 30
0.0
 40
10.99999999999999
  0
CIRCLE
  5
1EB
330
1F
100
AcDbEntity
  8
0
  6
Continuous
 62
     7
370
    25
100
AcDbCircle
 10
68.6969501247
 20
214.3227930175
 30
0.0
 40
10.8
  0
LINE
  5
1EC
330
1F
100
AcDbEntity
  8
0
  6
Continuous
 62
     7
370
    25
100
AcDbLine
 10
70.9495646526
 20
214.8317660432
 30
0.0
 11
69.3824728598
 21
216.5281024755
 31
0.0
  0
LINE
  5
1ED
330
1F
100
AcDbEntity
  8
0
  6
Continuous
 62
     7
370
    25
100
AcDbLine
 10
69.3824728598
 20
216.5281024755
 30
0.0
 11
67.1298568716
 21
216.0191293334
 31
0.0
  0
LINE
  5
1EE
330
1F
100
AcDbEntity
  8
0
  6
Continuous
 62
     7
370
    25
100
AcDbLine
 10
67.1298568716
 20
216.0191293334
 30
0.0
 11
66.4443326761
 21
213.8138199917
 31
0.0
  0
LINE
  5
1EF
330
1F
100
AcDbEntity
  8
0
  6
Continuous
 62
     7
370
    25
100
AcDbLine
 10
66.4443326761
 20
213.8138199917
 30
0.0
 11
68.0114244689
 21
212.1174835594
 31
0.0
  0
LINE
  5
1F0
330
1F
100
AcDbEntity
  8
0
  6
Continuous
 62
     7
370
    25
100
AcDbLine
 10
68.0114244689
 20
212.1174835594
 30
0.0
 11
70.2640404572
 21
212.6264567015
 31
0.0
  0
LINE
  5
1F1
330
1F
100
AcDbEntity
  8
0
  6
Continuous
 62
     7
370
    25
100
AcDbLine
 10
70.2640404572
 20
212.6264567015
 30
0.0
 11
70.9495646526
 21
214.8317660432
 31
0.0
  0
LINE
  5
1F2
330
1F
100
AcDbEntity
  8
0
  6
Continuous
 62
     7
370
    25
100
AcDbLine
 10
95.3969498743
 20
225.3227929579
 30
0.0
 11
95.3969498743
 21
203.3227930771
 31
0.0
  0
LINE
  5
1F3
330
1F
100
AcDbEntity
  8
0
  6
Continuous
 62
     7
370
    25
100
AcDbLine
 10
95.1969502141
 20
203.5227927373
 30
0.0
 11
95.1969502141
 21
225.1227932976
 31
0.0
  0
LINE
  5
1F4
330
1F
100
AcDbEntity
  8
0
  6
Continuous
 62
     7
370
    25
100
AcDbLine
 10
99.4969503601
 20
203.3227930771
 30
0.0
 11
99.4969503601
 21
225.3227929579
 31
0.0
  0
LINE
  5
1F5
330
1F
100
AcDbEntity
  8
0
  6
Continuous
 62
     7
370
    25
100
AcDbLine
 10
105.4969499466
 20
210.3227928275
 30
0.0
 11
105.4969499466
 21
218.3227932074
 31
0.0
  0
LINE
  5
1F6
330
1F
100
AcDbEntity
  8
0
  6
Continuous
 62
     7
370
    25
100
AcDbLine
 10
115.8969499749
 20
225.3227929579
 30
0.0
 11
115.8969499749
 21
203.3227930771
 31
0.0
  0
LINE
  5
1F7
330
1F
100
AcDbEntity
  8
0
  6
Continuous
 62
     7
370
    25
100
AcDbLine
 10
119.996949995
 20
203.3227930771
 30
0.0
 11
119.996949995
 21
225.3227929579
 31
0.0
  0
LINE
  5
1F8
330
1F
100
AcDbEntity
  8
0
  6
Continuous
 62
     7
370
    25
100
AcDbLine
 10
120.1969505866
 20
225.1227932976
 30
0.0
 11
120.1969505866
 21
203.5227927373
 31
0.0
  0
LINE
  5
1F9
330
1F
100
AcDbEntity
  8
0
  6
Continuous
 62
     7
370
    25
100
AcDbLine
 10
109.8969501556
 20
218.3227932074
 30
0.0
 11
109.8969501556
 21
210.3227928275
 31
0.0
  0
CIRCLE
  5
1FA
330
1F
100
AcDbEntity
  8
0
  6
Continuous
 62
     7
370
    25
100
AcDbCircle
 10
146.6969501247
 20
214.3227930175
 30
0.0
 40
11.0
  0
CIRCLE
  5
1FB
330
1F
100
AcDbEntity
  8
0
  6
Continuous
 62
     7
370
    25
100
AcDbCircle
 10
146.6969501247
 20
214.3227930175
 30
0.0
 40
10.80000000000001
  0
LINE
  5
1FC
330
1F
100
AcDbEntity
  8
0
  6
Continuous
 62
     7
370
    25
100
AcDbLine
 10
147.205921786
 20
212.0701767964
 30
0.0
 11
148.9022588005
 21
213.6372684728
 31
0.0
  0
LINE
  5
1FD
330
1F
100
AcDbEntity
  8
0
  6
Continuous
 62
     7
370
    25
100
AcDbLine
 10
145.0006132593
 20
212.755701341
 30
0.0
 11
147.205921786
 21
212.0701767964
 31
0.0
  0
LINE
  5
1FE
330
1F
100
AcDbEntity
  8
0
  6
Continuous
 62
     7
370
    25
100
AcDbLine
 10
146.1879787614
 20
216.5754092385
 30
0.0
 11
144.4916417469
 21
215.0083175621
 31
0.0
  0
LINE
  5
1FF
330
1F
100
AcDbEntity
  8
0
  6
Continuous
 62
     7
370
    25
100
AcDbLine
 10
148.9022588005
 20
213.6372684728
 30
0.0
 11
148.3932872881
 21
215.8898846939
 31
0.0
  0
LINE
  5
200
330
1F
100
AcDbEntity
  8
0
  6
Continuous
 62
     7
370
    25
100
AcDbLine
 10
144.4916417469
 20
215.0083175621
 30
0.0
 11
145.0006132593
 21
212.755701341
 31
0.0
  0
LINE
  5
201
330
1F
100
AcDbEntity
  8
0
  6
Continuous
 62
     7
370
    25
100
AcDbLine
 10
148.3932872881
 20
215.8898846939
 30
0.0
 11
146.1879787614
 21
216.5754092385
 31
0.0
  0
CIRCLE
  5
202
330
1F
100
AcDbEntity
  8
0
  6
Continuous
 62
     7
370
    25
100
AcDbCircle
 10
68.6969501247
 20
214.3227930175
 30
0.0
 40
2.000000000000003
  0
CIRCLE
  5
203
330
1F
100
AcDbEntity
  8
0
  6
Continuous
 62
     7
370
    25
100
AcDbCircle
 10
146.6969501247
 20
214.3227930175
 30
0.0
 40
2.000000000000003
  0
LINE
  5
204
330
1F
100
AcDbEntity
  8
0
  6
Continuous
 62
     7
370
    25
100
AcDbLine
 10
109.6969500297
 20
209.3227931292
 30
0.0
 11
109.6969500297
 21
219.3227929057
 31
0.0
  0
LINE
  5
205
330
1F
100
AcDbEntity
  8
0
  6
Continuous
 62
     7
370
    25
100
AcDbLine
 10
105.6969500725
 20
209.3227931292
 30
0.0
 11
105.6969500725
 21
219.3227929057
 31
0.0
  0
LINE
  5
206
330
1F
100
AcDbEntity
  8
0
  6
Continuous
 62
     7
370
    25
100
AcDbLine
 10
104.6969499086
 20
206.2220142217
 30
0.0
 11
104.6969499086
 21
203.822793159
 31
0.0
  0
LINE
  5
207
330
1F
100
AcDbEntity
  8
0
  6
Continuous
 62
     7
370
    25
100
AcDbLine
 10
104.6969499086
 20
224.8227928759
 30
0.0
 11
104.6969499086
 21
206.2220142217
 31
0.0
  0
LINE
  5
208
330
1F
100
AcDbEntity
  8
0
  6
Continuous
 62
     7
370
    25
100
AcDbLine
 10
110.6969500772
 20
206.2220142217
 30
0.0
 11
110.6969500772
 21
203.822793159
 31
0.0
  0
LINE
  5
209
330
1F
100
AcDbEntity
  8
0
  6
Continuous
 62
     7
370
    25
100
AcDbLine
 10
110.6969500772
 20
224.8227928759
 30
0.0
 11
110.6969500772
 21
206.2220142217
 31
0.0
  0
LINE
  5
20A
330
1F
100
AcDbEntity
  8
0
  6
Continuous
 62
     8
370
    25
100
AcDbLine
 10
95.6969493647
 20
226.3227931218
 30
0.0
 11
95.6969493647
 21
225.3227929579
 31
0.0
  0
LINE
  5
20B
330
1F
100
AcDbEntity
  8
0
  6
Continuous
 62
     8
370
    25
100
AcDbLine
 10
95.6969493647
 20
203.3227930771
 30
0.0
 11
95.6969493647
 21
202.3227929131
 31
0.0
  0
LINE
  5
20C
330
1F
100
AcDbEntity
  8
0
  6
Continuous
 62
     8
370
    25
100
AcDbLine
 10
119.6969505047
 20
202.3227929131
 30
0.0
 11
119.6969505047
 21
203.3227930771
 31
0.0
  0
LINE
  5
20D
330
1F
100
AcDbEntity
  8
0
  6
Continuous
 62
     8
370
    25
100
AcDbLine
 10
119.6969505047
 20
225.3227929579
 30
0.0
 11
119.6969505047
 21
226.3227931218
 31
0.0
  0
LINE
  5
20E
330
1F
100
AcDbEntity
  8
0
  6
Continuous
 62
     7
370
    25
100
AcDbLine
 10
79.6969486048
 20
135.5022709742
 30
0.0
 11
79.6969486048
 21
139.6022711252
 31
0.0
  0
LINE
  5
20F
330
1F
100
AcDbEntity
  8
0
  6
Continuous
 62
     7
370
    25
100
AcDbLine
 10
57.696948724
 20
139.6022711252
 30
0.0
 11
57.696948724
 21
135.5022709742
 31
0.0
  0
LINE
  5
210
330
1F
100
AcDbEntity
  8
0
  6
Continuous
 62
     7
370
    25
100
AcDbLine
 10
79.6969486048
 20
139.6022711252
 30
0.0
 11
79.4969489445
 21
139.8022711202
 31
0.0
  0
LINE
  5
211
330
1F
100
AcDbEntity
  8
0
  6
Continuous
 62
     7
370
    25
100
AcDbLine
 10
57.8969483842
 20
139.8022711202
 30
0.0
 11
57.696948724
 21
139.6022711252
 31
0.0
  0
LINE
  5
212
330
1F
100
AcDbEntity
  8
0
  6
Continuous
 62
     7
370
    25
100
AcDbLine
 10
57.696948724
 20
135.5022709742
 30
0.0
 11
57.8969483842
 21
135.3022713139
 31
0.0
  0
LINE
  5
213
330
1F
100
AcDbEntity
  8
0
  6
Continuous
 62
     7
370
    25
100
AcDbLine
 10
79.4969489445
 20
135.3022713139
 30
0.0
 11
79.6969486048
 21
135.5022709742
 31
0.0
  0
LINE
  5
214
330
1F
100
AcDbEntity
  8
0
  6
Continuous
 62
     7
370
    25
100
AcDbLine
 10
72.69694932
 20
145.6022710464
 30
0.0
 11
72.4969496598
 21
145.8022711723
 31
0.0
  0
LINE
  5
215
330
1F
100
AcDbEntity
  8
0
  6
Continuous
 62
     7
370
    25
100
AcDbLine
 10
64.8969513943
 20
145.8022711723
 30
0.0
 11
64.696951734
 21
145.6022710464
 31
0.0
  0
LINE
  5
216
330
1F
100
AcDbEntity
  8
0
  6
Continuous
 62
     7
370
    25
100
AcDbLine
 10
72.69694932
 20
144.8022710084
 30
0.0
 11
72.69694932
 21
145.6022710464
 31
0.0
  0
LINE
  5
217
330
1F
100
AcDbEntity
  8
0
  6
Continuous
 62
     7
370
    25
100
AcDbLine
 10
64.696951734
 20
145.6022710464
 30
0.0
 11
64.696951734
 21
144.8022710084
 31
0.0
  0
LINE
  5
218
330
1F
100
AcDbEntity
  8
0
  6
Continuous
 62
     7
370
    25
100
AcDbLine
 10
95.3969498743
 20
97.8022716864
 30
0.0
 11
99.4969503601
 21
97.8022716864
 31
0.0
  0
LINE
  5
219
330
1F
100
AcDbEntity
  8
0
  6
Continuous
 62
     7
370
    25
100
AcDbLine
 10
99.4969503601
 20
119.8022715672
 30
0.0
 11
95.3969498743
 21
119.8022715672
 31
0.0
  0
LINE
  5
21A
330
1F
100
AcDbEntity
  8
0
  6
Continuous
 62
     7
370
    25
100
AcDbLine
 10
99.4969503601
 20
97.8022716864
 30
0.0
 11
99.6969500204
 21
98.0022713467
 31
0.0
  0
LINE
  5
21B
330
1F
100
AcDbEntity
  8
0
  6
Continuous
 62
     7
370
    25
100
AcDbLine
 10
99.6969500204
 20
119.602271907
 30
0.0
 11
99.4969503601
 21
119.8022715672
 31
0.0
  0
LINE
  5
21C
330
1F
100
AcDbEntity
  8
0
  6
Continuous
 62
     7
370
    25
100
AcDbLine
 10
95.3969498743
 20
119.8022715672
 30
0.0
 11
95.1969502141
 21
119.602271907
 31
0.0
  0
LINE
  5
21D
330
1F
100
AcDbEntity
  8
0
  6
Continuous
 62
     7
370
    25
100
AcDbLine
 10
95.1969502141
 20
98.0022713467
 30
0.0
 11
95.3969498743
 21
97.8022716864
 31
0.0
  0
LINE
  5
21E
330
1F
100
AcDbEntity
  8
0
  6
Continuous
 62
     7
370
    25
100
AcDbLine
 10
104.6969499086
 20
104.8022709712
 30
0.0
 11
105.4969499466
 21
104.8022709712
 31
0.0
  0
LINE
  5
21F
330
1F
100
AcDbEntity
  8
0
  6
Continuous
 62
     7
370
    25
100
AcDbLine
 10
105.4969499466
 20
112.8022704198
 30
0.0
 11
104.6969499086
 21
112.8022704198
 31
0.0
  0
LINE
  5
220
330
1F
100
AcDbEntity
  8
0
  6
Continuous
 62
     7
370
    25
100
AcDbLine
 10
105.4969499466
 20
104.8022709712
 30
0.0
 11
105.6969500725
 21
105.0022706314
 31
0.0
  0
LINE
  5
221
330
1F
100
AcDbEntity
  8
0
  6
Continuous
 62
     7
370
    25
100
AcDbLine
 10
105.6969500725
 20
112.6022707596
 30
0.0
 11
105.4969499466
 21
112.8022704198
 31
0.0
  0
LINE
  5
222
330
1F
100
AcDbEntity
  8
0
  6
Continuous
 62
     7
370
    25
100
AcDbLine
 10
115.8969499749
 20
119.8022715672
 30
0.0
 11
115.6969503147
 21
119.602271907
 31
0.0
  0
LINE
  5
223
330
1F
100
AcDbEntity
  8
0
  6
Continuous
 62
     7
370
    25
100
AcDbLine
 10
115.6969503147
 20
98.0022713467
 30
0.0
 11
115.8969499749
 21
97.8022716864
 31
0.0
  0
LINE
  5
224
330
1F
100
AcDbEntity
  8
0
  6
Continuous
 62
     7
370
    25
100
AcDbLine
 10
119.996949995
 20
119.8022715672
 30
0.0
 11
115.8969499749
 21
119.8022715672
 31
0.0
  0
LINE
  5
225
330
1F
100
AcDbEntity
  8
0
  6
Continuous
 62
     7
370
    25
100
AcDbLine
 10
115.8969499749
 20
97.8022716864
 30
0.0
 11
119.996949995
 21
97.8022716864
 31
0.0
  0
LINE
  5
226
330
1F
100
AcDbEntity
  8
0
  6
Continuous
 62
     7
370
    25
100
AcDbLine
 10
119.996949995
 20
97.8022716864
 30
0.0
 11
120.1969505866
 21
98.0022713467
 31
0.0
  0
LINE
  5
227
330
1F
100
AcDbEntity
  8
0
  6
Continuous
 62
     7
370
    25
100
AcDbLine
 10
120.1969505866
 20
119.602271907
 30
0.0
 11
119.996949995
 21
119.8022715672
 31
0.0
  0
LINE
  5
228
330
1F
100
AcDbEntity
  8
0
  6
Continuous
 62
     7
370
    25
100
AcDbLine
 10
109.8969501556
 20
112.8022704198
 30
0.0
 11
109.6969500297
 21
112.6022707596
 31
0.0
  0
LINE
  5
229
330
1F
100
AcDbEntity
  8
0
  6
Continuous
 62
     7
370
    25
100
AcDbLine
 10
109.6969500297
 20
105.0022706314
 30
0.0
 11
109.8969501556
 21
104.8022709712
 31
0.0
  0
LINE
  5
22A
330
1F
100
AcDbEntity
  8
0
  6
Continuous
 62
     7
370
    25
100
AcDbLine
 10
110.6969500772
 20
112.8022704198
 30
0.0
 11
109.8969501556
 21
112.8022704198
 31
0.0
  0
LINE
  5
22B
330
1F
100
AcDbEntity
  8
0
  6
Continuous
 62
     7
370
    25
100
AcDbLine
 10
109.8969501556
 20
104.8022709712
 30
0.0
 11
110.6969500772
 21
104.8022709712
 31
0.0
  0
LINE
  5
22C
330
1F
100
AcDbEntity
  8
0
  6
Continuous
 62
     7
370
    25
100
AcDbLine
 10
157.6969502141
 20
139.6022711252
 30
0.0
 11
157.4969505538
 21
139.8022711202
 31
0.0
  0
LINE
  5
22D
330
1F
100
AcDbEntity
  8
0
  6
Continuous
 62
     7
370
    25
100
AcDbLine
 10
135.8969499936
 20
139.8022711202
 30
0.0
 11
135.6969503333
 21
139.6022711252
 31
0.0
  0
LINE
  5
22E
330
1F
100
AcDbEntity
  8
0
  6
Continuous
 62
     7
370
    25
100
AcDbLine
 10
157.6969502141
 20
135.5022709742
 30
0.0
 11
157.6969502141
 21
139.6022711252
 31
0.0
  0
LINE
  5
22F
330
1F
100
AcDbEntity
  8
0
  6
Continuous
 62
     7
370
    25
100
AcDbLine
 10
135.6969503333
 20
139.6022711252
 30
0.0
 11
135.6969503333
 21
135.5022709742
 31
0.0
  0
LINE
  5
230
330
1F
100
AcDbEntity
  8
0
  6
Continuous
 62
     7
370
    25
100
AcDbLine
 10
135.6969503333
 20
135.5022709742
 30
0.0
 11
135.8969499936
 21
135.3022713139
 31
0.0
  0
LINE
  5
231
330
1F
100
AcDbEntity
  8
0
  6
Continuous
 62
     7
370
    25
100
AcDbLine
 10
157.4969505538
 20
135.3022713139
 30
0.0
 11
157.6969502141
 21
135.5022709742
 31
0.0
  0
LINE
  5
232
330
1F
100
AcDbEntity
  8
0
  6
Continuous
 62
     7
370
    25
100
AcDbLine
 10
150.6969509294
 20
145.6022710464
 30
0.0
 11
150.4969512691
 21
145.8022711723
 31
0.0
  0
LINE
  5
233
330
1F
100
AcDbEntity
  8
0
  6
Continuous
 62
     7
370
    25
100
AcDbLine
 10
142.8969492783
 20
145.8022711723
 30
0.0
 11
142.696949618
 21
145.6022710464
 31
0.0
  0
LINE
  5
234
330
1F
100
AcDbEntity
  8
0
  6
Continuous
 62
     7
370
    25
100
AcDbLine
 10
150.6969509294
 20
144.8022710084
 30
0.0
 11
150.6969509294
 21
145.6022710464
 31
0.0
  0
LINE
  5
235
330
1F
100
AcDbEntity
  8
0
  6
Continuous
 62
     7
370
    25
100
AcDbLine
 10
142.696949618
 20
145.6022710464
 30
0.0
 11
142.696949618
 21
144.8022710084
 31
0.0
  0
LINE
  5
236
330
1F
100
AcDbEntity
  8
0
  6
Continuous
 62
     7
370
    25
100
AcDbLine
 10
109.6969500297
 20
113.8022705837
 30
0.0
 11
105.6969500725
 21
113.8022705837
 31
0.0
  0
LINE
  5
237
330
1F
100
AcDbEntity
  8
0
  6
Continuous
 62
     7
370
    25
100
AcDbLine
 10
105.6969500725
 20
103.8022726699
 30
0.0
 11
109.6969500297
 21
103.8022726699
 31
0.0
  0
LINE
  5
238
330
1F
100
AcDbEntity
  8
0
  6
Continuous
 62
     7
370
    25
100
AcDbLine
 10
141.6969494541
 20
149.8022708967
 30
0.0
 11
141.6969494541
 21
145.8022711723
 31
0.0
  0
LINE
  5
239
330
1F
100
AcDbEntity
  8
0
  6
Continuous
 62
     7
370
    25
100
AcDbLine
 10
151.6969492306
 20
145.8022711723
 30
0.0
 11
151.6969492306
 21
149.8022708967
 31
0.0
  0
LINE
  5
23A
330
1F
100
AcDbEntity
  8
0
  6
Continuous
 62
     7
370
    25
100
AcDbLine
 10
63.6969497075
 20
149.8022708967
 30
0.0
 11
63.6969497075
 21
145.8022711723
 31
0.0
  0
LINE
  5
23B
330
1F
100
AcDbEntity
  8
0
  6
Continuous
 62
     7
370
    25
100
AcDbLine
 10
73.6969513466
 20
145.8022711723
 30
0.0
 11
73.6969513466
 21
149.8022708967
 31
0.0
  0
LINE
  5
23C
330
1F
100
AcDbEntity
  8
0
  6
Continuous
 62
     7
370
    25
100
AcDbLine
 10
136.1969494839
 20
144.8022710084
 30
0.0
 11
136.1969494839
 21
143.8022713102
 31
0.0
  0
LINE
  5
23D
330
1F
100
AcDbEntity
  8
0
  6
Continuous
 62
     7
370
    25
100
AcDbLine
 10
157.1969492008
 20
143.8022713102
 30
0.0
 11
157.1969492008
 21
144.8022710084
 31
0.0
  0
LINE
  5
23E
330
1F
100
AcDbEntity
  8
0
  6
Continuous
 62
     7
370
    25
100
AcDbLine
 10
136.1969494839
 20
151.8022712245
 30
0.0
 11
136.1969494839
 21
150.8022710606
 31
0.0
  0
LINE
  5
23F
330
1F
100
AcDbEntity
  8
0
  6
Continuous
 62
     7
370
    25
100
AcDbLine
 10
157.1969492008
 20
150.8022710606
 30
0.0
 11
157.1969492008
 21
151.8022712245
 31
0.0
  0
LINE
  5
240
330
1F
100
AcDbEntity
  8
0
  6
Continuous
 62
     7
370
    25
100
AcDbLine
 10
58.1969497373
 20
151.8022712245
 30
0.0
 11
58.1969497373
 21
150.8022710606
 31
0.0
  0
LINE
  5
241
330
1F
100
AcDbEntity
  8
0
  6
Continuous
 62
     7
370
    25
100
AcDbLine
 10
79.1969513168
 20
150.8022710606
 30
0.0
 11
79.1969513168
 21
151.8022712245
 31
0.0
  0
LINE
  5
242
330
1F
100
AcDbEntity
  8
0
  6
Continuous
 62
     7
370
    25
100
AcDbLine
 10
58.1969497373
 20
144.8022710084
 30
0.0
 11
58.1969497373
 21
143.8022713102
 31
0.0
  0
LINE
  5
243
330
1F
100
AcDbEntity
  8
0
  6
Continuous
 62
     7
370
    25
100
AcDbLine
 10
79.1969513168
 20
143.8022713102
 30
0.0
 11
79.1969513168
 21
144.8022710084
 31
0.0
  0
LINE
  5
244
330
1F
100
AcDbEntity
  8
0
  6
Continuous
 62
     7
370
    25
100
AcDbLine
 10
103.6969497447
 20
98.3022726997
 30
0.0
 11
104.6969499086
 21
98.3022726997
 31
0.0
  0
LINE
  5
245
330
1F
100
AcDbEntity
  8
0
  6
Continuous
 62
     7
370
    25
100
AcDbLine
 10
104.6969499086
 20
119.3022705539
 30
0.0
 11
103.6969497447
 21
119.3022705539
 31
0.0
  0
LINE
  5
246
330
1F
100
AcDbEntity
  8
0
  6
Continuous
 62
     7
370
    25
100
AcDbLine
 10
110.6969500772
 20
98.3022726997
 30
0.0
 11
111.6969501247
 21
98.3022726997
 31
0.0
  0
LINE
  5
247
330
1F
100
AcDbEntity
  8
0
  6
Continuous
 62
     7
370
    25
100
AcDbLine
 10
111.6969501247
 20
119.3022705539
 30
0.0
 11
110.6969500772
 21
119.3022705539
 31
0.0
  0
LINE
  5
248
330
1F
100
AcDbEntity
  8
0
  6
Continuous
 62
     7
370
    25
100
AcDbLine
 10
157.6969502141
 20
156.1022713705
 30
0.0
 11
157.4969505538
 21
156.3022710308
 31
0.0
  0
LINE
  5
249
330
1F
100
AcDbEntity
  8
0
  6
Continuous
 62
     7
370
    25
100
AcDbLine
 10
135.8969499936
 20
156.3022710308
 30
0.0
 11
135.6969503333
 21
156.1022713705
 31
0.0
  0
LINE
  5
24A
330
1F
100
AcDbEntity
  8
0
  6
Continuous
 62
     7
370
    25
100
AcDbLine
 10
135.6969503333
 20
156.1022713705
 30
0.0
 11
135.6969503333
 21
151.8022712245
 31
0.0
  0
LINE
  5
24B
330
1F
100
AcDbEntity
  8
0
  6
Continuous
 62
     7
370
    25
100
AcDbLine
 10
157.6969502141
 20
151.8022712245
 30
0.0
 11
157.6969502141
 21
156.1022713705
 31
0.0
  0
LINE
  5
24C
330
1F
100
AcDbEntity
  8
0
  6
Continuous
 62
     7
370
    25
100
AcDbLine
 10
142.696949618
 20
150.8022710606
 30
0.0
 11
142.696949618
 21
149.8022708967
 31
0.0
  0
LINE
  5
24D
330
1F
100
AcDbEntity
  8
0
  6
Continuous
 62
     7
370
    25
100
AcDbLine
 10
150.6969509294
 20
149.8022708967
 30
0.0
 11
150.6969509294
 21
150.8022710606
 31
0.0
  0
LINE
  5
24E
330
1F
100
AcDbEntity
  8
0
  6
Continuous
 62
     7
370
    25
100
AcDbLine
 10
57.696948724
 20
156.1022713705
 30
0.0
 11
57.696948724
 21
151.8022712245
 31
0.0
  0
LINE
  5
24F
330
1F
100
AcDbEntity
  8
0
  6
Continuous
 62
     7
370
    25
100
AcDbLine
 10
79.6969486048
 20
151.8022712245
 30
0.0
 11
79.6969486048
 21
156.1022713705
 31
0.0
  0
LINE
  5
250
330
1F
100
AcDbEntity
  8
0
  6
Continuous
 62
     7
370
    25
100
AcDbLine
 10
79.6969486048
 20
156.1022713705
 30
0.0
 11
79.4969489445
 21
156.3022710308
 31
0.0
  0
LINE
  5
251
330
1F
100
AcDbEntity
  8
0
  6
Continuous
 62
     7
370
    25
100
AcDbLine
 10
57.8969483842
 20
156.3022710308
 30
0.0
 11
57.696948724
 21
156.1022713705
 31
0.0
  0
LINE
  5
252
330
1F
100
AcDbEntity
  8
0
  6
Continuous
 62
     7
370
    25
100
AcDbLine
 10
64.696951734
 20
150.8022710606
 30
0.0
 11
64.696951734
 21
149.8022708967
 31
0.0
  0
LINE
  5
253
330
1F
100
AcDbEntity
  8
0
  6
Continuous
 62
     7
370
    25
100
AcDbLine
 10
72.69694932
 20
149.8022708967
 30
0.0
 11
72.69694932
 21
150.8022710606
 31
0.0
  0
ARC
  5
254
330
1F
100
AcDbEntity
  8
0
  6
Continuous
 62
     7
370
    25
100
AcDbCircle
 10
95.6969501247
 20
135.8022711202
 30
0.0
 40
4.500000000000028
100
AcDbArc
 50
0.0
 51
90.0
  0
LINE
  5
255
330
1F
100
AcDbEntity
  8
0
  6
Continuous
 62
     7
370
    25
100
AcDbLine
 10
53.6969517936
 20
140.3022711439
 30
0.0
 11
95.6969493647
 21
140.3022711439
 31
0.0
  0
LINE
  5
256
330
1F
100
AcDbEntity
  8
0
  6
Continuous
 62
     7
370
    25
100
AcDbLine
 10
53.6969517936
 20
143.8022713102
 30
0.0
 11
53.6969517936
 21
140.3022711439
 31
0.0
  0
LINE
  5
257
330
1F
100
AcDbEntity
  8
0
  6
Continuous
 62
     7
370
    25
100
AcDbLine
 10
95.6969493647
 20
143.8022713102
 30
0.0
 11
53.6969517936
 21
143.8022713102
 31
0.0
  0
ARC
  5
258
330
1F
100
AcDbEntity
  8
0
  6
Continuous
 62
     7
370
    25
100
AcDbCircle
 10
95.6969501247
 20
135.8022711202
 30
0.0
 40
8.000000000000028
100
AcDbArc
 50
0.0
 51
90.0
  0
LINE
  5
259
330
1F
100
AcDbEntity
  8
0
  6
Continuous
 62
     7
370
    25
100
AcDbLine
 10
103.6969497447
 20
93.8022710308
 30
0.0
 11
103.6969497447
 21
135.8022709302
 31
0.0
  0
LINE
  5
25A
330
1F
100
AcDbEntity
  8
0
  6
Continuous
 62
     7
370
    25
100
AcDbLine
 10
100.1969501023
 20
93.8022710308
 30
0.0
 11
103.6969497447
 21
93.8022710308
 31
0.0
  0
LINE
  5
25B
330
1F
100
AcDbEntity
  8
0
  6
Continuous
 62
     7
370
    25
100
AcDbLine
 10
100.1969501023
 20
135.8022709302
 30
0.0
 11
100.1969501023
 21
93.8022710308
 31
0.0
  0
LINE
  5
25C
330
1F
100
AcDbEntity
  8
0
  6
Continuous
 62
     7
370
    25
100
AcDbLine
 10
53.6969517936
 20
140.3022711439
 30
0.0
 11
53.1969507803
 21
140.3022711439
 31
0.0
  0
LINE
  5
25D
330
1F
100
AcDbEntity
  8
0
  6
Continuous
 62
     7
370
    25
100
AcDbLine
 10
53.1969507803
 20
140.3022711439
 30
0.0
 11
53.1969507803
 21
143.8022713102
 31
0.0
  0
LINE
  5
25E
330
1F
100
AcDbEntity
  8
0
  6
Continuous
 62
     7
370
    25
100
AcDbLine
 10
53.1969507803
 20
143.8022713102
 30
0.0
 11
53.6969517936
 21
143.8022713102
 31
0.0
  0
LINE
  5
25F
330
1F
100
AcDbEntity
  8
0
  6
Continuous
 62
     7
370
    25
100
AcDbLine
 10
53.6969517936
 20
140.3022711439
 30
0.0
 11
53.6969517936
 21
139.8022711202
 31
0.0
  0
LINE
  5
260
330
1F
100
AcDbEntity
  8
0
  6
Continuous
 62
     7
370
    25
100
AcDbLine
 10
53.1969507803
 20
140.3022711439
 30
0.0
 11
53.6969517936
 21
139.8022711202
 31
0.0
  0
LINE
  5
261
330
1F
100
AcDbEntity
  8
0
  6
Continuous
 62
     7
370
    25
100
AcDbLine
 10
95.6969493647
 20
140.3022711439
 30
0.0
 11
95.6969493647
 21
139.8022711202
 31
0.0
  0
LINE
  5
262
330
1F
100
AcDbEntity
  8
0
  6
Continuous
 62
     7
370
    25
100
AcDbLine
 10
95.6969493647
 20
139.8022711202
 30
0.0
 11
53.6969517936
 21
139.8022711202
 31
0.0
  0
LINE
  5
263
330
1F
100
AcDbEntity
  8
0
  6
Continuous
 62
     7
370
    25
100
AcDbLine
 10
100.1969501023
 20
135.8022709302
 30
0.0
 11
99.6969500204
 21
135.8022709302
 31
0.0
  0
ARC
  5
264
330
1F
100
AcDbEntity
  8
0
  6
Continuous
 62
     7
370
    25
100
AcDbCircle
 10
95.6969501247
 20
135.8022711202
 30
0.0
 40
4.0
100
AcDbArc
 50
0.0
 51
90.0
  0
LINE
  5
265
330
1F
100
AcDbEntity
  8
0
  6
Continuous
 62
     7
370
    25
100
AcDbLine
 10
100.1969501023
 20
93.8022710308
 30
0.0
 11
99.6969500204
 21
93.8022710308
 31
0.0
  0
LINE
  5
266
330
1F
100
AcDbEntity
  8
0
  6
Continuous
 62
     7
370
    25
100
AcDbLine
 10
99.6969500204
 20
93.8022710308
 30
0.0
 11
99.6969500204
 21
135.8022709302
 31
0.0
  0
LINE
  5
267
330
1F
100
AcDbEntity
  8
0
  6
Continuous
 62
     7
370
    25
100
AcDbLine
 10
100.1969501023
 20
93.8022710308
 30
0.0
 11
100.1969501023
 21
93.3022700175
 31
0.0
  0
LINE
  5
268
330
1F
100
AcDbEntity
  8
0
  6
Continuous
 62
     7
370
    25
100
AcDbLine
 10
99.6969500204
 20
93.8022710308
 30
0.0
 11
100.1969501023
 21
93.3022700175
 31
0.0
  0
LINE
  5
269
330
1F
100
AcDbEntity
  8
0
  6
Continuous
 62
     7
370
    25
100
AcDbLine
 10
103.6969497447
 20
93.3022700175
 30
0.0
 11
100.1969501023
 21
93.3022700175
 31
0.0
  0
LINE
  5
26A
330
1F
100
AcDbEntity
  8
0
  6
Continuous
 62
     7
370
    25
100
AcDbLine
 10
103.6969497447
 20
93.8022710308
 30
0.0
 11
103.6969497447
 21
93.3022700175
 31
0.0
  0
LINE
  5
26B
330
1F
100
AcDbEntity
  8
0
  6
Continuous
 62
     7
370
    25
100
AcDbLine
 10
161.6969508697
 20
140.3022711439
 30
0.0
 11
161.6969508697
 21
143.8022713102
 31
0.0
  0
LINE
  5
26C
330
1F
100
AcDbEntity
  8
0
  6
Continuous
 62
     7
370
    25
100
AcDbLine
 10
161.6969508697
 20
143.8022713102
 30
0.0
 11
162.196951883
 21
143.8022713102
 31
0.0
  0
LINE
  5
26D
330
1F
100
AcDbEntity
  8
0
  6
Continuous
 62
     7
370
    25
100
AcDbLine
 10
162.196951883
 20
143.8022713102
 30
0.0
 11
162.196951883
 21
140.3022711439
 31
0.0
  0
LINE
  5
26E
330
1F
100
AcDbEntity
  8
0
  6
Continuous
 62
     7
370
    25
100
AcDbLine
 10
162.196951883
 20
140.3022711439
 30
0.0
 11
161.6969508697
 21
140.3022711439
 31
0.0
  0
LINE
  5
26F
330
1F
100
AcDbEntity
  8
0
  6
Continuous
 62
     7
370
    25
100
AcDbLine
 10
119.6969505047
 20
143.8022713102
 30
0.0
 11
161.6969508697
 21
143.8022713102
 31
0.0
  0
LINE
  5
270
330
1F
100
AcDbEntity
  8
0
  6
Continuous
 62
     7
370
    25
100
AcDbLine
 10
119.6969505047
 20
140.3022711439
 30
0.0
 11
161.6969508697
 21
140.3022711439
 31
0.0
  0
ARC
  5
271
330
1F
100
AcDbEntity
  8
0
  6
Continuous
 62
     7
370
    25
100
AcDbCircle
 10
119.6969501247
 20
135.8022711202
 30
0.0
 40
4.500000000000014
100
AcDbArc
 50
90.0
 51
180.0
  0
LINE
  5
272
330
1F
100
AcDbEntity
  8
0
  6
Continuous
 62
     7
370
    25
100
AcDbLine
 10
115.1969502327
 20
93.8022710308
 30
0.0
 11
115.1969502327
 21
135.8022709302
 31
0.0
  0
LINE
  5
273
330
1F
100
AcDbEntity
  8
0
  6
Continuous
 62
     7
370
    25
100
AcDbLine
 10
111.6969501247
 20
93.8022710308
 30
0.0
 11
115.1969502327
 21
93.8022710308
 31
0.0
  0
LINE
  5
274
330
1F
100
AcDbEntity
  8
0
  6
Continuous
 62
     7
370
    25
100
AcDbLine
 10
111.6969501247
 20
93.8022710308
 30
0.0
 11
111.6969501247
 21
135.8022709302
 31
0.0
  0
ARC
  5
275
330
1F
100
AcDbEntity
  8
0
  6
Continuous
 62
     7
370
    25
100
AcDbCircle
 10
119.6969501247
 20
135.8022711202
 30
0.0
 40
8.000000000000014
100
AcDbArc
 50
90.0
 51
180.0
  0
LINE
  5
276
330
1F
100
AcDbEntity
  8
0
  6
Continuous
 62
     7
370
    25
100
AcDbLine
 10
161.6969508697
 20
139.8022711202
 30
0.0
 11
119.6969505047
 21
139.8022711202
 31
0.0
  0
LINE
  5
277
330
1F
100
AcDbEntity
  8
0
  6
Continuous
 62
     7
370
    25
100
AcDbLine
 10
119.6969505047
 20
139.8022711202
 30
0.0
 11
119.6969505047
 21
140.3022711439
 31
0.0
  0
LINE
  5
278
330
1F
100
AcDbEntity
  8
0
  6
Continuous
 62
     7
370
    25
100
AcDbLine
 10
161.6969508697
 20
139.8022711202
 30
0.0
 11
161.6969508697
 21
140.3022711439
 31
0.0
  0
ARC
  5
279
330
1F
100
AcDbEntity
  8
0
  6
Continuous
 62
     7
370
    25
100
AcDbCircle
 10
119.6969501247
 20
135.8022711202
 30
0.0
 40
4.0
100
AcDbArc
 50
90.0
 51
180.0
  0
LINE
  5
27A
330
1F
100
AcDbEntity
  8
0
  6
Continuous
 62
     7
370
    25
100
AcDbLine
 10
115.6969503147
 20
135.8022709302
 30
0.0
 11
115.1969502327
 21
135.8022709302
 31
0.0
  0
LINE
  5
27B
330
1F
100
AcDbEntity
  8
0
  6
Continuous
 62
     7
370
    25
100
AcDbLine
 10
162.196951883
 20
140.3022711439
 30
0.0
 11
161.6969508697
 21
139.8022711202
 31
0.0
  0
LINE
  5
27C
330
1F
100
AcDbEntity
  8
0
  6
Continuous
 62
     7
370
    25
100
AcDbLine
 10
115.6969503147
 20
135.8022709302
 30
0.0
 11
115.6969503147
 21
93.8022710308
 31
0.0
  0
LINE
  5
27D
330
1F
100
AcDbEntity
  8
0
  6
Continuous
 62
     7
370
    25
100
AcDbLine
 10
115.6969503147
 20
93.8022710308
 30
0.0
 11
115.1969502327
 21
93.8022710308
 31
0.0
  0
LINE
  5
27E
330
1F
100
AcDbEntity
  8
0
  6
Continuous
 62
     7
370
    25
100
AcDbLine
 10
115.6969503147
 20
93.8022710308
 30
0.0
 11
115.1969502327
 21
93.3022700175
 31
0.0
  0
LINE
  5
27F
330
1F
100
AcDbEntity
  8
0
  6
Continuous
 62
     7
370
    25
100
AcDbLine
 10
115.1969502327
 20
93.8022710308
 30
0.0
 11
115.1969502327
 21
93.3022700175
 31
0.0
  0
LINE
  5
280
330
1F
100
AcDbEntity
  8
0
  6
Continuous
 62
     7
370
    25
100
AcDbLine
 10
115.1969502327
 20
93.3022700175
 30
0.0
 11
111.6969501247
 21
93.3022700175
 31
0.0
  0
LINE
  5
281
330
1F
100
AcDbEntity
  8
0
  6
Continuous
 62
     7
370
    25
100
AcDbLine
 10
111.6969501247
 20
93.3022700175
 30
0.0
 11
111.6969501247
 21
93.8022710308
 31
0.0
  0
LINE
  5
282
330
1F
100
AcDbEntity
  8
0
  6
Continuous
 62
     7
370
    25
100
AcDbLine
 10
79.6969486048
 20
139.6022711252
 30
0.0
 11
57.696948724
 21
139.6022711252
 31
0.0
  0
LINE
  5
283
330
1F
100
AcDbEntity
  8
0
  6
Continuous
 62
     7
370
    25
100
AcDbLine
 10
57.696948724
 20
135.5022709742
 30
0.0
 11
79.6969486048
 21
135.5022709742
 31
0.0
  0
LINE
  5
284
330
1F
100
AcDbEntity
  8
0
  6
Continuous
 62
     7
370
    25
100
AcDbLine
 10
79.4969489445
 20
135.3022713139
 30
0.0
 11
57.8969483842
 21
135.3022713139
 31
0.0
  0
LINE
  5
285
330
1F
100
AcDbEntity
  8
0
  6
Continuous
 62
     7
370
    25
100
AcDbLine
 10
72.69694932
 20
145.6022710464
 30
0.0
 11
64.696951734
 21
145.6022710464
 31
0.0
  0
LINE
  5
286
330
1F
100
AcDbEntity
  8
0
  6
Continuous
 62
     7
370
    25
100
AcDbLine
 10
99.4969503601
 20
97.8022716864
 30
0.0
 11
99.4969503601
 21
119.8022715672
 31
0.0
  0
LINE
  5
287
330
1F
100
AcDbEntity
  8
0
  6
Continuous
 62
     7
370
    25
100
AcDbLine
 10
95.3969498743
 20
119.8022715672
 30
0.0
 11
95.3969498743
 21
97.8022716864
 31
0.0
  0
LINE
  5
288
330
1F
100
AcDbEntity
  8
0
  6
Continuous
 62
     7
370
    25
100
AcDbLine
 10
95.1969502141
 20
98.0022713467
 30
0.0
 11
95.1969502141
 21
119.602271907
 31
0.0
  0
LINE
  5
289
330
1F
100
AcDbEntity
  8
0
  6
Continuous
 62
     7
370
    25
100
AcDbLine
 10
105.4969499466
 20
104.8022709712
 30
0.0
 11
105.4969499466
 21
112.8022704198
 31
0.0
  0
LINE
  5
28A
330
1F
100
AcDbEntity
  8
0
  6
Continuous
 62
     7
370
    25
100
AcDbLine
 10
115.8969499749
 20
116.7237363681
 30
0.0
 11
115.8969499749
 21
97.8022716864
 31
0.0
  0
LINE
  5
28B
330
1F
100
AcDbEntity
  8
0
  6
Continuous
 62
     7
370
    25
100
AcDbLine
 10
115.8969499749
 20
119.8022715672
 30
0.0
 11
115.8969499749
 21
116.7237363681
 31
0.0
  0
LINE
  5
28C
330
1F
100
AcDbEntity
  8
0
  6
Continuous
 62
     7
370
    25
100
AcDbLine
 10
119.996949995
 20
116.7237363681
 30
0.0
 11
119.996949995
 21
119.8022715672
 31
0.0
  0
LINE
  5
28D
330
1F
100
AcDbEntity
  8
0
  6
Continuous
 62
     7
370
    25
100
AcDbLine
 10
119.996949995
 20
97.8022716864
 30
0.0
 11
119.996949995
 21
116.7237363681
 31
0.0
  0
LINE
  5
28E
330
1F
100
AcDbEntity
  8
0
  6
Continuous
 62
     7
370
    25
100
AcDbLine
 10
120.1969505866
 20
116.5797091945
 30
0.0
 11
120.1969505866
 21
98.0022713467
 31
0.0
  0
LINE
  5
28F
330
1F
100
AcDbEntity
  8
0
  6
Continuous
 62
     7
370
    25
100
AcDbLine
 10
120.1969505866
 20
119.602271907
 30
0.0
 11
120.1969505866
 21
116.5797091945
 31
0.0
  0
LINE
  5
290
330
1F
100
AcDbEntity
  8
0
  6
Continuous
 62
     7
370
    25
100
AcDbLine
 10
109.8969501556
 20
111.6828039213
 30
0.0
 11
109.8969501556
 21
104.8022709712
 31
0.0
  0
LINE
  5
291
330
1F
100
AcDbEntity
  8
0
  6
Continuous
 62
     7
370
    25
100
AcDbLine
 10
109.8969501556
 20
112.8022704198
 30
0.0
 11
109.8969501556
 21
111.6828039213
 31
0.0
  0
LINE
  5
292
330
1F
100
AcDbEntity
  8
0
  6
Continuous
 62
     7
370
    25
100
AcDbLine
 10
157.6969502141
 20
139.6022711252
 30
0.0
 11
135.6969503333
 21
139.6022711252
 31
0.0
  0
LINE
  5
293
330
1F
100
AcDbEntity
  8
0
  6
Continuous
 62
     7
370
    25
100
AcDbLine
 10
135.6969503333
 20
135.5022709742
 30
0.0
 11
157.6969502141
 21
135.5022709742
 31
0.0
  0
LINE
  5
294
330
1F
100
AcDbEntity
  8
0
  6
Continuous
 62
     7
370
    25
100
AcDbLine
 10
157.4969505538
 20
135.3022713139
 30
0.0
 11
135.8969499936
 21
135.3022713139
 31
0.0
  0
LINE
  5
295
330
1F
100
AcDbEntity
  8
0
  6
Continuous
 62
     7
370
    25
100
AcDbLine
 10
150.6969509294
 20
145.6022710464
 30
0.0
 11
142.696949618
 21
145.6022710464
 31
0.0
  0
LINE
  5
296
330
1F
100
AcDbEntity
  8
0
  6
Continuous
 62
     7
370
    25
100
AcDbLine
 10
109.6969500297
 20
103.8022726699
 30
0.0
 11
109.6969500297
 21
113.8022705837
 31
0.0
  0
LINE
  5
297
330
1F
100
AcDbEntity
  8
0
  6
Continuous
 62
     7
370
    25
100
AcDbLine
 10
105.6969500725
 20
103.8022726699
 30
0.0
 11
105.6969500725
 21
113.8022705837
 31
0.0
  0
LINE
  5
298
330
1F
100
AcDbEntity
  8
0
  6
Continuous
 62
     7
370
    25
100
AcDbLine
 10
142.1773815175
 20
149.8022708967
 30
0.0
 11
141.6969494541
 21
149.8022708967
 31
0.0
  0
LINE
  5
299
330
1F
100
AcDbEntity
  8
0
  6
Continuous
 62
     7
370
    25
100
AcDbLine
 10
151.6969492306
 20
149.8022708967
 30
0.0
 11
142.1773815175
 21
149.8022708967
 31
0.0
  0
LINE
  5
29A
330
1F
100
AcDbEntity
  8
0
  6
Continuous
 62
     7
370
    25
100
AcDbLine
 10
142.1773815175
 20
145.8022711723
 30
0.0
 11
141.6969494541
 21
145.8022711723
 31
0.0
  0
LINE
  5
29B
330
1F
100
AcDbEntity
  8
0
  6
Continuous
 62
     7
370
    25
100
AcDbLine
 10
151.6969492306
 20
145.8022711723
 30
0.0
 11
142.1773815175
 21
145.8022711723
 31
0.0
  0
LINE
  5
29C
330
1F
100
AcDbEntity
  8
0
  6
Continuous
 62
     7
370
    25
100
AcDbLine
 10
73.6969513466
 20
145.8022711723
 30
0.0
 11
63.6969497075
 21
145.8022711723
 31
0.0
  0
LINE
  5
29D
330
1F
100
AcDbEntity
  8
0
  6
Continuous
 62
     7
370
    25
100
AcDbLine
 10
73.6969513466
 20
149.8022708967
 30
0.0
 11
63.6969497075
 21
149.8022708967
 31
0.0
  0
LINE
  5
29E
330
1F
100
AcDbEntity
  8
0
  6
Continuous
 62
     7
370
    25
100
AcDbLine
 10
151.1879516413
 20
144.8022710084
 30
0.0
 11
136.1969494839
 21
144.8022710084
 31
0.0
  0
LINE
  5
29F
330
1F
100
AcDbEntity
  8
0
  6
Continuous
 62
     7
370
    25
100
AcDbLine
 10
157.1969492008
 20
144.8022710084
 30
0.0
 11
151.1879516413
 21
144.8022710084
 31
0.0
  0
LINE
  5
2A0
330
1F
100
AcDbEntity
  8
0
  6
Continuous
 62
     7
370
    25
100
AcDbLine
 10
151.0541094114
 20
150.8022710606
 30
0.0
 11
136.1969494839
 21
150.8022710606
 31
0.0
  0
LINE
  5
2A1
330
1F
100
AcDbEntity
  8
0
  6
Continuous
 62
     7
370
    25
100
AcDbLine
 10
157.1969492008
 20
150.8022710606
 30
0.0
 11
151.0541094114
 21
150.8022710606
 31
0.0
  0
LINE
  5
2A2
330
1F
100
AcDbEntity
  8
0
  6
Continuous
 62
     7
370
    25
100
AcDbLine
 10
79.1969513168
 20
150.8022710606
 30
0.0
 11
58.1969497373
 21
150.8022710606
 31
0.0
  0
LINE
  5
2A3
330
1F
100
AcDbEntity
  8
0
  6
Continuous
 62
     7
370
    25
100
AcDbLine
 10
79.1969513168
 20
144.8022710084
 30
0.0
 11
58.1969497373
 21
144.8022710084
 31
0.0
  0
LINE
  5
2A4
330
1F
100
AcDbEntity
  8
0
  6
Continuous
 62
     7
370
    25
100
AcDbLine
 10
104.6969499086
 20
119.3022705539
 30
0.0
 11
104.6969499086
 21
98.3022726997
 31
0.0
  0
LINE
  5
2A5
330
1F
100
AcDbEntity
  8
0
  6
Continuous
 62
     7
370
    25
100
AcDbLine
 10
110.6969500772
 20
119.3022705539
 30
0.0
 11
110.6969500772
 21
98.3022726997
 31
0.0
  0
LINE
  5
2A6
330
1F
100
AcDbEntity
  8
0
  6
Continuous
 62
     7
370
    25
100
AcDbLine
 10
136.7538971474
 20
156.1022713705
 30
0.0
 11
135.6969503333
 21
156.1022713705
 31
0.0
  0
LINE
  5
2A7
330
1F
100
AcDbEntity
  8
0
  6
Continuous
 62
     7
370
    25
100
AcDbLine
 10
157.6969502141
 20
156.1022713705
 30
0.0
 11
136.7538971474
 21
156.1022713705
 31
0.0
  0
LINE
  5
2A8
330
1F
100
AcDbEntity
  8
0
  6
Continuous
 62
     7
370
    25
100
AcDbLine
 10
136.9346798976
 20
156.3022710308
 30
0.0
 11
157.4969505538
 21
156.3022710308
 31
0.0
  0
LINE
  5
2A9
330
1F
100
AcDbEntity
  8
0
  6
Continuous
 62
     7
370
    25
100
AcDbLine
 10
135.8969499936
 20
156.3022710308
 30
0.0
 11
136.9346798976
 21
156.3022710308
 31
0.0
  0
LINE
  5
2AA
330
1F
100
AcDbEntity
  8
0
  6
Continuous
 62
     7
370
    25
100
AcDbLine
 10
136.7538971474
 20
151.8022712245
 30
0.0
 11
135.6969503333
 21
151.8022712245
 31
0.0
  0
LINE
  5
2AB
330
1F
100
AcDbEntity
  8
0
  6
Continuous
 62
     7
370
    25
100
AcDbLine
 10
157.6969502141
 20
151.8022712245
 30
0.0
 11
136.7538971474
 21
151.8022712245
 31
0.0
  0
LINE
  5
2AC
330
1F
100
AcDbEntity
  8
0
  6
Continuous
 62
     7
370
    25
100
AcDbLine
 10
79.6969486048
 20
151.8022712245
 30
0.0
 11
57.696948724
 21
151.8022712245
 31
0.0
  0
SPLINE
  5
2AD
330
1F
100
AcDbEntity
  8
0
  6
Continuous
 62
     7
370
    25
100
AcDbSpline
210
0.0
220
0.0
230
1.0
 70
    11
 71
     3
 72
    26
 73
    22
 74
     0
 42
0.000000001
 43
0.00000001
 40
0.0
 40
0.0
 40
0.0
 40
0.0
 40
0.0534530653869337
 40
0.106898678425688
 40
0.1605581803616138
 40
0.2143635542117191
 40
0.2679341643884339
 40
0.3212551831659245
 40
0.3747016698430673
 40
0.4284514727249709
 40
0.4822119894179139
 40
0.5356742592037484
 40
0.5889959758207302
 40
0.6425480080459484
 40
0.6963484782956523
 40
0.7500266414744203
 40
0.8033992722069495
 40
0.8567612945963573
 40
0.9104226006771511
 40
0.9642277145672062
 40
1.0
 40
1.0
 40
1.0
 40
1.0
 10
68.69694866437447
 20
152.8022713884058
 30
0.0
 10
68.55689294064665
 20
152.8160011023058
 30
0.0
 10
68.27680101955512
 20
152.8434586159291
 30
0.0
 10
67.90368269734266
 20
153.0573864347677
 30
0.0
 10
67.61882681286083
 20
153.3731436030366
 30
0.0
 10
67.45494275187421
 20
153.7688041392479
 30
0.0
 10
67.43123171457466
 20
154.1951955685027
 30
0.0
 10
67.54922976354516
 20
154.6044769812337
 30
0.0
 10
67.7952943316901
 20
154.9520383791489
 30
0.0
 10
68.14330737443214
 20
155.1996742664188
 30
0.0
 10
68.5543106361114
 20
155.3181771330351
 30
0.0
 10
68.98038899077655
 20
155.2940353066043
 30
0.0
 10
69.37374507907057
 20
155.1312551546589
 30
0.0
 10
69.69196247618349
 20
154.8477021634712
 30
0.0
 10
69.89919265317833
 20
154.4738016019155
 30
0.0
 10
69.97079562718054
 20
154.0522461253444
 30
0.0
 10
69.89928416411385
 20
153.6321207254603
 30
0.0
 10
69.69369181476972
 20
153.2589088438561
 30
0.0
 10
69.37616526731883
 20
152.9758029756123
 30
0.0
 10
69.02438174475526
 20
152.8240947250677
 30
0.0
 10
68.79039149699392
 20
152.8084993308987
 30
0.0
 10
68.69694866437447
 20
152.8022713884058
 30
0.0
  0
LINE
  5
2AE
330
1F
100
AcDbEntity
  8
0
  6
Continuous
 62
     7
370
    25
100
AcDbLine
 10
79.6969486048
 20
156.1022713705
 30
0.0
 11
57.696948724
 21
156.1022713705
 31
0.0
  0
LINE
  5
2AF
330
1F
100
AcDbEntity
  8
0
  6
Continuous
 62
     7
370
    25
100
AcDbLine
 10
57.8969483842
 20
156.3022710308
 30
0.0
 11
79.4969489445
 21
156.3022710308
 31
0.0
  0
LINE
  5
2B0
330
1F
100
AcDbEntity
  8
0
  6
Continuous
 62
     7
370
    25
100
AcDbLine
 10
230.5804547116
 20
225.3227929579
 30
0.0
 11
226.4804545605
 21
225.3227929579
 31
0.0
  0
LINE
  5
2B1
330
1F
100
AcDbEntity
  8
0
  6
Continuous
 62
     7
370
    25
100
AcDbLine
 10
226.4804545605
 20
203.3227930771
 30
0.0
 11
230.5804547116
 21
203.3227930771
 31
0.0
  0
LINE
  5
2B2
330
1F
100
AcDbEntity
  8
0
  6
Continuous
 62
     7
370
    25
100
AcDbLine
 10
226.4804545605
 20
225.3227929579
 30
0.0
 11
226.2804545656
 21
225.1227932976
 31
0.0
  0
LINE
  5
2B3
330
1F
100
AcDbEntity
  8
0
  6
Continuous
 62
     7
370
    25
100
AcDbLine
 10
226.2804545656
 20
203.5227927373
 30
0.0
 11
226.4804545605
 21
203.3227930771
 31
0.0
  0
LINE
  5
2B4
330
1F
100
AcDbEntity
  8
0
  6
Continuous
 62
     7
370
    25
100
AcDbLine
 10
230.5804547116
 20
203.3227930771
 30
0.0
 11
230.7804543719
 21
203.5227927373
 31
0.0
  0
LINE
  5
2B5
330
1F
100
AcDbEntity
  8
0
  6
Continuous
 62
     7
370
    25
100
AcDbLine
 10
230.7804543719
 20
225.1227932976
 30
0.0
 11
230.5804547116
 21
225.3227929579
 31
0.0
  0
LINE
  5
2B6
330
1F
100
AcDbEntity
  8
0
  6
Continuous
 62
     7
370
    25
100
AcDbLine
 10
220.4804546394
 20
218.3227932074
 30
0.0
 11
220.2804545134
 21
218.1227930815
 31
0.0
  0
LINE
  5
2B7
330
1F
100
AcDbEntity
  8
0
  6
Continuous
 62
     7
370
    25
100
AcDbLine
 10
220.2804545134
 20
210.5227929534
 30
0.0
 11
220.4804546394
 21
210.3227928275
 31
0.0
  0
LINE
  5
2B8
330
1F
100
AcDbEntity
  8
0
  6
Continuous
 62
     7
370
    25
100
AcDbLine
 10
221.2804546774
 20
218.3227932074
 30
0.0
 11
220.4804546394
 21
218.3227932074
 31
0.0
  0
LINE
  5
2B9
330
1F
100
AcDbEntity
  8
0
  6
Continuous
 62
     7
370
    25
100
AcDbLine
 10
220.4804546394
 20
210.3227928275
 30
0.0
 11
221.2804546774
 21
210.3227928275
 31
0.0
  0
LINE
  5
2BA
330
1F
100
AcDbEntity
  8
0
  6
Continuous
 62
     7
370
    25
100
AcDbLine
 10
216.2804547891
 20
209.3227931292
 30
0.0
 11
220.2804545134
 21
209.3227931292
 31
0.0
  0
LINE
  5
2BB
330
1F
100
AcDbEntity
  8
0
  6
Continuous
 62
     7
370
    25
100
AcDbLine
 10
220.2804545134
 20
219.3227929057
 30
0.0
 11
216.2804547891
 21
219.3227929057
 31
0.0
  0
LINE
  5
2BC
330
1F
100
AcDbEntity
  8
0
  6
Continuous
 62
     7
370
    25
100
AcDbLine
 10
214.2804544613
 20
203.822793159
 30
0.0
 11
215.2804546252
 21
203.822793159
 31
0.0
  0
LINE
  5
2BD
330
1F
100
AcDbEntity
  8
0
  6
Continuous
 62
     7
370
    25
100
AcDbLine
 10
215.2804546252
 20
224.8227928759
 30
0.0
 11
214.2804544613
 21
224.8227928759
 31
0.0
  0
LINE
  5
2BE
330
1F
100
AcDbEntity
  8
0
  6
Continuous
 62
     7
370
    25
100
AcDbLine
 10
221.2804546774
 20
203.822793159
 30
0.0
 11
222.2804543756
 21
203.822793159
 31
0.0
  0
LINE
  5
2BF
330
1F
100
AcDbEntity
  8
0
  6
Continuous
 62
     7
370
    25
100
AcDbLine
 10
222.2804543756
 20
224.8227928759
 30
0.0
 11
221.2804546774
 21
224.8227928759
 31
0.0
  0
LINE
  5
2C0
330
1F
100
AcDbEntity
  8
0
  6
Continuous
 62
     7
370
    25
100
AcDbLine
 10
213.2804542974
 20
225.3227929579
 30
0.0
 11
210.8041281074
 21
225.3227929579
 31
0.0
  0
LINE
  5
2C1
330
1F
100
AcDbEntity
  8
0
  6
Continuous
 62
     7
370
    25
100
AcDbLine
 10
209.9804543153
 20
203.3227930771
 30
0.0
 11
214.2804544613
 21
203.3227930771
 31
0.0
  0
LINE
  5
2C2
330
1F
100
AcDbEntity
  8
0
  6
Continuous
 62
     7
370
    25
100
AcDbLine
 10
210.7961010382
 20
225.3227929579
 30
0.0
 11
209.9804543153
 21
225.3227929579
 31
0.0
  0
LINE
  5
2C3
330
1F
100
AcDbEntity
  8
0
  6
Continuous
 62
     7
370
    25
100
AcDbLine
 10
214.2804544613
 20
225.3227929579
 30
0.0
 11
213.2804542974
 21
225.3227929579
 31
0.0
  0
LINE
  5
2C4
330
1F
100
AcDbEntity
  8
0
  6
Continuous
 62
     7
370
    25
100
AcDbLine
 10
209.9804543153
 20
225.3227929579
 30
0.0
 11
209.780454655
 21
225.1227932976
 31
0.0
  0
LINE
  5
2C5
330
1F
100
AcDbEntity
  8
0
  6
Continuous
 62
     7
370
    25
100
AcDbLine
 10
209.780454655
 20
203.5227927373
 30
0.0
 11
209.9804543153
 21
203.3227930771
 31
0.0
  0
LINE
  5
2C6
330
1F
100
AcDbEntity
  8
0
  6
Continuous
 62
     7
370
    25
100
AcDbLine
 10
215.2804546252
 20
210.3227928275
 30
0.0
 11
216.2804547891
 21
210.3227928275
 31
0.0
  0
LINE
  5
2C7
330
1F
100
AcDbEntity
  8
0
  6
Continuous
 62
     7
370
    25
100
AcDbLine
 10
216.2804547891
 20
218.3227932074
 30
0.0
 11
215.2804546252
 21
218.3227932074
 31
0.0
  0
LINE
  5
2C8
330
1F
100
AcDbEntity
  8
0
  6
Continuous
 62
     7
370
    25
100
AcDbLine
 10
225.7804545419
 20
226.3227931218
 30
0.0
 11
222.2804543756
 21
226.3227931218
 31
0.0
  0
LINE
  5
2C9
330
1F
100
AcDbEntity
  8
0
  6
Continuous
 62
     7
370
    25
100
AcDbLine
 10
225.7804545419
 20
202.3227929131
 30
0.0
 11
225.7804545419
 21
226.3227931218
 31
0.0
  0
LINE
  5
2CA
330
1F
100
AcDbEntity
  8
0
  6
Continuous
 62
     7
370
    25
100
AcDbLine
 10
222.2804543756
 20
202.3227929131
 30
0.0
 11
225.7804545419
 21
202.3227929131
 31
0.0
  0
LINE
  5
2CB
330
1F
100
AcDbEntity
  8
0
  6
Continuous
 62
     7
370
    25
100
AcDbLine
 10
222.2804543756
 20
226.3227931218
 30
0.0
 11
222.2804543756
 21
202.3227929131
 31
0.0
  0
LINE
  5
2CC
330
1F
100
AcDbEntity
  8
0
  6
Continuous
 62
     7
370
    25
100
AcDbLine
 10
225.7804545419
 20
201.8227928312
 30
0.0
 11
222.2804543756
 21
201.8227928312
 31
0.0
  0
LINE
  5
2CD
330
1F
100
AcDbEntity
  8
0
  6
Continuous
 62
     7
370
    25
100
AcDbLine
 10
225.7804545419
 20
202.3227929131
 30
0.0
 11
225.7804545419
 21
201.8227928312
 31
0.0
  0
LINE
  5
2CE
330
1F
100
AcDbEntity
  8
0
  6
Continuous
 62
     7
370
    25
100
AcDbLine
 10
222.2804543756
 20
201.8227928312
 30
0.0
 11
222.2804543756
 21
202.3227929131
 31
0.0
  0
LINE
  5
2CF
330
1F
100
AcDbEntity
  8
0
  6
Continuous
 62
     7
370
    25
100
AcDbLine
 10
222.2804543756
 20
226.8227932037
 30
0.0
 11
225.7804545419
 21
226.8227932037
 31
0.0
  0
LINE
  5
2D0
330
1F
100
AcDbEntity
  8
0
  6
Continuous
 62
     7
370
    25
100
AcDbLine
 10
225.7804545419
 20
226.8227932037
 30
0.0
 11
225.7804545419
 21
226.3227931218
 31
0.0
  0
LINE
  5
2D1
330
1F
100
AcDbEntity
  8
0
  6
Continuous
 62
     7
370
    25
100
AcDbLine
 10
222.2804543756
 20
226.3227931218
 30
0.0
 11
222.2804543756
 21
226.8227932037
 31
0.0
  0
LINE
  5
2D2
330
1F
100
AcDbEntity
  8
0
  6
Continuous
 62
     7
370
    25
100
AcDbLine
 10
225.7804545419
 20
226.3227931218
 30
0.0
 11
226.2804545656
 21
226.3227931218
 31
0.0
  0
LINE
  5
2D3
330
1F
100
AcDbEntity
  8
0
  6
Continuous
 62
     7
370
    25
100
AcDbLine
 10
226.2804545656
 20
226.3227931218
 30
0.0
 11
226.2804545656
 21
202.3227929131
 31
0.0
  0
LINE
  5
2D4
330
1F
100
AcDbEntity
  8
0
  6
Continuous
 62
     7
370
    25
100
AcDbLine
 10
225.7804545419
 20
202.3227929131
 30
0.0
 11
226.2804545656
 21
202.3227929131
 31
0.0
  0
LINE
  5
2D5
330
1F
100
AcDbEntity
  8
0
  6
Continuous
 62
     7
370
    25
100
AcDbLine
 10
226.2804545656
 20
202.3227929131
 30
0.0
 11
225.7804545419
 21
201.8227928312
 31
0.0
  0
LINE
  5
2D6
330
1F
100
AcDbEntity
  8
0
  6
Continuous
 62
     7
370
    25
100
AcDbLine
 10
225.7804545419
 20
226.8227932037
 30
0.0
 11
226.2804545656
 21
226.3227931218
 31
0.0
  0
LINE
  5
2D7
330
1F
100
AcDbEntity
  8
0
  6
Continuous
 62
     7
370
    25
100
AcDbLine
 10
230.2804547556
 20
226.8227932037
 30
0.0
 11
230.2804547556
 21
226.3227931218
 31
0.0
  0
LINE
  5
2D8
330
1F
100
AcDbEntity
  8
0
  6
Continuous
 62
     7
370
    25
100
AcDbLine
 10
230.2804547556
 20
226.3227931218
 30
0.0
 11
226.2804545656
 21
226.3227931218
 31
0.0
  0
LINE
  5
2D9
330
1F
100
AcDbEntity
  8
0
  6
Continuous
 62
     7
370
    25
100
AcDbLine
 10
225.7804545419
 20
226.8227932037
 30
0.0
 11
230.2804547556
 21
226.8227932037
 31
0.0
  0
LINE
  5
2DA
330
1F
100
AcDbEntity
  8
0
  6
Continuous
 62
     7
370
    25
100
AcDbLine
 10
226.2804545656
 20
202.3227929131
 30
0.0
 11
230.2804547556
 21
202.3227929131
 31
0.0
  0
LINE
  5
2DB
330
1F
100
AcDbEntity
  8
0
  6
Continuous
 62
     7
370
    25
100
AcDbLine
 10
230.2804547556
 20
202.3227929131
 30
0.0
 11
230.2804547556
 21
201.8227928312
 31
0.0
  0
LINE
  5
2DC
330
1F
100
AcDbEntity
  8
0
  6
Continuous
 62
     7
370
    25
100
AcDbLine
 10
230.2804547556
 20
201.8227928312
 30
0.0
 11
225.7804545419
 21
201.8227928312
 31
0.0
  0
LINE
  5
2DD
330
1F
100
AcDbEntity
  8
0
  6
Continuous
 62
     7
370
    25
100
AcDbLine
 10
272.280454655
 20
226.3227931218
 30
0.0
 11
230.2804547556
 21
226.3227931218
 31
0.0
  0
LINE
  5
2DE
330
1F
100
AcDbEntity
  8
0
  6
Continuous
 62
     7
370
    25
100
AcDbLine
 10
272.280454655
 20
202.3227929131
 30
0.0
 11
272.280454655
 21
226.3227931218
 31
0.0
  0
LINE
  5
2DF
330
1F
100
AcDbEntity
  8
0
  6
Continuous
 62
     7
370
    25
100
AcDbLine
 10
230.2804547556
 20
202.3227929131
 30
0.0
 11
272.280454655
 21
202.3227929131
 31
0.0
  0
LINE
  5
2E0
330
1F
100
AcDbEntity
  8
0
  6
Continuous
 62
     7
370
    25
100
AcDbLine
 10
272.280454655
 20
202.3227929131
 30
0.0
 11
272.280454655
 21
201.8227928312
 31
0.0
  0
LINE
  5
2E1
330
1F
100
AcDbEntity
  8
0
  6
Continuous
 62
     7
370
    25
100
AcDbLine
 10
272.280454655
 20
201.8227928312
 30
0.0
 11
230.2804547556
 21
201.8227928312
 31
0.0
  0
LINE
  5
2E2
330
1F
100
AcDbEntity
  8
0
  6
Continuous
 62
     7
370
    25
100
AcDbLine
 10
272.280454655
 20
226.8227932037
 30
0.0
 11
272.280454655
 21
226.3227931218
 31
0.0
  0
LINE
  5
2E3
330
1F
100
AcDbEntity
  8
0
  6
Continuous
 62
     7
370
    25
100
AcDbLine
 10
230.2804547556
 20
226.8227932037
 30
0.0
 11
272.280454655
 21
226.8227932037
 31
0.0
  0
LINE
  5
2E4
330
1F
100
AcDbEntity
  8
0
  6
Continuous
 62
     7
370
    25
100
AcDbLine
 10
272.280454655
 20
226.3227931218
 30
0.0
 11
272.7804556683
 21
226.3227931218
 31
0.0
  0
LINE
  5
2E5
330
1F
100
AcDbEntity
  8
0
  6
Continuous
 62
     7
370
    25
100
AcDbLine
 10
272.7804556683
 20
226.3227931218
 30
0.0
 11
272.7804556683
 21
202.3227929131
 31
0.0
  0
LINE
  5
2E6
330
1F
100
AcDbEntity
  8
0
  6
Continuous
 62
     7
370
    25
100
AcDbLine
 10
272.280454655
 20
202.3227929131
 30
0.0
 11
272.7804556683
 21
202.3227929131
 31
0.0
  0
LINE
  5
2E7
330
1F
100
AcDbEntity
  8
0
  6
Continuous
 62
     7
370
    25
100
AcDbLine
 10
272.280454655
 20
201.8227928312
 30
0.0
 11
272.7804556683
 21
202.3227929131
 31
0.0
  0
LINE
  5
2E8
330
1F
100
AcDbEntity
  8
0
  6
Continuous
 62
     7
370
    25
100
AcDbLine
 10
272.280454655
 20
226.8227932037
 30
0.0
 11
272.7804556683
 21
226.3227931218
 31
0.0
  0
LINE
  5
2E9
330
1F
100
AcDbEntity
  8
0
  6
Continuous
 62
     7
370
    25
100
AcDbLine
 10
258.8773891524
 20
213.6521205067
 30
0.0
 11
258.659742792
 21
215.3704422054
 31
0.0
  0
LINE
  5
2EA
330
1F
100
AcDbEntity
  8
0
  6
Continuous
 62
     7
370
    25
100
AcDbLine
 10
258.659742792
 20
215.3704422054
 30
0.0
 11
257.0628076986
 21
216.0411147162
 31
0.0
  0
LINE
  5
2EB
330
1F
100
AcDbEntity
  8
0
  6
Continuous
 62
     7
370
    25
100
AcDbLine
 10
257.0628076986
 20
216.0411147162
 30
0.0
 11
255.6835208282
 21
214.9934655282
 31
0.0
  0
LINE
  5
2EC
330
1F
100
AcDbEntity
  8
0
  6
Continuous
 62
     7
370
    25
100
AcDbLine
 10
255.6835208282
 20
214.9934655282
 30
0.0
 11
255.9011671886
 21
213.2751438295
 31
0.0
  0
LINE
  5
2ED
330
1F
100
AcDbEntity
  8
0
  6
Continuous
 62
     7
370
    25
100
AcDbLine
 10
255.9011671886
 20
213.2751438295
 30
0.0
 11
257.498102282
 21
212.6044713187
 31
0.0
  0
LINE
  5
2EE
330
1F
100
AcDbEntity
  8
0
  6
Continuous
 62
     7
370
    25
100
AcDbLine
 10
257.498102282
 20
212.6044713187
 30
0.0
 11
258.8773891524
 21
213.6521205067
 31
0.0
  0
LINE
  5
2EF
330
1F
100
AcDbEntity
  8
0
  6
Continuous
 62
     7
370
    25
100
AcDbLine
 10
226.4804545605
 20
214.3227930175
 30
0.0
 11
226.4804545605
 21
203.3227930771
 31
0.0
  0
LINE
  5
2F0
330
1F
100
AcDbEntity
  8
0
  6
Continuous
 62
     7
370
    25
100
AcDbLine
 10
226.4804545605
 20
225.3227929579
 30
0.0
 11
226.4804545605
 21
214.3227930175
 31
0.0
  0
LINE
  5
2F1
330
1F
100
AcDbEntity
  8
0
  6
Continuous
 62
     7
370
    25
100
AcDbLine
 10
230.5804547116
 20
214.3227930175
 30
0.0
 11
230.5804547116
 21
225.3227929579
 31
0.0
  0
LINE
  5
2F2
330
1F
100
AcDbEntity
  8
0
  6
Continuous
 62
     7
370
    25
100
AcDbLine
 10
230.5804547116
 20
203.3227930771
 30
0.0
 11
230.5804547116
 21
214.3227930175
 31
0.0
  0
LINE
  5
2F3
330
1F
100
AcDbEntity
  8
0
  6
Continuous
 62
     7
370
    25
100
AcDbLine
 10
230.7804543719
 20
214.3227930175
 30
0.0
 11
230.7804543719
 21
203.5227927373
 31
0.0
  0
LINE
  5
2F4
330
1F
100
AcDbEntity
  8
0
  6
Continuous
 62
     7
370
    25
100
AcDbLine
 10
230.7804543719
 20
225.1227932976
 30
0.0
 11
230.7804543719
 21
214.3227930175
 31
0.0
  0
LINE
  5
2F5
330
1F
100
AcDbEntity
  8
0
  6
Continuous
 62
     7
370
    25
100
AcDbLine
 10
220.4804546394
 20
214.3227930175
 30
0.0
 11
220.4804546394
 21
210.3227928275
 31
0.0
  0
LINE
  5
2F6
330
1F
100
AcDbEntity
  8
0
  6
Continuous
 62
     7
370
    25
100
AcDbLine
 10
220.4804546394
 20
218.3227932074
 30
0.0
 11
220.4804546394
 21
214.3227930175
 31
0.0
  0
LINE
  5
2F7
330
1F
100
AcDbEntity
  8
0
  6
Continuous
 62
     7
370
    25
100
AcDbLine
 10
259.5330700472
 20
214.8317660432
 30
0.0
 11
257.9659782544
 21
216.5281024755
 31
0.0
  0
LINE
  5
2F8
330
1F
100
AcDbEntity
  8
0
  6
Continuous
 62
     7
370
    25
100
AcDbLine
 10
257.9659782544
 20
216.5281024755
 30
0.0
 11
255.7133622661
 21
216.0191293334
 31
0.0
  0
LINE
  5
2F9
330
1F
100
AcDbEntity
  8
0
  6
Continuous
 62
     7
370
    25
100
AcDbLine
 10
255.7133622661
 20
216.0191293334
 30
0.0
 11
255.0278380707
 21
213.8138199917
 31
0.0
  0
LINE
  5
2FA
330
1F
100
AcDbEntity
  8
0
  6
Continuous
 62
     7
370
    25
100
AcDbLine
 10
255.0278380707
 20
213.8138199917
 30
0.0
 11
256.5949298635
 21
212.1174835594
 31
0.0
  0
LINE
  5
2FB
330
1F
100
AcDbEntity
  8
0
  6
Continuous
 62
     7
370
    25
100
AcDbLine
 10
256.5949298635
 20
212.1174835594
 30
0.0
 11
258.8475458518
 21
212.6264567015
 31
0.0
  0
LINE
  5
2FC
330
1F
100
AcDbEntity
  8
0
  6
Continuous
 62
     7
370
    25
100
AcDbLine
 10
258.8475458518
 20
212.6264567015
 30
0.0
 11
259.5330700472
 21
214.8317660432
 31
0.0
  0
CIRCLE
  5
2FD
330
1F
100
AcDbEntity
  8
0
  6
Continuous
 62
     7
370
    25
100
AcDbCircle
 10
257.2804545656
 20
214.3227930175
 30
0.0
 40
10.80000000000001
  0
CIRCLE
  5
2FE
330
1F
100
AcDbEntity
  8
0
  6
Continuous
 62
     7
370
    25
100
AcDbCircle
 10
257.2804545656
 20
214.3227930175
 30
0.0
 40
11.00000000000003
  0
LINE
  5
2FF
330
1F
100
AcDbEntity
  8
0
  6
Continuous
 62
     7
370
    25
100
AcDbLine
 10
216.2804547891
 20
219.3227929057
 30
0.0
 11
216.2804547891
 21
209.3227931292
 31
0.0
  0
LINE
  5
300
330
1F
100
AcDbEntity
  8
0
  6
Continuous
 62
     7
370
    25
100
AcDbLine
 10
220.2804545134
 20
219.3227929057
 30
0.0
 11
220.2804545134
 21
209.3227931292
 31
0.0
  0
LINE
  5
301
330
1F
100
AcDbEntity
  8
0
  6
Continuous
 62
     7
370
    25
100
AcDbLine
 10
215.2804546252
 20
224.8227928759
 30
0.0
 11
215.2804546252
 21
203.822793159
 31
0.0
  0
LINE
  5
302
330
1F
100
AcDbEntity
  8
0
  6
Continuous
 62
     7
370
    25
100
AcDbLine
 10
221.2804546774
 20
224.8227928759
 30
0.0
 11
221.2804546774
 21
203.822793159
 31
0.0
  0
LINE
  5
303
330
1F
100
AcDbEntity
  8
0
  6
Continuous
 62
     7
370
    25
100
AcDbLine
 10
214.2804544613
 20
225.3227929579
 30
0.0
 11
214.2804544613
 21
203.3227930771
 31
0.0
  0
SPLINE
  5
304
330
1F
100
AcDbEntity
  8
0
  6
Continuous
 62
     7
370
    25
100
AcDbSpline
210
0.0
220
0.0
230
1.0
 70
     8
 71
     3
 72
    17
 73
    13
 74
     0
 42
0.000000001
 43
0.00000001
 40
0.0
 40
0.0
 40
0.0
 40
0.0
 40
0.10690052356097
 40
0.2137861432073305
 40
0.3210995182111434
 40
0.4287046217413888
 40
0.5358402225515027
 40
0.642476666745242
 40
0.7493640335767351
 40
0.8568580009999575
 40
0.9643733949213825
 40
1.0
 40
1.0
 40
1.0
 40
1.0
 10
213.2804542973797
 20
225.3227929578517
 30
0.0
 10
213.2667243963852
 20
225.3211887726952
 30
0.0
 10
213.2392665085989
 20
225.3179806260352
 30
0.0
 10
213.0253414994257
 20
225.2956482573643
 30
0.0
 10
212.7095736037662
 20
225.2706565440144
 30
0.0
 10
212.3139532344596
 20
225.252523198762
 30
0.0
 10
211.8874126711013
 20
225.2497316132125
 30
0.0
 10
211.4786852413462
 20
225.2631909342353
 30
0.0
 10
211.129049670319
 20
225.2873344717023
 30
0.0
 10
210.889201895448
 20
225.3104373001622
 30
0.0
 10
210.7743242794071
 20
225.3234804126544
 30
0.0
 10
210.7917611710676
 20
225.3215198029226
 30
0.0
 10
210.7961010381739
 20
225.3210318268631
 30
0.0
  0
LINE
  5
305
330
1F
100
AcDbEntity
  8
0
  6
Continuous
 62
     7
370
    25
100
AcDbLine
 10
209.9804543153
 20
225.3227929579
 30
0.0
 11
209.9804543153
 21
203.3227930771
 31
0.0
  0
LINE
  5
306
330
1F
100
AcDbEntity
  8
0
  6
Continuous
 62
     7
370
    25
100
AcDbLine
 10
209.780454655
 20
203.5227927373
 30
0.0
 11
209.780454655
 21
225.1227932976
 31
0.0
  0
LINE
  5
307
330
1F
100
AcDbEntity
  8
0
  6
Continuous
 62
     8
370
    25
100
AcDbLine
 10
230.2804547556
 20
226.3227931218
 30
0.0
 11
230.2804547556
 21
225.3227929579
 31
0.0
  0
LINE
  5
308
330
1F
100
AcDbEntity
  8
0
  6
Continuous
 62
     8
370
    25
100
AcDbLine
 10
230.2804547556
 20
203.3227930771
 30
0.0
 11
230.2804547556
 21
202.3227929131
 31
0.0
  0
DIMENSION
  5
309
330
1F
100
AcDbEntity
  8
0
  6
Continuous
 62
   102
370
    18
100
AcDbDimension
  2
_D
 10
279.6297848853
 20
201.8227930175
 30
0.0
 11
279.6297848853
 21
214.3227930175
 31
0.0
 70
   160
  1
<>
 71
     2
 42
-1.0
  3
SLDDIMSTYLE0
100
AcDbAlignedDimension
 13
272.2804545656
 23
226.8227930175
 33
0.0
 14
272.2804545656
 24
201.8227930175
 34
0.0
 50
90.0
100
AcDbRotatedDimension
  0
ENDSEC
  0
SECTION
  2
OBJECTS
  0
DICTIONARY
  5
C
330
0
100
AcDbDictionary
281
     1
  3
ACAD_GROUP
350
D
  3
ACAD_LAYOUT
350
1A
  3
ACAD_MLINESTYLE
350
17
  3
ACAD_PLOTSETTINGS
350
19
  3
ACAD_PLOTSTYLENAME
350
E
  3
ACAD_SCALELIST
350
47
  0
DICTIONARY
  5
D
102
{ACAD_REACTORS
330
C
102
}
330
C
100
AcDbDictionary
281
     1
  0
DICTIONARY
  5
1A
102
{ACAD_REACTORS
330
C
102
}
330
C
100
AcDbDictionary
281
     1
  3
Layout1
350
1E
  3
Layout2
350
26
  3
Model
350
22
  0
DICTIONARY
  5
17
102
{ACAD_REACTORS
330
C
102
}
330
C
100
AcDbDictionary
281
     1
  3
Standard
350
18
  0
DICTIONARY
  5
19
102
{ACAD_REACTORS
330
C
102
}
330
C
100
AcDbDictionary
281
     1
  0
ACDBDICTIONARYWDFLT
  5
E
102
{ACAD_REACTORS
330
C
102
}
330
C
100
AcDbDictionary
281
     1
  3
Normal
350
F
100
AcDbDictionaryWithDefault
340
F
  0
DICTIONARY
  5
47
102
{ACAD_REACTORS
330
C
102
}
330
C
100
AcDbDictionary
281
     1
  3
A0
350
48
  3
A1
350
49
  3
A2
350
4A
  3
A3
350
4B
  3
A4
350
4C
  3
A5
350
4D
  3
A6
350
4E
  3
A7
350
4F
  3
A8
350
50
  3
A9
350
51
  3
B0
350
52
  3
B1
350
53
  3
B2
350
54
  3
B3
350
55
  3
B4
350
56
  3
B5
350
57
  3
B6
350
58
  3
B7
350
59
  3
B8
350
5A
  3
B9
350
5B
  3
C0
350
5C
  3
C1
350
5D
  3
C2
350
5E
  3
C3
350
5F
  3
C4
350
60
  3
C5
350
61
  3
C6
350
62
  3
C7
350
63
  3
C8
350
64
  3
C9
350
65
  3
D0
350
66
  3
D1
350
67
  3
D2
350
68
  0
LAYOUT
  5
1E
102
{ACAD_REACTORS
330
1A
102
}
330
1A
100
AcDbPlotSettings
  1

  2
none_device
  4

  6

 40
0.0
 41
0.0
 42
0.0
 43
0.0
 44
0.0
 45
0.0
 46
0.0
 47
0.0
 48
0.0
 49
0.0
140
0.0
141
0.0
142
1.0
143
1.0
 70
   688
 72
     1
 73
     0
 74
     5
  7

 75
    16
147
1.0
148
0.0
149
0.0
100
AcDbLayout
  1
Layout1
 70
     1
 71
     1
 10
0.0
 20
0.0
 11
420.0
 21
297.0
 12
0.0
 22
0.0
 32
0.0
 14
1.0000000000E+20
 24
1.0000000000E+20
 34
1.0000000000E+20
 15
-1.0000000000E+20
 25
-1.0000000000E+20
 35
-1.0000000000E+20
146
0.0
 13
0.0
 23
0.0
 33
0.0
 16
1.0
 26
0.0
 36
0.0
 17
0.0
 27
1.0
 37
0.0
 76
     0
330
1B
  0
LAYOUT
  5
26
102
{ACAD_REACTORS
330
1A
102
}
330
1A
100
AcDbPlotSettings
  1

  2
none_device
  4

  6

 40
0.0
 41
0.0
 42
0.0
 43
0.0
 44
0.0
 45
0.0
 46
0.0
 47
0.0
 48
0.0
 49
0.0
140
0.0
141
0.0
142
1.0
143
1.0
 70
   688
 72
     1
 73
     0
 74
     5
  7

 75
    16
147
1.0
148
0.0
149
0.0
100
AcDbLayout
  1
Layout2
 70
     1
 71
     2
 10
0.0
 20
0.0
 11
0.0
 21
0.0
 12
0.0
 22
0.0
 32
0.0
 14
0.0
 24
0.0
 34
0.0
 15
0.0
 25
0.0
 35
0.0
146
0.0
 13
0.0
 23
0.0
 33
0.0
 16
1.0
 26
0.0
 36
0.0
 17
0.0
 27
1.0
 37
0.0
 76
     0
330
23
  0
LAYOUT
  5
22
102
{ACAD_REACTORS
330
1A
102
}
330
1A
100
AcDbPlotSettings
  1

  2
none_device
  4
Letter_(8.50_x_11.00_Inches)
  6

 40
6.35
 41
6.35
 42
6.35000508
 43
6.35000508
 44
215.9
 45
279.4
 46
0.0
 47
0.0
 48
0.0
 49
0.0
140
0.0
141
0.0
142
1.0
143
1.0
 70
  1712
 72
     1
 73
     0
 74
     0
  7

 75
     0
147
1.0
148
0.0
149
0.0
100
AcDbLayout
  1
Model
 70
     1
 71
     0
 10
0.0
 20
0.0
 11
431.8
 21
279.4
 12
0.0
 22
0.0
 32
0.0
 14
0.0
 24
0.0
 34
0.0
 15
431.8
 25
279.4
 35
0.0
146
0.0
 13
0.0
 23
0.0
 33
0.0
 16
1.0
 26
0.0
 36
0.0
 17
0.0
 27
1.0
 37
0.0
 76
     0
330
1F
331
29
  0
MLINESTYLE
  5
18
102
{ACAD_REACTORS
330
17
102
}
330
17
100
AcDbMlineStyle
  2
Standard
 70
     0
  3

 62
   256
 51
90.0
 52
90.0
 71
     2
 49
0.5
 62
   256
  6
BYLAYER
 49
-0.5
 62
   256
  6
BYLAYER
  0
ACDBPLACEHOLDER
  5
F
102
{ACAD_REACTORS
330
E
102
}
330
E
  0
SCALE
  5
48
102
{ACAD_REACTORS
330
47
102
}
330
47
100
AcDbScale
 70
     0
300
1:1
140
1.0
141
1.0
290
     1
  0
SCALE
  5
49
102
{ACAD_REACTORS
330
47
102
}
330
47
100
AcDbScale
 70
     0
300
1:2
140
1.0
141
2.0
290
     0
  0
SCALE
  5
4A
102
{ACAD_REACTORS
330
47
102
}
330
47
100
AcDbScale
 70
     0
300
1:4
140
1.0
141
4.0
290
     0
  0
SCALE
  5
4B
102
{ACAD_REACTORS
330
47
102
}
330
47
100
AcDbScale
 70
     0
300
1:5
140
1.0
141
5.0
290
     0
  0
SCALE
  5
4C
102
{ACAD_REACTORS
330
47
102
}
330
47
100
AcDbScale
 70
     0
300
1:8
140
1.0
141
8.0
290
     0
  0
SCALE
  5
4D
102
{ACAD_REACTORS
330
47
102
}
330
47
100
AcDbScale
 70
     0
300
1:10
140
1.0
141
10.0
290
     0
  0
SCALE
  5
4E
102
{ACAD_REACTORS
330
47
102
}
330
47
100
AcDbScale
 70
     0
300
1:16
140
1.0
141
16.0
290
     0
  0
SCALE
  5
4F
102
{ACAD_REACTORS
330
47
102
}
330
47
100
AcDbScale
 70
     0
300
1:20
140
1.0
141
20.0
290
     0
  0
SCALE
  5
50
102
{ACAD_REACTORS
330
47
102
}
330
47
100
AcDbScale
 70
     0
300
1:30
140
1.0
141
30.0
290
     0
  0
SCALE
  5
51
102
{ACAD_REACTORS
330
47
102
}
330
47
100
AcDbScale
 70
     0
300
1:40
140
1.0
141
40.0
290
     0
  0
SCALE
  5
52
102
{ACAD_REACTORS
330
47
102
}
330
47
100
AcDbScale
 70
     0
300
1:50
140
1.0
141
50.0
290
     0
  0
SCALE
  5
53
102
{ACAD_REACTORS
330
47
102
}
330
47
100
AcDbScale
 70
     0
300
1:100
140
1.0
141
100.0
290
     0
  0
SCALE
  5
54
102
{ACAD_REACTORS
330
47
102
}
330
47
100
AcDbScale
 70
     0
300
2:1
140
2.0
141
1.0
290
     0
  0
SCALE
  5
55
102
{ACAD_REACTORS
330
47
102
}
330
47
100
AcDbScale
 70
     0
300
4:1
140
4.0
141
1.0
290
     0
  0
SCALE
  5
56
102
{ACAD_REACTORS
330
47
102
}
330
47
100
AcDbScale
 70
     0
300
8:1
140
8.0
141
1.0
290
     0
  0
SCALE
  5
57
102
{ACAD_REACTORS
330
47
102
}
330
47
100
AcDbScale
 70
     0
300
10:1
140
10.0
141
1.0
290
     0
  0
SCALE
  5
58
102
{ACAD_REACTORS
330
47
102
}
330
47
100
AcDbScale
 70
     0
300
100:1
140
100.0
141
1.0
290
     0
  0
SCALE
  5
59
102
{ACAD_REACTORS
330
47
102
}
330
47
100
AcDbScale
 70
     0
300
1/128" = 1'-0"
140
0.0078125
141
12.0
290
     0
  0
SCALE
  5
5A
102
{ACAD_REACTORS
330
47
102
}
330
47
100
AcDbScale
 70
     0
300
1/64" = 1'-0"
140
0.015625
141
12.0
290
     0
  0
SCALE
  5
5B
102
{ACAD_REACTORS
330
47
102
}
330
47
100
AcDbScale
 70
     0
300
1/32" = 1'-0"
140
0.03125
141
12.0
290
     0
  0
SCALE
  5
5C
102
{ACAD_REACTORS
330
47
102
}
330
47
100
AcDbScale
 70
     0
300
1/16" = 1'-0"
140
0.0625
141
12.0
290
     0
  0
SCALE
  5
5D
102
{ACAD_REACTORS
330
47
102
}
330
47
100
AcDbScale
 70
     0
300
3/32" = 1'-0"
140
0.09375
141
12.0
290
     0
  0
SCALE
  5
5E
102
{ACAD_REACTORS
330
47
102
}
330
47
100
AcDbScale
 70
     0
300
1/8" = 1'-0"
140
0.125
141
12.0
290
     0
  0
SCALE
  5
5F
102
{ACAD_REACTORS
330
47
102
}
330
47
100
AcDbScale
 70
     0
300
3/16" = 1'-0"
140
0.1875
141
12.0
290
     0
  0
SCALE
  5
60
102
{ACAD_REACTORS
330
47
102
}
330
47
100
AcDbScale
 70
     0
300
1/4" = 1'-0"
140
0.25
141
12.0
290
     0
  0
SCALE
  5
61
102
{ACAD_REACTORS
330
47
102
}
330
47
100
AcDbScale
 70
     0
300
3/8" = 1'-0"
140
0.375
141
12.0
290
     0
  0
SCALE
  5
62
102
{ACAD_REACTORS
330
47
102
}
330
47
100
AcDbScale
 70
     0
300
1/2" = 1'-0"
140
0.5
141
12.0
290
     0
  0
SCALE
  5
63
102
{ACAD_REACTORS
330
47
102
}
330
47
100
AcDbScale
 70
     0
300
3/4" = 1'-0"
140
0.75
141
12.0
290
     0
  0
SCALE
  5
64
102
{ACAD_REACTORS
330
47
102
}
330
47
100
AcDbScale
 70
     0
300
1" = 1'-0"
140
1.0
141
12.0
290
     0
  0
SCALE
  5
65
102
{ACAD_REACTORS
330
47
102
}
330
47
100
AcDbScale
 70
     0
300
1-1/2" = 1'-0"
140
1.5
141
12.0
290
     0
  0
SCALE
  5
66
102
{ACAD_REACTORS
330
47
102
}
330
47
100
AcDbScale
 70
     0
300
3" = 1'-0"
140
3.0
141
12.0
290
     0
  0
SCALE
  5
67
102
{ACAD_REACTORS
330
47
102
}
330
47
100
AcDbScale
 70
     0
300
6" = 1'-0"
140
6.0
141
12.0
290
     0
  0
SCALE
  5
68
102
{ACAD_REACTORS
330
47
102
}
330
47
100
AcDbScale
 70
     0
300
1'-0" = 1'-0"
140
12.0
141
12.0
290
     0
  0
ENDSEC
  0
EOF
