  0
SECTION
  2
HEADER
  9
$ACADVER
  1
AC1015
  9
$ACADMAINTVER
 70
     6
  9
$DWGCODEPAGE
  3
ANSI_1252
  9
$INSBASE
 10
0.0
 20
0.0
 30
0.0
  9
$EXTMIN
 10
0.0
 20
0.0
 30
0.0
  9
$EXTMAX
 10
431.8
 20
279.4
 30
0.0
  9
$LIMMIN
 10
0.0
 20
0.0
  9
$LIMMAX
 10
431.8
 20
279.4
  9
$ORTHOMODE
 70
     0
  9
$REGENMODE
 70
     1
  9
$FILLMODE
 70
     1
  9
$QTEXTMODE
 70
     0
  9
$MIRRTEXT
 70
     1
  9
$LTSCALE
 40
1.0
  9
$ATTMODE
 70
     1
  9
$TEXTSIZE
 40
3.5
  9
$TRACEWID
 40
1.0
  9
$TEXTSTYLE
  7
Standard
  9
$CLAYER
  8
0
  9
$CELTYPE
  6
ByLayer
  9
$CECOLOR
 62
   256
  9
$CELTSCALE
 40
1.0
  9
$DISPSILH
 70
     0
  9
$DIMSCALE
 40
1.0
  9
$DIMASZ
 40
3.302
  9
$DIMEXO
 40
1.0
  9
$DIMDLI
 40
3.75
  9
$DIMRND
 40
0.0
  9
$DIMDLE
 40
0.0
  9
$DIMEXE
 40
1.0
  9
$DIMTP
 40
0.0
  9
$DIMTM
 40
0.0
  9
$DIMTXT
 40
3.5
  9
$DIMCEN
 40
2.5
  9
$DIMTSZ
 40
0.0
  9
$DIMTOL
 70
     0
  9
$DIMLIM
 70
     0
  9
$DIMTIH
 70
     1
  9
$DIMTOH
 70
     1
  9
$DIMSE1
 70
     0
  9
$DIMSE2
 70
     0
  9
$DIMTAD
 70
     1
  9
$DIMZIN
 70
     1
  9
$DIMBLK
  1

  9
$DIMASO
 70
     1
  9
$DIMSHO
 70
     1
  9
$DIMPOST
  1

  9
$DIMAPOST
  1

  9
$DIMALT
 70
     0
  9
$DIMALTD
 70
     3
  9
$DIMALTF
 40
0.0393700787
  9
$DIMLFAC
 40
1.0
  9
$DIMTOFL
 70
     1
  9
$DIMTVP
 40
0.0
  9
$DIMTIX
 70
     0
  9
$DIMSOXD
 70
     0
  9
$DIMSAH
 70
     0
  9
$DIMBLK1
  1

  9
$DIMBLK2
  1

  9
$DIMSTYLE
  2
ISO-25
  9
$DIMCLRD
 70
     0
  9
$DIMCLRE
 70
     0
  9
$DIMCLRT
 70
     0
  9
$DIMTFAC
 40
1.0
  9
$DIMGAP
 40
1.524
  9
$DIMJUST
 70
     0
  9
$DIMSD1
 70
     0
  9
$DIMSD2
 70
     0
  9
$DIMTOLJ
 70
     0
  9
$DIMTZIN
 70
     1
  9
$DIMALTZ
 70
     0
  9
$DIMALTTZ
 70
     0
  9
$DIMUPT
 70
     0
  9
$DIMDEC
 70
     2
  9
$DIMTDEC
 70
     2
  9
$DIMALTU
 70
     2
  9
$DIMALTTD
 70
     3
  9
$DIMTXSTY
  7
Standard
  9
$DIMAUNIT
 70
     0
  9
$DIMADEC
 70
     0
  9
$DIMALTRND
 40
0.0
  9
$DIMAZIN
 70
     0
  9
$DIMDSEP
 70
    44
  9
$DIMATFIT
 70
     3
  9
$DIMFRAC
 70
     0
  9
$DIMLDRBLK
  1

  9
$DIMLUNIT
 70
     2
  9
$DIMLWD
 70
    -2
  9
$DIMLWE
 70
    -2
  9
$DIMTMOVE
 70
     0
  9
$LUNITS
 70
     2
  9
$LUPREC
 70
     2
  9
$SKETCHINC
 40
1.0
  9
$FILLETRAD
 40
10.0
  9
$AUNITS
 70
     0
  9
$AUPREC
 70
     0
  9
$MENU
  1
.
  9
$ELEVATION
 40
0.0
  9
$PELEVATION
 40
0.0
  9
$THICKNESS
 40
0.0
  9
$LIMCHECK
 70
     0
  9
$CHAMFERA
 40
0.0
  9
$CHAMFERB
 40
0.0
  9
$CHAMFERC
 40
0.0
  9
$CHAMFERD
 40
0.0
  9
$SKPOLY
 70
     0
  9
$TDCREATE
 40
2459901.509493461
  9
$TDUCREATE
 40
2459901.467826794
  9
$TDUPDATE
 40
2459901.509494491
  9
$TDUUPDATE
 40
2459901.467827824
  9
$TDINDWG
 40
0.0000000116
  9
$TDUSRTIMER
 40
0.0000000116
  9
$USRTIMER
 70
     1
  9
$ANGBASE
 50
0.0
  9
$ANGDIR
 70
     0
  9
$PDMODE
 70
     0
  9
$PDSIZE
 40
-1.0
  9
$PLINEWID
 40
0.0
  9
$SPLFRAME
 70
     0
  9
$SPLINETYPE
 70
     6
  9
$SPLINESEGS
 70
     8
  9
$HANDSEED
  5
2DA
  9
$SURFTAB1
 70
     6
  9
$SURFTAB2
 70
     6
  9
$SURFTYPE
 70
     6
  9
$SURFU
 70
     6
  9
$SURFV
 70
     6
  9
$UCSBASE
  2

  9
$UCSNAME
  2

  9
$UCSORG
 10
0.0
 20
0.0
 30
0.0
  9
$UCSXDIR
 10
1.0
 20
0.0
 30
0.0
  9
$UCSYDIR
 10
0.0
 20
1.0
 30
0.0
  9
$UCSORTHOREF
  2

  9
$UCSORTHOVIEW
 70
     0
  9
$UCSORGTOP
 10
0.0
 20
0.0
 30
0.0
  9
$UCSORGBOTTOM
 10
0.0
 20
0.0
 30
0.0
  9
$UCSORGLEFT
 10
0.0
 20
0.0
 30
0.0
  9
$UCSORGRIGHT
 10
0.0
 20
0.0
 30
0.0
  9
$UCSORGFRONT
 10
0.0
 20
0.0
 30
0.0
  9
$UCSORGBACK
 10
0.0
 20
0.0
 30
0.0
  9
$PUCSBASE
  2

  9
$PUCSNAME
  2

  9
$PUCSORG
 10
0.0
 20
0.0
 30
0.0
  9
$PUCSXDIR
 10
1.0
 20
0.0
 30
0.0
  9
$PUCSYDIR
 10
0.0
 20
1.0
 30
0.0
  9
$PUCSORTHOREF
  2

  9
$PUCSORTHOVIEW
 70
     0
  9
$PUCSORGTOP
 10
0.0
 20
0.0
 30
0.0
  9
$PUCSORGBOTTOM
 10
0.0
 20
0.0
 30
0.0
  9
$PUCSORGLEFT
 10
0.0
 20
0.0
 30
0.0
  9
$PUCSORGRIGHT
 10
0.0
 20
0.0
 30
0.0
  9
$PUCSORGFRONT
 10
0.0
 20
0.0
 30
0.0
  9
$PUCSORGBACK
 10
0.0
 20
0.0
 30
0.0
  9
$USERI1
 70
     0
  9
$USERI2
 70
     0
  9
$USERI3
 70
     0
  9
$USERI4
 70
     0
  9
$USERI5
 70
     0
  9
$USERR1
 40
0.0
  9
$USERR2
 40
0.0
  9
$USERR3
 40
0.0
  9
$USERR4
 40
0.0
  9
$USERR5
 40
0.0
  9
$WORLDVIEW
 70
     1
  9
$SHADEDGE
 70
     3
  9
$SHADEDIF
 70
    70
  9
$TILEMODE
 70
     1
  9
$MAXACTVP
 70
    64
  9
$PINSBASE
 10
0.0
 20
0.0
 30
0.0
  9
$PLIMCHECK
 70
     0
  9
$PEXTMIN
 10
1.0000000000E+20
 20
1.0000000000E+20
 30
1.0000000000E+20
  9
$PEXTMAX
 10
-1.0000000000E+20
 20
-1.0000000000E+20
 30
-1.0000000000E+20
  9
$PLIMMIN
 10
0.0
 20
0.0
  9
$PLIMMAX
 10
420.0
 20
297.0
  9
$UNITMODE
 70
     0
  9
$VISRETAIN
 70
     1
  9
$PLINEGEN
 70
     0
  9
$PSLTSCALE
 70
     1
  9
$TREEDEPTH
 70
  3020
  9
$CMLSTYLE
  2
Standard
  9
$CMLJUST
 70
     0
  9
$CMLSCALE
 40
20.0
  9
$PROXYGRAPHICS
 70
     1
  9
$MEASUREMENT
 70
     1
  9
$CELWEIGHT
370
    -1
  9
$ENDCAPS
280
     0
  9
$JOINSTYLE
280
     0
  9
$LWDISPLAY
290
     1
  9
$INSUNITS
 70
     4
  9
$HYPERLINKBASE
  1

  9
$STYLESHEET
  1

  9
$XEDIT
290
     1
  9
$CEPSNTYPE
380
     0
  9
$PSTYLEMODE
290
     1
  9
$FINGERPRINTGUID
  2
{809a7c60-ff5f-494a-9dac-077135a7ba20}
  9
$VERSIONGUID
  2
{FAEB1C32-E019-11D5-929B-00C0DF256EC4}
  9
$EXTNAMES
290
     1
  9
$PSVPSCALE
 40
0.0
  9
$OLESTARTUP
290
     0
  0
ENDSEC
  0
SECTION
  2
CLASSES
  0
CLASS
  1
ACDBDICTIONARYWDFLT
  2
AcDbDictionaryWithDefault
  3
ObjectDBX Classes
 90
        0
280
     0
281
     0
  0
CLASS
  1
VISUALSTYLE
  2
AcDbVisualStyle
  3
ObjectDBX Classes
 90
     4095
280
     0
281
     0
  0
CLASS
  1
MATERIAL
  2
AcDbMaterial
  3
ObjectDBX Classes
 90
     1153
280
     0
281
     0
  0
CLASS
  1
SCALE
  2
AcDbScale
  3
ObjectDBX Classes
 90
     1153
280
     0
281
     0
  0
CLASS
  1
TABLESTYLE
  2
AcDbTableStyle
  3
ObjectDBX Classes
 90
     4095
280
     0
281
     0
  0
CLASS
  1
MLEADERSTYLE
  2
AcDbMLeaderStyle
  3
ACDB_MLEADERSTYLE_CLASS
 90
     4095
280
     0
281
     0
  0
CLASS
  1
SUN
  2
AcDbSun
  3
SCENEOE
 90
     1153
280
     0
281
     0
  0
CLASS
  1
ACDBPLACEHOLDER
  2
AcDbPlaceHolder
  3
ObjectDBX Classes
 90
        0
280
     0
281
     0
  0
CLASS
  1
LAYOUT
  2
AcDbLayout
  3
ObjectDBX Classes
 90
        0
280
     0
281
     0
  0
ENDSEC
  0
SECTION
  2
TABLES
  0
TABLE
  2
VPORT
  5
8
330
0
100
AcDbSymbolTable
 70
     1
  0
VPORT
  5
29
330
8
100
AcDbSymbolTableRecord
100
AcDbViewportTableRecord
  2
*Active
 70
     0
 10
0.0
 20
0.0
 11
1.0
 21
1.0
 12
215.9
 22
139.7
 13
0.0
 23
0.0
 14
10.0
 24
10.0
 15
10.0
 25
10.0
 16
0.0
 26
0.0
 36
1.0
 17
0.0
 27
0.0
 37
0.0
 40
279.4
 41
1.5454545455
 42
50.0
 43
0.0
 44
0.0
 50
0.0
 51
0.0
 71
     0
 72
  2000
 73
     1
 74
     3
 75
     0
 76
     0
 77
     0
 78
     0
281
     0
 65
     1
110
0.0
120
0.0
130
0.0
111
1.0
121
0.0
131
0.0
112
0.0
122
1.0
132
0.0
 79
     0
146
0.0
  0
ENDTAB
  0
TABLE
  2
LTYPE
  5
5
330
0
100
AcDbSymbolTable
 70
     6
  0
LTYPE
  5
14
330
5
100
AcDbSymbolTableRecord
100
AcDbLinetypeTableRecord
  2
ByBlock
 70
     0
  3

 72
    65
 73
     0
 40
0.0
  0
LTYPE
  5
15
330
5
100
AcDbSymbolTableRecord
100
AcDbLinetypeTableRecord
  2
ByLayer
 70
     0
  3

 72
    65
 73
     0
 40
0.0
  0
LTYPE
  5
16
330
5
100
AcDbSymbolTableRecord
100
AcDbLinetypeTableRecord
  2
Continuous
 70
     0
  3
Solid line
 72
    65
 73
     0
 40
0.0
  0
LTYPE
  5
6E
330
5
100
AcDbSymbolTableRecord
100
AcDbLinetypeTableRecord
  2
HIDDEN
 70
     0
  3
Hidden __ __ __ __ __ __ __ __ __ __ __ __ __ __
 72
    65
 73
     2
 40
1.905
 49
1.27
 74
     0
 49
-0.635
 74
     0
  0
LTYPE
  5
6F
330
5
100
AcDbSymbolTableRecord
100
AcDbLinetypeTableRecord
  2
PHANTOM
 70
     0
  3
Phantom ______  __  __  ______  __  __  ______
 72
    65
 73
     6
 40
12.7
 49
6.35
 74
     0
 49
-1.27
 74
     0
 49
1.27
 74
     0
 49
-1.27
 74
     0
 49
1.27
 74
     0
 49
-1.27
 74
     0
  0
LTYPE
  5
70
330
5
100
AcDbSymbolTableRecord
100
AcDbLinetypeTableRecord
  2
CENTER
 70
     0
  3
Center ____ _ ____ _ ____ _ ____ _ ____ _ ____
 72
    65
 73
     4
 40
10.16
 49
6.35
 74
     0
 49
-1.27
 74
     0
 49
1.27
 74
     0
 49
-1.27
 74
     0
  0
LTYPE
  5
71
330
5
100
AcDbSymbolTableRecord
100
AcDbLinetypeTableRecord
  2
CENTERX2
 70
     0
  3
Center (2x) ________  __  ________  __  _____
 72
    65
 73
     4
 40
20.32
 49
12.7
 74
     0
 49
-2.54
 74
     0
 49
2.54
 74
     0
 49
-2.54
 74
     0
  0
LTYPE
  5
72
330
5
100
AcDbSymbolTableRecord
100
AcDbLinetypeTableRecord
  2
DOT2
 70
     0
  3
Dot (.5x) ........................................
 72
    65
 73
     2
 40
0.635
 49
0.0
 74
     0
 49
-0.635
 74
     0
  0
ENDTAB
  0
TABLE
  2
LAYER
  5
2
330
0
100
AcDbSymbolTable
 70
     1
  0
LAYER
  5
10
330
2
100
AcDbSymbolTableRecord
100
AcDbLayerTableRecord
  2
0
 70
     0
 62
     7
  6
Continuous
370
    -3
390
F
  0
ENDTAB
  0
TABLE
  2
STYLE
  5
3
330
0
100
AcDbSymbolTable
 70
     3
  0
STYLE
  5
11
330
3
100
AcDbSymbolTableRecord
100
AcDbTextStyleTableRecord
  2
Standard
 70
     0
 40
0.0
 41
1.0
 50
0.0
 71
     0
 42
3.5
  3
txt
  4

  0
STYLE
  5
84
330
3
100
AcDbSymbolTableRecord
100
AcDbTextStyleTableRecord
  2
SLDTEXTSTYLE0
 70
     0
 40
0.0
 41
0.605
 50
0.0
 71
     0
 42
3.5
  3
TXT
  4

  0
STYLE
  5
195
330
3
100
AcDbSymbolTableRecord
100
AcDbTextStyleTableRecord
  2
SLDTEXTSTYLE1
 70
     0
 40
0.0
 41
0.75
 50
0.0
 71
     0
 42
3.5
  3
TXT
  4

  0
ENDTAB
  0
TABLE
  2
VIEW
  5
6
330
0
100
AcDbSymbolTable
 70
     0
  0
ENDTAB
  0
TABLE
  2
UCS
  5
7
330
0
100
AcDbSymbolTable
 70
     0
  0
ENDTAB
  0
TABLE
  2
APPID
  5
9
330
0
100
AcDbSymbolTable
 70
     1
  0
APPID
  5
12
330
9
100
AcDbSymbolTableRecord
100
AcDbRegAppTableRecord
  2
ACAD
 70
     0
  0
ENDTAB
  0
TABLE
  2
DIMSTYLE
  5
A
330
0
100
AcDbSymbolTable
 70
     2
100
AcDbDimStyleTable
  0
DIMSTYLE
105
27
330
A
100
AcDbSymbolTableRecord
100
AcDbDimStyleTableRecord
  2
ISO-25
 70
     0
 41
2.5
 42
0.625
 43
3.75
 44
1.25
 73
     0
 74
     0
 77
     1
 78
     8
140
2.5
141
2.5
143
0.0393700787
147
0.625
171
     3
172
     1
178
     0
271
     2
272
     2
274
     3
278
    44
283
     0
284
     8
340
11
  0
DIMSTYLE
105
2D0
102
{ACAD_REACTORS
330
2CF
102
}
330
A
100
AcDbSymbolTableRecord
100
AcDbDimStyleTableRecord
  2
SLDDIMSTYLE0
 70
     0
 41
3.302
 44
0.0
 45
0.000000001
 73
     0
 74
     0
 77
     1
 78
    12
 79
     3
140
3.5
147
0.875
173
     1
178
     0
271
     0
272
     0
276
     2
284
    12
340
195
  0
ENDTAB
  0
TABLE
  2
BLOCK_RECORD
  5
1
330
0
100
AcDbSymbolTable
 70
    32
  0
BLOCK_RECORD
  5
1F
330
1
100
AcDbSymbolTableRecord
100
AcDbBlockTableRecord
  2
*Model_Space
340
22
  0
BLOCK_RECORD
  5
1B
330
1
100
AcDbSymbolTableRecord
100
AcDbBlockTableRecord
  2
*Paper_Space
340
1E
  0
BLOCK_RECORD
  5
23
330
1
100
AcDbSymbolTableRecord
100
AcDbBlockTableRecord
  2
*Paper_Space0
340
26
  0
BLOCK_RECORD
  5
73
330
1
100
AcDbSymbolTableRecord
100
AcDbBlockTableRecord
  2
Projektion
340
0
  0
BLOCK_RECORD
  5
7E
330
1
100
AcDbSymbolTableRecord
100
AcDbBlockTableRecord
  2
Block1
340
0
  0
BLOCK_RECORD
  5
81
330
1
100
AcDbSymbolTableRecord
100
AcDbBlockTableRecord
  2
SW_NOTE_0
340
0
102
{BLKREFS
331
88
102
}
  0
BLOCK_RECORD
  5
89
330
1
100
AcDbSymbolTableRecord
100
AcDbBlockTableRecord
  2
SW_NOTE_0_1
340
0
102
{BLKREFS
331
8D
102
}
  0
BLOCK_RECORD
  5
8E
330
1
100
AcDbSymbolTableRecord
100
AcDbBlockTableRecord
  2
SW_NOTE_0_2
340
0
102
{BLKREFS
331
92
102
}
  0
BLOCK_RECORD
  5
93
330
1
100
AcDbSymbolTableRecord
100
AcDbBlockTableRecord
  2
Block5
340
0
102
{BLKREFS
331
194
102
}
  0
BLOCK_RECORD
  5
AA
330
1
100
AcDbSymbolTableRecord
100
AcDbBlockTableRecord
  2
SW_BLOCK_DIMENSION_0
340
0
102
{BLKREFS
331
B5
102
}
  0
BLOCK_RECORD
  5
AD
330
1
100
AcDbSymbolTableRecord
100
AcDbBlockTableRecord
  2
_Origin
340
0
102
{BLKREFS
331
B2
331
121
102
}
  0
BLOCK_RECORD
  5
B6
330
1
100
AcDbSymbolTableRecord
100
AcDbBlockTableRecord
  2
SW_BLOCK_DIMENSION_1
340
0
102
{BLKREFS
331
BD
102
}
  0
BLOCK_RECORD
  5
BE
330
1
100
AcDbSymbolTableRecord
100
AcDbBlockTableRecord
  2
SW_BLOCK_DIMENSION_2
340
0
102
{BLKREFS
331
C5
102
}
  0
BLOCK_RECORD
  5
C6
330
1
100
AcDbSymbolTableRecord
100
AcDbBlockTableRecord
  2
SW_BLOCK_DIMENSION_3
340
0
102
{BLKREFS
331
CD
102
}
  0
BLOCK_RECORD
  5
CE
330
1
100
AcDbSymbolTableRecord
100
AcDbBlockTableRecord
  2
SW_BLOCK_DIMENSION_4
340
0
102
{BLKREFS
331
D5
102
}
  0
BLOCK_RECORD
  5
D6
330
1
100
AcDbSymbolTableRecord
100
AcDbBlockTableRecord
  2
SW_BLOCK_DIMENSION_5
340
0
102
{BLKREFS
331
DD
102
}
  0
BLOCK_RECORD
  5
DE
330
1
100
AcDbSymbolTableRecord
100
AcDbBlockTableRecord
  2
SW_BLOCK_DIMENSION_6
340
0
102
{BLKREFS
331
E5
102
}
  0
BLOCK_RECORD
  5
E6
330
1
100
AcDbSymbolTableRecord
100
AcDbBlockTableRecord
  2
SW_BLOCK_DIMENSION_7
340
0
102
{BLKREFS
331
ED
102
}
  0
BLOCK_RECORD
  5
EE
330
1
100
AcDbSymbolTableRecord
100
AcDbBlockTableRecord
  2
SW_BLOCK_DIMENSION_8
340
0
102
{BLKREFS
331
F5
102
}
  0
BLOCK_RECORD
  5
F6
330
1
100
AcDbSymbolTableRecord
100
AcDbBlockTableRecord
  2
SW_BLOCK_DIMENSION_9
340
0
102
{BLKREFS
331
FD
102
}
  0
BLOCK_RECORD
  5
FE
330
1
100
AcDbSymbolTableRecord
100
AcDbBlockTableRecord
  2
SW_BLOCK_DIMENSION_10
340
0
102
{BLKREFS
331
105
102
}
  0
BLOCK_RECORD
  5
106
330
1
100
AcDbSymbolTableRecord
100
AcDbBlockTableRecord
  2
SW_BLOCK_DIMENSION_11
340
0
102
{BLKREFS
331
10D
102
}
  0
BLOCK_RECORD
  5
10E
330
1
100
AcDbSymbolTableRecord
100
AcDbBlockTableRecord
  2
SW_BLOCK_DIMENSION_12
340
0
102
{BLKREFS
331
115
102
}
  0
BLOCK_RECORD
  5
116
330
1
100
AcDbSymbolTableRecord
100
AcDbBlockTableRecord
  2
SW_BLOCK_DIMENSION_13
340
0
102
{BLKREFS
331
11D
102
}
  0
BLOCK_RECORD
  5
11E
330
1
100
AcDbSymbolTableRecord
100
AcDbBlockTableRecord
  2
SW_BLOCK_DIMENSION_14
340
0
102
{BLKREFS
331
12D
102
}
  0
BLOCK_RECORD
  5
12E
330
1
100
AcDbSymbolTableRecord
100
AcDbBlockTableRecord
  2
SW_BLOCK_DIMENSION_15
340
0
102
{BLKREFS
331
13E
102
}
  0
BLOCK_RECORD
  5
13F
330
1
100
AcDbSymbolTableRecord
100
AcDbBlockTableRecord
  2
SW_BLOCK_DIMENSION_16
340
0
102
{BLKREFS
331
14F
102
}
  0
BLOCK_RECORD
  5
150
330
1
100
AcDbSymbolTableRecord
100
AcDbBlockTableRecord
  2
SW_BLOCK_DIMENSION_17
340
0
102
{BLKREFS
331
160
102
}
  0
BLOCK_RECORD
  5
161
330
1
100
AcDbSymbolTableRecord
100
AcDbBlockTableRecord
  2
SW_BLOCK_DIMENSION_18
340
0
102
{BLKREFS
331
171
102
}
  0
BLOCK_RECORD
  5
172
330
1
100
AcDbSymbolTableRecord
100
AcDbBlockTableRecord
  2
SW_BLOCK_DIMENSION_19
340
0
102
{BLKREFS
331
182
102
}
  0
BLOCK_RECORD
  5
183
330
1
100
AcDbSymbolTableRecord
100
AcDbBlockTableRecord
  2
SW_NOTE_0_3
340
0
102
{BLKREFS
331
188
102
}
  0
BLOCK_RECORD
  5
189
330
1
100
AcDbSymbolTableRecord
100
AcDbBlockTableRecord
  2
SW_NOTE_0_4
340
0
102
{BLKREFS
331
18D
102
}
  0
BLOCK_RECORD
  5
198
330
1
100
AcDbSymbolTableRecord
100
AcDbBlockTableRecord
  2
SW_NOTE_0_5
340
0
102
{BLKREFS
331
19F
102
}
  0
BLOCK_RECORD
  5
2D1
330
1
100
AcDbSymbolTableRecord
100
AcDbBlockTableRecord
  2
_D
340
0
  0
ENDTAB
  0
ENDSEC
  0
SECTION
  2
BLOCKS
  0
BLOCK
  5
20
330
1F
100
AcDbEntity
  8
0
100
AcDbBlockBegin
  2
*Model_Space
 70
     0
 10
0.0
 20
0.0
 30
0.0
  3
*Model_Space
  1

  0
ENDBLK
  5
21
330
1F
100
AcDbEntity
  8
0
100
AcDbBlockEnd
  0
BLOCK
  5
1C
330
1B
100
AcDbEntity
 67
     1
  8
0
100
AcDbBlockBegin
  2
*Paper_Space
 70
     0
 10
0.0
 20
0.0
 30
0.0
  3
*Paper_Space
  1

  0
ENDBLK
  5
1D
330
1B
100
AcDbEntity
 67
     1
  8
0
100
AcDbBlockEnd
  0
BLOCK
  5
24
330
23
100
AcDbEntity
  8
0
100
AcDbBlockBegin
  2
*Paper_Space0
 70
     0
 10
0.0
 20
0.0
 30
0.0
  3
*Paper_Space0
  1

  0
ENDBLK
  5
25
330
23
100
AcDbEntity
  8
0
100
AcDbBlockEnd
  0
BLOCK
  5
74
330
73
100
AcDbEntity
  8
0
100
AcDbBlockBegin
  2
Projektion
 70
     0
 10
0.0
 20
0.0
 30
0.0
  3
Projektion
  1

  0
CIRCLE
  5
76
330
73
100
AcDbEntity
  8
0
  6
Continuous
 62
     7
370
    18
100
AcDbCircle
 10
174.3600996763
 20
116.0271411334
 30
0.0
 40
3.403359543179178
  0
CIRCLE
  5
77
330
73
100
AcDbEntity
  8
0
  6
Continuous
 62
     7
370
    18
100
AcDbCircle
 10
174.3600996763
 20
116.0271411334
 30
0.0
 40
6.87995547039705
  0
LINE
  5
78
330
73
100
AcDbEntity
  8
0
  6
Continuous
 62
     7
370
    18
100
AcDbLine
 10
135.2082544366
 20
119.4271411334
 30
0.0
 11
135.2082544366
 21
112.6271411334
 31
0.0
  0
LINE
  5
79
330
73
100
AcDbEntity
  8
0
  6
Continuous
 62
     7
370
    18
100
AcDbLine
 10
135.2082544366
 20
112.6271411334
 30
0.0
 11
157.5294737026
 21
109.1471411334
 31
0.0
  0
LINE
  5
7A
330
73
100
AcDbEntity
  8
0
  6
Continuous
 62
     7
370
    18
100
AcDbLine
 10
157.5294737026
 20
109.1471411334
 30
0.0
 11
157.5294737026
 21
122.9071411334
 31
0.0
  0
LINE
  5
7B
330
73
100
AcDbEntity
  8
0
  6
Continuous
 62
     7
370
    18
100
AcDbLine
 10
157.5294737026
 20
122.9071411334
 30
0.0
 11
135.2082544366
 21
119.4271411334
 31
0.0
  0
LINE
  5
7C
330
73
100
AcDbEntity
  8
0
  6
CENTERX2
 62
     7
370
    18
100
AcDbLine
 10
184.6825839037
 20
116.0271411334
 30
0.0
 11
132.3261221773
 21
116.0271411334
 31
0.0
  0
LINE
  5
7D
330
73
100
AcDbEntity
  8
0
  6
CENTERX2
 62
     7
370
    18
100
AcDbLine
 10
174.3600996763
 20
126.2664215848
 30
0.0
 11
174.3600996763
 21
106.5064066785
 31
0.0
  0
ENDBLK
  5
75
330
73
100
AcDbEntity
  8
0
100
AcDbBlockEnd
  0
BLOCK
  5
7F
330
7E
100
AcDbEntity
  8
0
100
AcDbBlockBegin
  2
Block1
 70
     0
 10
0.0
 20
0.0
 30
0.0
  3
Block1
  1

  0
INSERT
  5
88
330
7E
100
AcDbEntity
  8
0
  6
Continuous
 62
     7
370
     0
100
AcDbBlockReference
  2
SW_NOTE_0
 10
8.0143494797
 20
5.0217835376
 30
0.0
  0
INSERT
  5
8D
330
7E
100
AcDbEntity
  8
0
  6
Continuous
 62
     7
370
     0
100
AcDbBlockReference
  2
SW_NOTE_0_1
 10
2.7163741334
 20
13.3377004076
 30
0.0
  0
INSERT
  5
92
330
7E
100
AcDbEntity
  8
0
  6
Continuous
 62
     7
370
     0
100
AcDbBlockReference
  2
SW_NOTE_0_2
 10
0.6743674321
 20
9.3073129433
 30
0.0
  0
ENDBLK
  5
80
330
7E
100
AcDbEntity
  8
0
100
AcDbBlockEnd
  0
BLOCK
  5
82
330
81
100
AcDbEntity
  8
0
100
AcDbBlockBegin
  2
SW_NOTE_0
 70
     0
 10
0.0
 20
0.0
 30
0.0
  3
SW_NOTE_0
  1

  0
MTEXT
  5
85
330
81
100
AcDbEntity
  8
0
  6
Continuous
 62
     0
370
     0
100
AcDbMText
 10
11.3688151042
 20
3.7517242343
 30
0.0
 40
2.9104166667
 41
0.0
 71
     2
 72
     1
  1
76646 Bruchsal
  7
SLDTEXTSTYLE0
 73
     1
 44
1.0
  0
MTEXT
  5
86
330
81
100
AcDbEntity
  8
0
  6
Continuous
 62
     0
370
     0
100
AcDbMText
 10
11.0349921544
 20
-0.1288312744
 30
0.0
 40
2.9104166667
 41
0.0
 71
     2
 72
     1
  1
Germany
  7
SLDTEXTSTYLE0
 73
     1
 44
1.0
  0
MTEXT
  5
87
330
81
100
AcDbEntity
  8
0
  6
Continuous
 62
     0
370
     0
100
AcDbMText
 10
11.234990793
 20
-3.9742509227
 30
0.0
 40
2.1166666667
 41
0.0
 71
     2
 72
     1
  1
www.abp-beyerle.de
  7
SLDTEXTSTYLE0
 73
     1
 44
1.0
  0
ENDBLK
  5
83
330
81
100
AcDbEntity
  8
0
100
AcDbBlockEnd
  0
BLOCK
  5
8A
330
89
100
AcDbEntity
  8
0
100
AcDbBlockBegin
  2
SW_NOTE_0_1
 70
     0
 10
0.0
 20
0.0
 30
0.0
  3
SW_NOTE_0_1
  1

  0
MTEXT
  5
8C
330
89
100
AcDbEntity
  8
0
  6
Continuous
 62
     0
370
     0
100
AcDbMText
 10
0.0
 20
3.7517242343
 30
0.0
 40
2.9104166667
 41
0.0
 71
     1
 72
     1
  1
ABP-Beyerle GmbH
  7
SLDTEXTSTYLE0
 73
     1
 44
1.0
  0
ENDBLK
  5
8B
330
89
100
AcDbEntity
  8
0
100
AcDbBlockEnd
  0
BLOCK
  5
8F
330
8E
100
AcDbEntity
  8
0
100
AcDbBlockBegin
  2
SW_NOTE_0_2
 70
     0
 10
0.0
 20
0.0
 30
0.0
  3
SW_NOTE_0_2
  1

  0
MTEXT
  5
91
330
8E
100
AcDbEntity
  8
0
  6
Continuous
 62
     0
370
     0
100
AcDbMText
 10
0.0
 20
3.7517242343
 30
0.0
 40
2.9104166667
 41
0.0
 71
     1
 72
     1
  1
Im Schollengarten 24b
  7
SLDTEXTSTYLE0
 73
     1
 44
1.0
  0
ENDBLK
  5
90
330
8E
100
AcDbEntity
  8
0
100
AcDbBlockEnd
  0
BLOCK
  5
94
330
93
100
AcDbEntity
  8
0
100
AcDbBlockBegin
  2
Block5
 70
     0
 10
0.0
 20
0.0
 30
0.0
  3
Block5
  1

  0
LINE
  5
96
330
93
100
AcDbEntity
  8
0
100
AcDbLine
 10
363.6834285714
 20
41.3579706949
 30
0.0
 11
388.6834285714
 21
41.3579706949
 31
0.0
  0
LINE
  5
97
330
93
100
AcDbEntity
  8
0
100
AcDbLine
 10
374.9034285714
 20
41.3579706949
 30
0.0
 11
374.9034285714
 21
171.3579706949
 31
0.0
  0
LINE
  5
98
330
93
100
AcDbEntity
  8
0
100
AcDbLine
 10
374.9034285714
 20
51.3579706949
 30
0.0
 11
384.9034285714
 21
51.3579706949
 31
0.0
  0
LINE
  5
99
330
93
100
AcDbEntity
  8
0
100
AcDbLine
 10
374.9034285714
 20
61.3579706949
 30
0.0
 11
384.9034285714
 21
61.3579706949
 31
0.0
  0
LINE
  5
9A
330
93
100
AcDbEntity
  8
0
100
AcDbLine
 10
374.9034285714
 20
71.3579706949
 30
0.0
 11
384.9034285714
 21
71.3579706949
 31
0.0
  0
LINE
  5
9B
330
93
100
AcDbEntity
  8
0
100
AcDbLine
 10
374.9034285714
 20
81.3579706949
 30
0.0
 11
384.9034285714
 21
81.3579706949
 31
0.0
  0
LINE
  5
9C
330
93
100
AcDbEntity
  8
0
100
AcDbLine
 10
374.9034285714
 20
91.3579706949
 30
0.0
 11
384.9034285714
 21
91.3579706949
 31
0.0
  0
LINE
  5
9D
330
93
100
AcDbEntity
  8
0
100
AcDbLine
 10
374.9034285714
 20
101.3579706949
 30
0.0
 11
384.9034285714
 21
101.3579706949
 31
0.0
  0
LINE
  5
9E
330
93
100
AcDbEntity
  8
0
100
AcDbLine
 10
374.9034285714
 20
111.3579706949
 30
0.0
 11
384.9034285714
 21
111.3579706949
 31
0.0
  0
LINE
  5
9F
330
93
100
AcDbEntity
  8
0
100
AcDbLine
 10
374.9034285714
 20
121.3579706949
 30
0.0
 11
384.9034285714
 21
121.3579706949
 31
0.0
  0
LINE
  5
A0
330
93
100
AcDbEntity
  8
0
100
AcDbLine
 10
374.9034285714
 20
131.3579706949
 30
0.0
 11
384.9034285714
 21
131.3579706949
 31
0.0
  0
LINE
  5
A1
330
93
100
AcDbEntity
  8
0
100
AcDbLine
 10
374.9034285714
 20
141.3579706949
 30
0.0
 11
384.9034285714
 21
141.3579706949
 31
0.0
  0
LINE
  5
A2
330
93
100
AcDbEntity
  8
0
100
AcDbLine
 10
374.9034285714
 20
151.3579706949
 30
0.0
 11
384.9034285714
 21
151.3579706949
 31
0.0
  0
LINE
  5
A3
330
93
100
AcDbEntity
  8
0
100
AcDbLine
 10
374.9034285714
 20
161.3579706949
 30
0.0
 11
384.9034285714
 21
161.3579706949
 31
0.0
  0
LINE
  5
A4
330
93
100
AcDbEntity
  8
0
100
AcDbLine
 10
374.9034285714
 20
171.3579706949
 30
0.0
 11
384.9034285714
 21
171.3579706949
 31
0.0
  0
LINE
  5
A5
330
93
100
AcDbEntity
  8
0
100
AcDbLine
 10
374.9034285714
 20
66.7579706949
 30
0.0
 11
362.9034285714
 21
66.7579706949
 31
0.0
  0
LINE
  5
A6
330
93
100
AcDbEntity
  8
0
100
AcDbLine
 10
374.9034285714
 20
92.1579706949
 30
0.0
 11
362.9034285714
 21
92.1579706949
 31
0.0
  0
LINE
  5
A7
330
93
100
AcDbEntity
  8
0
100
AcDbLine
 10
374.9034285714
 20
117.5579706949
 30
0.0
 11
362.9034285714
 21
117.5579706949
 31
0.0
  0
LINE
  5
A8
330
93
100
AcDbEntity
  8
0
100
AcDbLine
 10
374.9034285714
 20
142.9579706949
 30
0.0
 11
362.9034285714
 21
142.9579706949
 31
0.0
  0
LINE
  5
A9
330
93
100
AcDbEntity
  8
0
100
AcDbLine
 10
374.9034285714
 20
168.3579706949
 30
0.0
 11
362.9034285714
 21
168.3579706949
 31
0.0
  0
INSERT
  5
B5
330
93
100
AcDbEntity
  8
0
100
AcDbBlockReference
  2
SW_BLOCK_DIMENSION_0
 10
397.2096946378
 20
38.9914197296
 30
0.0
  0
INSERT
  5
BD
330
93
100
AcDbEntity
  8
0
100
AcDbBlockReference
  2
SW_BLOCK_DIMENSION_1
 10
397.2096946378
 20
48.9914197296
 30
0.0
  0
INSERT
  5
C5
330
93
100
AcDbEntity
  8
0
100
AcDbBlockReference
  2
SW_BLOCK_DIMENSION_2
 10
397.2096946378
 20
58.9914197296
 30
0.0
  0
INSERT
  5
CD
330
93
100
AcDbEntity
  8
0
100
AcDbBlockReference
  2
SW_BLOCK_DIMENSION_3
 10
397.2096946378
 20
68.9914197296
 30
0.0
  0
INSERT
  5
D5
330
93
100
AcDbEntity
  8
0
100
AcDbBlockReference
  2
SW_BLOCK_DIMENSION_4
 10
397.2096946378
 20
78.9914197296
 30
0.0
  0
INSERT
  5
DD
330
93
100
AcDbEntity
  8
0
100
AcDbBlockReference
  2
SW_BLOCK_DIMENSION_5
 10
397.2096946378
 20
88.9914197296
 30
0.0
  0
INSERT
  5
E5
330
93
100
AcDbEntity
  8
0
100
AcDbBlockReference
  2
SW_BLOCK_DIMENSION_6
 10
397.2096946378
 20
98.9914197296
 30
0.0
  0
INSERT
  5
ED
330
93
100
AcDbEntity
  8
0
100
AcDbBlockReference
  2
SW_BLOCK_DIMENSION_7
 10
397.2096946378
 20
108.9914197296
 30
0.0
  0
INSERT
  5
F5
330
93
100
AcDbEntity
  8
0
100
AcDbBlockReference
  2
SW_BLOCK_DIMENSION_8
 10
397.2096946378
 20
118.9914197296
 30
0.0
  0
INSERT
  5
FD
330
93
100
AcDbEntity
  8
0
100
AcDbBlockReference
  2
SW_BLOCK_DIMENSION_9
 10
397.2096946378
 20
128.9914197296
 30
0.0
  0
INSERT
  5
105
330
93
100
AcDbEntity
  8
0
100
AcDbBlockReference
  2
SW_BLOCK_DIMENSION_10
 10
397.2096946378
 20
138.9914197296
 30
0.0
  0
INSERT
  5
10D
330
93
100
AcDbEntity
  8
0
100
AcDbBlockReference
  2
SW_BLOCK_DIMENSION_11
 10
397.2096946378
 20
148.9914197296
 30
0.0
  0
INSERT
  5
115
330
93
100
AcDbEntity
  8
0
100
AcDbBlockReference
  2
SW_BLOCK_DIMENSION_12
 10
397.2096946378
 20
158.9914197296
 30
0.0
  0
INSERT
  5
11D
330
93
100
AcDbEntity
  8
0
100
AcDbBlockReference
  2
SW_BLOCK_DIMENSION_13
 10
397.2096946378
 20
168.9914197296
 30
0.0
  0
INSERT
  5
12D
330
93
100
AcDbEntity
  8
0
100
AcDbBlockReference
  2
SW_BLOCK_DIMENSION_14
 10
341.1734707322
 20
36.1691980072
 30
0.0
  0
INSERT
  5
13E
330
93
100
AcDbEntity
  8
0
100
AcDbBlockReference
  2
SW_BLOCK_DIMENSION_15
 10
339.1802765097
 20
61.5691980072
 30
0.0
  0
INSERT
  5
14F
330
93
100
AcDbEntity
  8
0
100
AcDbBlockReference
  2
SW_BLOCK_DIMENSION_16
 10
339.1802765097
 20
86.9691980072
 30
0.0
  0
INSERT
  5
160
330
93
100
AcDbEntity
  8
0
100
AcDbBlockReference
  2
SW_BLOCK_DIMENSION_17
 10
339.1802765097
 20
112.3691980072
 30
0.0
  0
INSERT
  5
171
330
93
100
AcDbEntity
  8
0
100
AcDbBlockReference
  2
SW_BLOCK_DIMENSION_18
 10
336.8284243759
 20
137.7691980072
 30
0.0
  0
INSERT
  5
182
330
93
100
AcDbEntity
  8
0
100
AcDbBlockReference
  2
SW_BLOCK_DIMENSION_19
 10
336.8284243759
 20
163.1691980072
 30
0.0
  0
INSERT
  5
188
330
93
100
AcDbEntity
  8
0
 62
     7
100
AcDbBlockReference
  2
SW_NOTE_0_3
 10
337.5586028241
 20
28.8175207347
 30
0.0
  0
INSERT
  5
18D
330
93
100
AcDbEntity
  8
0
 62
     7
100
AcDbBlockReference
  2
SW_NOTE_0_4
 10
393.160738319
 20
28.8175207347
 30
0.0
  0
ENDBLK
  5
95
330
93
100
AcDbEntity
  8
0
100
AcDbBlockEnd
  0
BLOCK
  5
AB
330
AA
100
AcDbEntity
  8
0
100
AcDbBlockBegin
  2
SW_BLOCK_DIMENSION_0
 70
     0
 10
0.0
 20
0.0
 30
0.0
  3
SW_BLOCK_DIMENSION_0
  1

  0
INSERT
  5
B2
330
AA
100
AcDbEntity
  8
0
 62
     0
100
AcDbBlockReference
  2
_Origin
 10
-1.016
 20
2.3665509652
 30
0.0
 41
1.016
 42
1.016
 50
0.0
  0
LINE
  5
B3
330
AA
100
AcDbEntity
  8
0
 62
     0
100
AcDbLine
 10
-7.5262660664
 20
2.3665509652
 30
0.0
 11
0.0
 21
2.3665509652
 31
0.0
  0
MTEXT
  5
B4
330
AA
100
AcDbEntity
  8
0
 62
     0
100
AcDbMText
 10
0.0
 20
4.0927900738
 30
0.0
 40
3.175
 41
0.0
 71
     1
 72
     1
  1
0
  7
SLDTEXTSTYLE0
 73
     1
 44
1.0
  0
ENDBLK
  5
AC
330
AA
100
AcDbEntity
  8
0
100
AcDbBlockEnd
  0
BLOCK
  5
AE
330
AD
100
AcDbEntity
  8
0
100
AcDbBlockBegin
  2
_Origin
 70
     0
 10
0.0
 20
0.0
 30
0.0
  3
_Origin
  1

  0
CIRCLE
  5
B0
330
AD
100
AcDbEntity
  8
0
  6
ByBlock
 62
     0
370
    -2
100
AcDbCircle
 10
0.0
 20
0.0
 30
0.0
 40
0.5
  0
LINE
  5
B1
330
AD
100
AcDbEntity
  8
0
  6
ByBlock
 62
     0
370
    -2
100
AcDbLine
 10
0.0
 20
0.0
 30
0.0
 11
-1.0
 21
0.0
 31
0.0
  0
ENDBLK
  5
AF
330
AD
100
AcDbEntity
  8
0
100
AcDbBlockEnd
  0
BLOCK
  5
B7
330
B6
100
AcDbEntity
  8
0
100
AcDbBlockBegin
  2
SW_BLOCK_DIMENSION_1
 70
     0
 10
0.0
 20
0.0
 30
0.0
  3
SW_BLOCK_DIMENSION_1
  1

  0
SOLID
  5
B9
330
B6
100
AcDbEntity
  8
0
 62
     0
100
AcDbTrace
 10
-1.016
 20
2.3665509652
 30
0.0
 11
-1.524
 21
-0.9354490348
 31
0.0
 12
-0.508
 22
-0.9354490348
 32
0.0
 13
-0.508
 23
-0.9354490348
 33
0.0
  0
LINE
  5
BA
330
B6
100
AcDbEntity
  8
0
 62
     0
100
AcDbLine
 10
-11.3062660664
 20
2.3665509652
 30
0.0
 11
0.0
 21
2.3665509652
 31
0.0
  0
LINE
  5
BB
330
B6
100
AcDbEntity
  8
0
 62
     0
100
AcDbLine
 10
-1.016
 20
-7.6334490348
 30
0.0
 11
-1.016
 21
2.3665509652
 31
0.0
  0
MTEXT
  5
BC
330
B6
100
AcDbEntity
  8
0
 62
     0
100
AcDbMText
 10
0.0
 20
4.0927900738
 30
0.0
 40
3.175
 41
0.0
 71
     1
 72
     1
  1
10,00
  7
SLDTEXTSTYLE0
 73
     1
 44
1.0
  0
ENDBLK
  5
B8
330
B6
100
AcDbEntity
  8
0
100
AcDbBlockEnd
  0
BLOCK
  5
BF
330
BE
100
AcDbEntity
  8
0
100
AcDbBlockBegin
  2
SW_BLOCK_DIMENSION_2
 70
     0
 10
0.0
 20
0.0
 30
0.0
  3
SW_BLOCK_DIMENSION_2
  1

  0
SOLID
  5
C1
330
BE
100
AcDbEntity
  8
0
 62
     0
100
AcDbTrace
 10
-1.016
 20
2.3665509652
 30
0.0
 11
-1.524
 21
-0.9354490348
 31
0.0
 12
-0.508
 22
-0.9354490348
 32
0.0
 13
-0.508
 23
-0.9354490348
 33
0.0
  0
LINE
  5
C2
330
BE
100
AcDbEntity
  8
0
 62
     0
100
AcDbLine
 10
-11.3062660664
 20
2.3665509652
 30
0.0
 11
0.0
 21
2.3665509652
 31
0.0
  0
LINE
  5
C3
330
BE
100
AcDbEntity
  8
0
 62
     0
100
AcDbLine
 10
-1.016
 20
-7.6334490348
 30
0.0
 11
-1.016
 21
2.3665509652
 31
0.0
  0
MTEXT
  5
C4
330
BE
100
AcDbEntity
  8
0
 62
     0
100
AcDbMText
 10
0.0
 20
4.0927900738
 30
0.0
 40
3.175
 41
0.0
 71
     1
 72
     1
  1
20,00
  7
SLDTEXTSTYLE0
 73
     1
 44
1.0
  0
ENDBLK
  5
C0
330
BE
100
AcDbEntity
  8
0
100
AcDbBlockEnd
  0
BLOCK
  5
C7
330
C6
100
AcDbEntity
  8
0
100
AcDbBlockBegin
  2
SW_BLOCK_DIMENSION_3
 70
     0
 10
0.0
 20
0.0
 30
0.0
  3
SW_BLOCK_DIMENSION_3
  1

  0
SOLID
  5
C9
330
C6
100
AcDbEntity
  8
0
 62
     0
100
AcDbTrace
 10
-1.016
 20
2.3665509652
 30
0.0
 11
-1.524
 21
-0.9354490348
 31
0.0
 12
-0.508
 22
-0.9354490348
 32
0.0
 13
-0.508
 23
-0.9354490348
 33
0.0
  0
LINE
  5
CA
330
C6
100
AcDbEntity
  8
0
 62
     0
100
AcDbLine
 10
-11.3062660664
 20
2.3665509652
 30
0.0
 11
0.0
 21
2.3665509652
 31
0.0
  0
LINE
  5
CB
330
C6
100
AcDbEntity
  8
0
 62
     0
100
AcDbLine
 10
-1.016
 20
-7.6334490348
 30
0.0
 11
-1.016
 21
2.3665509652
 31
0.0
  0
MTEXT
  5
CC
330
C6
100
AcDbEntity
  8
0
 62
     0
100
AcDbMText
 10
0.0
 20
4.0927900738
 30
0.0
 40
3.175
 41
0.0
 71
     1
 72
     1
  1
30,00
  7
SLDTEXTSTYLE0
 73
     1
 44
1.0
  0
ENDBLK
  5
C8
330
C6
100
AcDbEntity
  8
0
100
AcDbBlockEnd
  0
BLOCK
  5
CF
330
CE
100
AcDbEntity
  8
0
100
AcDbBlockBegin
  2
SW_BLOCK_DIMENSION_4
 70
     0
 10
0.0
 20
0.0
 30
0.0
  3
SW_BLOCK_DIMENSION_4
  1

  0
SOLID
  5
D1
330
CE
100
AcDbEntity
  8
0
 62
     0
100
AcDbTrace
 10
-1.016
 20
2.3665509652
 30
0.0
 11
-1.524
 21
-0.9354490348
 31
0.0
 12
-0.508
 22
-0.9354490348
 32
0.0
 13
-0.508
 23
-0.9354490348
 33
0.0
  0
LINE
  5
D2
330
CE
100
AcDbEntity
  8
0
 62
     0
100
AcDbLine
 10
-11.3062660664
 20
2.3665509652
 30
0.0
 11
0.0
 21
2.3665509652
 31
0.0
  0
LINE
  5
D3
330
CE
100
AcDbEntity
  8
0
 62
     0
100
AcDbLine
 10
-1.016
 20
-7.6334490348
 30
0.0
 11
-1.016
 21
2.3665509652
 31
0.0
  0
MTEXT
  5
D4
330
CE
100
AcDbEntity
  8
0
 62
     0
100
AcDbMText
 10
0.0
 20
4.0927900738
 30
0.0
 40
3.175
 41
0.0
 71
     1
 72
     1
  1
40,00
  7
SLDTEXTSTYLE0
 73
     1
 44
1.0
  0
ENDBLK
  5
D0
330
CE
100
AcDbEntity
  8
0
100
AcDbBlockEnd
  0
BLOCK
  5
D7
330
D6
100
AcDbEntity
  8
0
100
AcDbBlockBegin
  2
SW_BLOCK_DIMENSION_5
 70
     0
 10
0.0
 20
0.0
 30
0.0
  3
SW_BLOCK_DIMENSION_5
  1

  0
SOLID
  5
D9
330
D6
100
AcDbEntity
  8
0
 62
     0
100
AcDbTrace
 10
-1.016
 20
2.3665509652
 30
0.0
 11
-1.524
 21
-0.9354490348
 31
0.0
 12
-0.508
 22
-0.9354490348
 32
0.0
 13
-0.508
 23
-0.9354490348
 33
0.0
  0
LINE
  5
DA
330
D6
100
AcDbEntity
  8
0
 62
     0
100
AcDbLine
 10
-11.3062660664
 20
2.3665509652
 30
0.0
 11
0.0
 21
2.3665509652
 31
0.0
  0
LINE
  5
DB
330
D6
100
AcDbEntity
  8
0
 62
     0
100
AcDbLine
 10
-1.016
 20
-7.6334490348
 30
0.0
 11
-1.016
 21
2.3665509652
 31
0.0
  0
MTEXT
  5
DC
330
D6
100
AcDbEntity
  8
0
 62
     0
100
AcDbMText
 10
0.0
 20
4.0927900738
 30
0.0
 40
3.175
 41
0.0
 71
     1
 72
     1
  1
50,00
  7
SLDTEXTSTYLE0
 73
     1
 44
1.0
  0
ENDBLK
  5
D8
330
D6
100
AcDbEntity
  8
0
100
AcDbBlockEnd
  0
BLOCK
  5
DF
330
DE
100
AcDbEntity
  8
0
100
AcDbBlockBegin
  2
SW_BLOCK_DIMENSION_6
 70
     0
 10
0.0
 20
0.0
 30
0.0
  3
SW_BLOCK_DIMENSION_6
  1

  0
SOLID
  5
E1
330
DE
100
AcDbEntity
  8
0
 62
     0
100
AcDbTrace
 10
-1.016
 20
2.3665509652
 30
0.0
 11
-1.524
 21
-0.9354490348
 31
0.0
 12
-0.508
 22
-0.9354490348
 32
0.0
 13
-0.508
 23
-0.9354490348
 33
0.0
  0
LINE
  5
E2
330
DE
100
AcDbEntity
  8
0
 62
     0
100
AcDbLine
 10
-11.3062660664
 20
2.3665509652
 30
0.0
 11
0.0
 21
2.3665509652
 31
0.0
  0
LINE
  5
E3
330
DE
100
AcDbEntity
  8
0
 62
     0
100
AcDbLine
 10
-1.016
 20
-7.6334490348
 30
0.0
 11
-1.016
 21
2.3665509652
 31
0.0
  0
MTEXT
  5
E4
330
DE
100
AcDbEntity
  8
0
 62
     0
100
AcDbMText
 10
0.0
 20
4.0927900738
 30
0.0
 40
3.175
 41
0.0
 71
     1
 72
     1
  1
60,00
  7
SLDTEXTSTYLE0
 73
     1
 44
1.0
  0
ENDBLK
  5
E0
330
DE
100
AcDbEntity
  8
0
100
AcDbBlockEnd
  0
BLOCK
  5
E7
330
E6
100
AcDbEntity
  8
0
100
AcDbBlockBegin
  2
SW_BLOCK_DIMENSION_7
 70
     0
 10
0.0
 20
0.0
 30
0.0
  3
SW_BLOCK_DIMENSION_7
  1

  0
SOLID
  5
E9
330
E6
100
AcDbEntity
  8
0
 62
     0
100
AcDbTrace
 10
-1.016
 20
2.3665509652
 30
0.0
 11
-1.524
 21
-0.9354490348
 31
0.0
 12
-0.508
 22
-0.9354490348
 32
0.0
 13
-0.508
 23
-0.9354490348
 33
0.0
  0
LINE
  5
EA
330
E6
100
AcDbEntity
  8
0
 62
     0
100
AcDbLine
 10
-11.3062660664
 20
2.3665509652
 30
0.0
 11
0.0
 21
2.3665509652
 31
0.0
  0
LINE
  5
EB
330
E6
100
AcDbEntity
  8
0
 62
     0
100
AcDbLine
 10
-1.016
 20
-7.6334490348
 30
0.0
 11
-1.016
 21
2.3665509652
 31
0.0
  0
MTEXT
  5
EC
330
E6
100
AcDbEntity
  8
0
 62
     0
100
AcDbMText
 10
0.0
 20
4.0927900738
 30
0.0
 40
3.175
 41
0.0
 71
     1
 72
     1
  1
70,00
  7
SLDTEXTSTYLE0
 73
     1
 44
1.0
  0
ENDBLK
  5
E8
330
E6
100
AcDbEntity
  8
0
100
AcDbBlockEnd
  0
BLOCK
  5
EF
330
EE
100
AcDbEntity
  8
0
100
AcDbBlockBegin
  2
SW_BLOCK_DIMENSION_8
 70
     0
 10
0.0
 20
0.0
 30
0.0
  3
SW_BLOCK_DIMENSION_8
  1

  0
SOLID
  5
F1
330
EE
100
AcDbEntity
  8
0
 62
     0
100
AcDbTrace
 10
-1.016
 20
2.3665509652
 30
0.0
 11
-1.524
 21
-0.9354490348
 31
0.0
 12
-0.508
 22
-0.9354490348
 32
0.0
 13
-0.508
 23
-0.9354490348
 33
0.0
  0
LINE
  5
F2
330
EE
100
AcDbEntity
  8
0
 62
     0
100
AcDbLine
 10
-11.3062660664
 20
2.3665509652
 30
0.0
 11
0.0
 21
2.3665509652
 31
0.0
  0
LINE
  5
F3
330
EE
100
AcDbEntity
  8
0
 62
     0
100
AcDbLine
 10
-1.016
 20
-7.6334490348
 30
0.0
 11
-1.016
 21
2.3665509652
 31
0.0
  0
MTEXT
  5
F4
330
EE
100
AcDbEntity
  8
0
 62
     0
100
AcDbMText
 10
0.0
 20
4.0927900738
 30
0.0
 40
3.175
 41
0.0
 71
     1
 72
     1
  1
80,00
  7
SLDTEXTSTYLE0
 73
     1
 44
1.0
  0
ENDBLK
  5
F0
330
EE
100
AcDbEntity
  8
0
100
AcDbBlockEnd
  0
BLOCK
  5
F7
330
F6
100
AcDbEntity
  8
0
100
AcDbBlockBegin
  2
SW_BLOCK_DIMENSION_9
 70
     0
 10
0.0
 20
0.0
 30
0.0
  3
SW_BLOCK_DIMENSION_9
  1

  0
SOLID
  5
F9
330
F6
100
AcDbEntity
  8
0
 62
     0
100
AcDbTrace
 10
-1.016
 20
2.3665509652
 30
0.0
 11
-1.524
 21
-0.9354490348
 31
0.0
 12
-0.508
 22
-0.9354490348
 32
0.0
 13
-0.508
 23
-0.9354490348
 33
0.0
  0
LINE
  5
FA
330
F6
100
AcDbEntity
  8
0
 62
     0
100
AcDbLine
 10
-11.3062660664
 20
2.3665509652
 30
0.0
 11
0.0
 21
2.3665509652
 31
0.0
  0
LINE
  5
FB
330
F6
100
AcDbEntity
  8
0
 62
     0
100
AcDbLine
 10
-1.016
 20
-7.6334490348
 30
0.0
 11
-1.016
 21
2.3665509652
 31
0.0
  0
MTEXT
  5
FC
330
F6
100
AcDbEntity
  8
0
 62
     0
100
AcDbMText
 10
0.0
 20
4.0927900738
 30
0.0
 40
3.175
 41
0.0
 71
     1
 72
     1
  1
90,00
  7
SLDTEXTSTYLE0
 73
     1
 44
1.0
  0
ENDBLK
  5
F8
330
F6
100
AcDbEntity
  8
0
100
AcDbBlockEnd
  0
BLOCK
  5
FF
330
FE
100
AcDbEntity
  8
0
100
AcDbBlockBegin
  2
SW_BLOCK_DIMENSION_10
 70
     0
 10
0.0
 20
0.0
 30
0.0
  3
SW_BLOCK_DIMENSION_10
  1

  0
SOLID
  5
101
330
FE
100
AcDbEntity
  8
0
 62
     0
100
AcDbTrace
 10
-1.016
 20
2.3665509652
 30
0.0
 11
-1.524
 21
-0.9354490348
 31
0.0
 12
-0.508
 22
-0.9354490348
 32
0.0
 13
-0.508
 23
-0.9354490348
 33
0.0
  0
LINE
  5
102
330
FE
100
AcDbEntity
  8
0
 62
     0
100
AcDbLine
 10
-11.3062660664
 20
2.3665509652
 30
0.0
 11
0.0
 21
2.3665509652
 31
0.0
  0
LINE
  5
103
330
FE
100
AcDbEntity
  8
0
 62
     0
100
AcDbLine
 10
-1.016
 20
-7.6334490348
 30
0.0
 11
-1.016
 21
2.3665509652
 31
0.0
  0
MTEXT
  5
104
330
FE
100
AcDbEntity
  8
0
 62
     0
100
AcDbMText
 10
0.0
 20
4.0927900738
 30
0.0
 40
3.175
 41
0.0
 71
     1
 72
     1
  1
100,00
  7
SLDTEXTSTYLE0
 73
     1
 44
1.0
  0
ENDBLK
  5
100
330
FE
100
AcDbEntity
  8
0
100
AcDbBlockEnd
  0
BLOCK
  5
107
330
106
100
AcDbEntity
  8
0
100
AcDbBlockBegin
  2
SW_BLOCK_DIMENSION_11
 70
     0
 10
0.0
 20
0.0
 30
0.0
  3
SW_BLOCK_DIMENSION_11
  1

  0
SOLID
  5
109
330
106
100
AcDbEntity
  8
0
 62
     0
100
AcDbTrace
 10
-1.016
 20
2.3665509652
 30
0.0
 11
-1.524
 21
-0.9354490348
 31
0.0
 12
-0.508
 22
-0.9354490348
 32
0.0
 13
-0.508
 23
-0.9354490348
 33
0.0
  0
LINE
  5
10A
330
106
100
AcDbEntity
  8
0
 62
     0
100
AcDbLine
 10
-11.3062660664
 20
2.3665509652
 30
0.0
 11
0.0
 21
2.3665509652
 31
0.0
  0
LINE
  5
10B
330
106
100
AcDbEntity
  8
0
 62
     0
100
AcDbLine
 10
-1.016
 20
-7.6334490348
 30
0.0
 11
-1.016
 21
2.3665509652
 31
0.0
  0
MTEXT
  5
10C
330
106
100
AcDbEntity
  8
0
 62
     0
100
AcDbMText
 10
0.0
 20
4.0927900738
 30
0.0
 40
3.175
 41
0.0
 71
     1
 72
     1
  1
110,00
  7
SLDTEXTSTYLE0
 73
     1
 44
1.0
  0
ENDBLK
  5
108
330
106
100
AcDbEntity
  8
0
100
AcDbBlockEnd
  0
BLOCK
  5
10F
330
10E
100
AcDbEntity
  8
0
100
AcDbBlockBegin
  2
SW_BLOCK_DIMENSION_12
 70
     0
 10
0.0
 20
0.0
 30
0.0
  3
SW_BLOCK_DIMENSION_12
  1

  0
SOLID
  5
111
330
10E
100
AcDbEntity
  8
0
 62
     0
100
AcDbTrace
 10
-1.016
 20
2.3665509652
 30
0.0
 11
-1.524
 21
-0.9354490348
 31
0.0
 12
-0.508
 22
-0.9354490348
 32
0.0
 13
-0.508
 23
-0.9354490348
 33
0.0
  0
LINE
  5
112
330
10E
100
AcDbEntity
  8
0
 62
     0
100
AcDbLine
 10
-11.3062660664
 20
2.3665509652
 30
0.0
 11
0.0
 21
2.3665509652
 31
0.0
  0
LINE
  5
113
330
10E
100
AcDbEntity
  8
0
 62
     0
100
AcDbLine
 10
-1.016
 20
-7.6334490348
 30
0.0
 11
-1.016
 21
2.3665509652
 31
0.0
  0
MTEXT
  5
114
330
10E
100
AcDbEntity
  8
0
 62
     0
100
AcDbMText
 10
0.0
 20
4.0927900738
 30
0.0
 40
3.175
 41
0.0
 71
     1
 72
     1
  1
120,00
  7
SLDTEXTSTYLE0
 73
     1
 44
1.0
  0
ENDBLK
  5
110
330
10E
100
AcDbEntity
  8
0
100
AcDbBlockEnd
  0
BLOCK
  5
117
330
116
100
AcDbEntity
  8
0
100
AcDbBlockBegin
  2
SW_BLOCK_DIMENSION_13
 70
     0
 10
0.0
 20
0.0
 30
0.0
  3
SW_BLOCK_DIMENSION_13
  1

  0
SOLID
  5
119
330
116
100
AcDbEntity
  8
0
 62
     0
100
AcDbTrace
 10
-1.016
 20
2.3665509652
 30
0.0
 11
-1.524
 21
-0.9354490348
 31
0.0
 12
-0.508
 22
-0.9354490348
 32
0.0
 13
-0.508
 23
-0.9354490348
 33
0.0
  0
LINE
  5
11A
330
116
100
AcDbEntity
  8
0
 62
     0
100
AcDbLine
 10
-11.3062660664
 20
2.3665509652
 30
0.0
 11
0.0
 21
2.3665509652
 31
0.0
  0
LINE
  5
11B
330
116
100
AcDbEntity
  8
0
 62
     0
100
AcDbLine
 10
-1.016
 20
-7.6334490348
 30
0.0
 11
-1.016
 21
2.3665509652
 31
0.0
  0
MTEXT
  5
11C
330
116
100
AcDbEntity
  8
0
 62
     0
100
AcDbMText
 10
0.0
 20
4.0927900738
 30
0.0
 40
3.175
 41
0.0
 71
     1
 72
     1
  1
130,00
  7
SLDTEXTSTYLE0
 73
     1
 44
1.0
  0
ENDBLK
  5
118
330
116
100
AcDbEntity
  8
0
100
AcDbBlockEnd
  0
BLOCK
  5
11F
330
11E
100
AcDbEntity
  8
0
100
AcDbBlockBegin
  2
SW_BLOCK_DIMENSION_14
 70
     0
 10
0.0
 20
0.0
 30
0.0
  3
SW_BLOCK_DIMENSION_14
  1

  0
INSERT
  5
121
330
11E
100
AcDbEntity
  8
0
 62
     0
100
AcDbBlockReference
  2
_Origin
 10
11.9579915825
 20
5.1887726877
 30
0.0
 41
1.016
 42
1.016
 50
0.0
  0
LINE
  5
122
330
11E
100
AcDbEntity
  8
0
 62
     0
100
AcDbLine
 10
3.2925925916
 20
9.671990294
 30
0.0
 11
2.2342592711
 21
9.671990294
 31
0.0
  0
LINE
  5
123
330
11E
100
AcDbEntity
  8
0
 62
     0
100
AcDbLine
 10
2.2342592711
 20
9.671990294
 30
0.0
 11
2.2342592711
 21
4.9388883635
 31
0.0
  0
LINE
  5
124
330
11E
100
AcDbEntity
  8
0
 62
     0
100
AcDbLine
 10
2.2342592711
 20
4.9388883635
 30
0.0
 11
3.2925925916
 21
4.9388883635
 31
0.0
  0
LINE
  5
125
330
11E
100
AcDbEntity
  8
0
 62
     0
100
AcDbLine
 10
7.6493982924
 20
9.671990294
 30
0.0
 11
8.707731613
 21
9.671990294
 31
0.0
  0
LINE
  5
126
330
11E
100
AcDbEntity
  8
0
 62
     0
100
AcDbLine
 10
8.707731613
 20
9.671990294
 30
0.0
 11
8.707731613
 21
4.9388883635
 31
0.0
  0
LINE
  5
127
330
11E
100
AcDbEntity
  8
0
 62
     0
100
AcDbLine
 10
8.707731613
 20
4.9388883635
 30
0.0
 11
7.6493982924
 21
4.9388883635
 31
0.0
  0
LINE
  5
128
330
11E
100
AcDbEntity
  8
0
 62
     0
100
AcDbLine
 10
21.5099578393
 20
5.1887726877
 30
0.0
 11
10.9419915825
 21
5.1887726877
 31
0.0
  0
MTEXT
  5
129
330
11E
100
AcDbEntity
  8
0
 62
     0
100
AcDbMText
 10
1.190625
 20
4.0927900738
 30
0.0
 40
3.175
 41
0.0
 71
     1
 72
     1
  1

  7
SLDTEXTSTYLE0
 73
     1
 44
1.0
  0
MTEXT
  5
12A
330
11E
100
AcDbEntity
  8
0
 62
     0
100
AcDbMText
 10
3.2925925916
 20
9.0316784373
 30
0.0
 40
3.175
 41
0.0
 71
     1
 72
     1
  1
0"
  7
SLDTEXTSTYLE0
 73
     1
 44
1.0
  0
MTEXT
  5
12B
330
11E
100
AcDbEntity
  8
0
 62
     0
100
AcDbMText
 10
4.2950697243
 20
4.0927898409
 30
0.0
 40
3.175
 41
0.0
 71
     1
 72
     1
  1
0
  7
SLDTEXTSTYLE0
 73
     1
 44
1.0
  0
MTEXT
  5
12C
330
11E
100
AcDbEntity
  8
0
 62
     0
100
AcDbMText
 10
10.9566905156
 20
4.0927900738
 30
0.0
 40
3.175
 41
0.0
 71
     1
 72
     1
  1

  7
SLDTEXTSTYLE0
 73
     1
 44
1.0
  0
ENDBLK
  5
120
330
11E
100
AcDbEntity
  8
0
100
AcDbBlockEnd
  0
BLOCK
  5
12F
330
12E
100
AcDbEntity
  8
0
100
AcDbBlockBegin
  2
SW_BLOCK_DIMENSION_15
 70
     0
 10
0.0
 20
0.0
 30
0.0
  3
SW_BLOCK_DIMENSION_15
  1

  0
SOLID
  5
131
330
12E
100
AcDbEntity
  8
0
 62
     0
100
AcDbTrace
 10
13.951185805
 20
5.1887726877
 30
0.0
 11
13.443185805
 21
1.8867726877
 31
0.0
 12
14.459185805
 22
1.8867726877
 32
0.0
 13
14.459185805
 23
1.8867726877
 33
0.0
  0
LINE
  5
132
330
12E
100
AcDbEntity
  8
0
 62
     0
100
AcDbLine
 10
4.2891897028
 20
9.671990294
 30
0.0
 11
3.2308563823
 21
9.671990294
 31
0.0
  0
LINE
  5
133
330
12E
100
AcDbEntity
  8
0
 62
     0
100
AcDbLine
 10
3.2308563823
 20
9.671990294
 30
0.0
 11
3.2308563823
 21
4.9388883635
 31
0.0
  0
LINE
  5
134
330
12E
100
AcDbEntity
  8
0
 62
     0
100
AcDbLine
 10
3.2308563823
 20
4.9388883635
 30
0.0
 11
4.2891897028
 21
4.9388883635
 31
0.0
  0
LINE
  5
135
330
12E
100
AcDbEntity
  8
0
 62
     0
100
AcDbLine
 10
8.6459954036
 20
9.671990294
 30
0.0
 11
9.7043287242
 21
9.671990294
 31
0.0
  0
LINE
  5
136
330
12E
100
AcDbEntity
  8
0
 62
     0
100
AcDbLine
 10
9.7043287242
 20
9.671990294
 30
0.0
 11
9.7043287242
 21
4.9388883635
 31
0.0
  0
LINE
  5
137
330
12E
100
AcDbEntity
  8
0
 62
     0
100
AcDbLine
 10
9.7043287242
 20
4.9388883635
 30
0.0
 11
8.6459954036
 21
4.9388883635
 31
0.0
  0
LINE
  5
138
330
12E
100
AcDbEntity
  8
0
 62
     0
100
AcDbLine
 10
22.7231520617
 20
5.1887726877
 30
0.0
 11
12.935185805
 21
5.1887726877
 31
0.0
  0
LINE
  5
139
330
12E
100
AcDbEntity
  8
0
 62
     0
100
AcDbLine
 10
13.951185805
 20
-20.2112273123
 30
0.0
 11
13.951185805
 21
5.1887726877
 31
0.0
  0
MTEXT
  5
13A
330
12E
100
AcDbEntity
  8
0
 62
     0
100
AcDbMText
 10
1.190625
 20
4.0927900738
 30
0.0
 40
3.175
 41
0.0
 71
     1
 72
     1
  1

  7
SLDTEXTSTYLE0
 73
     1
 44
1.0
  0
MTEXT
  5
13B
330
12E
100
AcDbEntity
  8
0
 62
     0
100
AcDbMText
 10
4.2891897028
 20
9.0316784373
 30
0.0
 40
3.175
 41
0.0
 71
     1
 72
     1
  1
1"
  7
SLDTEXTSTYLE0
 73
     1
 44
1.0
  0
MTEXT
  5
13C
330
12E
100
AcDbEntity
  8
0
 62
     0
100
AcDbMText
 10
1.1759259505
 20
4.0927898409
 30
0.0
 40
3.175
 41
0.0
 71
     1
 72
     1
  1
25,40
  7
SLDTEXTSTYLE0
 73
     1
 44
1.0
  0
MTEXT
  5
13D
330
12E
100
AcDbEntity
  8
0
 62
     0
100
AcDbMText
 10
12.949884738
 20
4.0927900738
 30
0.0
 40
3.175
 41
0.0
 71
     1
 72
     1
  1

  7
SLDTEXTSTYLE0
 73
     1
 44
1.0
  0
ENDBLK
  5
130
330
12E
100
AcDbEntity
  8
0
100
AcDbBlockEnd
  0
BLOCK
  5
140
330
13F
100
AcDbEntity
  8
0
100
AcDbBlockBegin
  2
SW_BLOCK_DIMENSION_16
 70
     0
 10
0.0
 20
0.0
 30
0.0
  3
SW_BLOCK_DIMENSION_16
  1

  0
SOLID
  5
142
330
13F
100
AcDbEntity
  8
0
 62
     0
100
AcDbTrace
 10
13.951185805
 20
5.1887726877
 30
0.0
 11
13.443185805
 21
1.8867726877
 31
0.0
 12
14.459185805
 22
1.8867726877
 32
0.0
 13
14.459185805
 23
1.8867726877
 33
0.0
  0
LINE
  5
143
330
13F
100
AcDbEntity
  8
0
 62
     0
100
AcDbLine
 10
4.2891897028
 20
9.671990294
 30
0.0
 11
3.2308563823
 21
9.671990294
 31
0.0
  0
LINE
  5
144
330
13F
100
AcDbEntity
  8
0
 62
     0
100
AcDbLine
 10
3.2308563823
 20
9.671990294
 30
0.0
 11
3.2308563823
 21
4.9388883635
 31
0.0
  0
LINE
  5
145
330
13F
100
AcDbEntity
  8
0
 62
     0
100
AcDbLine
 10
3.2308563823
 20
4.9388883635
 30
0.0
 11
4.2891897028
 21
4.9388883635
 31
0.0
  0
LINE
  5
146
330
13F
100
AcDbEntity
  8
0
 62
     0
100
AcDbLine
 10
8.6459954036
 20
9.671990294
 30
0.0
 11
9.7043287242
 21
9.671990294
 31
0.0
  0
LINE
  5
147
330
13F
100
AcDbEntity
  8
0
 62
     0
100
AcDbLine
 10
9.7043287242
 20
9.671990294
 30
0.0
 11
9.7043287242
 21
4.9388883635
 31
0.0
  0
LINE
  5
148
330
13F
100
AcDbEntity
  8
0
 62
     0
100
AcDbLine
 10
9.7043287242
 20
4.9388883635
 30
0.0
 11
8.6459954036
 21
4.9388883635
 31
0.0
  0
LINE
  5
149
330
13F
100
AcDbEntity
  8
0
 62
     0
100
AcDbLine
 10
22.7231520617
 20
5.1887726877
 30
0.0
 11
12.935185805
 21
5.1887726877
 31
0.0
  0
LINE
  5
14A
330
13F
100
AcDbEntity
  8
0
 62
     0
100
AcDbLine
 10
13.951185805
 20
-20.2112273123
 30
0.0
 11
13.951185805
 21
5.1887726877
 31
0.0
  0
MTEXT
  5
14B
330
13F
100
AcDbEntity
  8
0
 62
     0
100
AcDbMText
 10
1.190625
 20
4.0927900738
 30
0.0
 40
3.175
 41
0.0
 71
     1
 72
     1
  1

  7
SLDTEXTSTYLE0
 73
     1
 44
1.0
  0
MTEXT
  5
14C
330
13F
100
AcDbEntity
  8
0
 62
     0
100
AcDbMText
 10
4.2891897028
 20
9.0316784373
 30
0.0
 40
3.175
 41
0.0
 71
     1
 72
     1
  1
2"
  7
SLDTEXTSTYLE0
 73
     1
 44
1.0
  0
MTEXT
  5
14D
330
13F
100
AcDbEntity
  8
0
 62
     0
100
AcDbMText
 10
1.1759259505
 20
4.0927898409
 30
0.0
 40
3.175
 41
0.0
 71
     1
 72
     1
  1
50,80
  7
SLDTEXTSTYLE0
 73
     1
 44
1.0
  0
MTEXT
  5
14E
330
13F
100
AcDbEntity
  8
0
 62
     0
100
AcDbMText
 10
12.949884738
 20
4.0927900738
 30
0.0
 40
3.175
 41
0.0
 71
     1
 72
     1
  1

  7
SLDTEXTSTYLE0
 73
     1
 44
1.0
  0
ENDBLK
  5
141
330
13F
100
AcDbEntity
  8
0
100
AcDbBlockEnd
  0
BLOCK
  5
151
330
150
100
AcDbEntity
  8
0
100
AcDbBlockBegin
  2
SW_BLOCK_DIMENSION_17
 70
     0
 10
0.0
 20
0.0
 30
0.0
  3
SW_BLOCK_DIMENSION_17
  1

  0
SOLID
  5
153
330
150
100
AcDbEntity
  8
0
 62
     0
100
AcDbTrace
 10
13.951185805
 20
5.1887726877
 30
0.0
 11
13.443185805
 21
1.8867726877
 31
0.0
 12
14.459185805
 22
1.8867726877
 32
0.0
 13
14.459185805
 23
1.8867726877
 33
0.0
  0
LINE
  5
154
330
150
100
AcDbEntity
  8
0
 62
     0
100
AcDbLine
 10
4.2891897028
 20
9.671990294
 30
0.0
 11
3.2308563823
 21
9.671990294
 31
0.0
  0
LINE
  5
155
330
150
100
AcDbEntity
  8
0
 62
     0
100
AcDbLine
 10
3.2308563823
 20
9.671990294
 30
0.0
 11
3.2308563823
 21
4.9388883635
 31
0.0
  0
LINE
  5
156
330
150
100
AcDbEntity
  8
0
 62
     0
100
AcDbLine
 10
3.2308563823
 20
4.9388883635
 30
0.0
 11
4.2891897028
 21
4.9388883635
 31
0.0
  0
LINE
  5
157
330
150
100
AcDbEntity
  8
0
 62
     0
100
AcDbLine
 10
8.6459954036
 20
9.671990294
 30
0.0
 11
9.7043287242
 21
9.671990294
 31
0.0
  0
LINE
  5
158
330
150
100
AcDbEntity
  8
0
 62
     0
100
AcDbLine
 10
9.7043287242
 20
9.671990294
 30
0.0
 11
9.7043287242
 21
4.9388883635
 31
0.0
  0
LINE
  5
159
330
150
100
AcDbEntity
  8
0
 62
     0
100
AcDbLine
 10
9.7043287242
 20
4.9388883635
 30
0.0
 11
8.6459954036
 21
4.9388883635
 31
0.0
  0
LINE
  5
15A
330
150
100
AcDbEntity
  8
0
 62
     0
100
AcDbLine
 10
22.7231520617
 20
5.1887726877
 30
0.0
 11
12.935185805
 21
5.1887726877
 31
0.0
  0
LINE
  5
15B
330
150
100
AcDbEntity
  8
0
 62
     0
100
AcDbLine
 10
13.951185805
 20
-20.2112273123
 30
0.0
 11
13.951185805
 21
5.1887726877
 31
0.0
  0
MTEXT
  5
15C
330
150
100
AcDbEntity
  8
0
 62
     0
100
AcDbMText
 10
1.190625
 20
4.0927900738
 30
0.0
 40
3.175
 41
0.0
 71
     1
 72
     1
  1

  7
SLDTEXTSTYLE0
 73
     1
 44
1.0
  0
MTEXT
  5
15D
330
150
100
AcDbEntity
  8
0
 62
     0
100
AcDbMText
 10
4.2891897028
 20
9.0316784373
 30
0.0
 40
3.175
 41
0.0
 71
     1
 72
     1
  1
3"
  7
SLDTEXTSTYLE0
 73
     1
 44
1.0
  0
MTEXT
  5
15E
330
150
100
AcDbEntity
  8
0
 62
     0
100
AcDbMText
 10
1.1759259505
 20
4.0927898409
 30
0.0
 40
3.175
 41
0.0
 71
     1
 72
     1
  1
76,20
  7
SLDTEXTSTYLE0
 73
     1
 44
1.0
  0
MTEXT
  5
15F
330
150
100
AcDbEntity
  8
0
 62
     0
100
AcDbMText
 10
12.949884738
 20
4.0927900738
 30
0.0
 40
3.175
 41
0.0
 71
     1
 72
     1
  1

  7
SLDTEXTSTYLE0
 73
     1
 44
1.0
  0
ENDBLK
  5
152
330
150
100
AcDbEntity
  8
0
100
AcDbBlockEnd
  0
BLOCK
  5
162
330
161
100
AcDbEntity
  8
0
100
AcDbBlockBegin
  2
SW_BLOCK_DIMENSION_18
 70
     0
 10
0.0
 20
0.0
 30
0.0
  3
SW_BLOCK_DIMENSION_18
  1

  0
SOLID
  5
164
330
161
100
AcDbEntity
  8
0
 62
     0
100
AcDbTrace
 10
16.3030379388
 20
5.1887726877
 30
0.0
 11
15.7950379388
 21
1.8867726877
 31
0.0
 12
16.8110379388
 22
1.8867726877
 32
0.0
 13
16.8110379388
 23
1.8867726877
 33
0.0
  0
LINE
  5
165
330
161
100
AcDbEntity
  8
0
 62
     0
100
AcDbLine
 10
5.4651157698
 20
9.671990294
 30
0.0
 11
4.4067824492
 21
9.671990294
 31
0.0
  0
LINE
  5
166
330
161
100
AcDbEntity
  8
0
 62
     0
100
AcDbLine
 10
4.4067824492
 20
9.671990294
 30
0.0
 11
4.4067824492
 21
4.9388883635
 31
0.0
  0
LINE
  5
167
330
161
100
AcDbEntity
  8
0
 62
     0
100
AcDbLine
 10
4.4067824492
 20
4.9388883635
 30
0.0
 11
5.4651157698
 21
4.9388883635
 31
0.0
  0
LINE
  5
168
330
161
100
AcDbEntity
  8
0
 62
     0
100
AcDbLine
 10
9.8219214706
 20
9.671990294
 30
0.0
 11
10.8802547911
 21
9.671990294
 31
0.0
  0
LINE
  5
169
330
161
100
AcDbEntity
  8
0
 62
     0
100
AcDbLine
 10
10.8802547911
 20
9.671990294
 30
0.0
 11
10.8802547911
 21
4.9388883635
 31
0.0
  0
LINE
  5
16A
330
161
100
AcDbEntity
  8
0
 62
     0
100
AcDbLine
 10
10.8802547911
 20
4.9388883635
 30
0.0
 11
9.8219214706
 21
4.9388883635
 31
0.0
  0
LINE
  5
16B
330
161
100
AcDbEntity
  8
0
 62
     0
100
AcDbLine
 10
25.0750041956
 20
5.1887726877
 30
0.0
 11
15.2870379388
 21
5.1887726877
 31
0.0
  0
LINE
  5
16C
330
161
100
AcDbEntity
  8
0
 62
     0
100
AcDbLine
 10
16.3030379388
 20
-20.2112273123
 30
0.0
 11
16.3030379388
 21
5.1887726877
 31
0.0
  0
MTEXT
  5
16D
330
161
100
AcDbEntity
  8
0
 62
     0
100
AcDbMText
 10
1.190625
 20
4.0927900738
 30
0.0
 40
3.175
 41
0.0
 71
     1
 72
     1
  1

  7
SLDTEXTSTYLE0
 73
     1
 44
1.0
  0
MTEXT
  5
16E
330
161
100
AcDbEntity
  8
0
 62
     0
100
AcDbMText
 10
5.4651157698
 20
9.0316784373
 30
0.0
 40
3.175
 41
0.0
 71
     1
 72
     1
  1
4"
  7
SLDTEXTSTYLE0
 73
     1
 44
1.0
  0
MTEXT
  5
16F
330
161
100
AcDbEntity
  8
0
 62
     0
100
AcDbMText
 10
1.1759259505
 20
4.0927898409
 30
0.0
 40
3.175
 41
0.0
 71
     1
 72
     1
  1
101,60
  7
SLDTEXTSTYLE0
 73
     1
 44
1.0
  0
MTEXT
  5
170
330
161
100
AcDbEntity
  8
0
 62
     0
100
AcDbMText
 10
15.3017368719
 20
4.0927900738
 30
0.0
 40
3.175
 41
0.0
 71
     1
 72
     1
  1

  7
SLDTEXTSTYLE0
 73
     1
 44
1.0
  0
ENDBLK
  5
163
330
161
100
AcDbEntity
  8
0
100
AcDbBlockEnd
  0
BLOCK
  5
173
330
172
100
AcDbEntity
  8
0
100
AcDbBlockBegin
  2
SW_BLOCK_DIMENSION_19
 70
     0
 10
0.0
 20
0.0
 30
0.0
  3
SW_BLOCK_DIMENSION_19
  1

  0
SOLID
  5
175
330
172
100
AcDbEntity
  8
0
 62
     0
100
AcDbTrace
 10
16.3030379388
 20
5.1887726877
 30
0.0
 11
15.7950379388
 21
1.8867726877
 31
0.0
 12
16.8110379388
 22
1.8867726877
 32
0.0
 13
16.8110379388
 23
1.8867726877
 33
0.0
  0
LINE
  5
176
330
172
100
AcDbEntity
  8
0
 62
     0
100
AcDbLine
 10
5.4651157698
 20
9.671990294
 30
0.0
 11
4.4067824492
 21
9.671990294
 31
0.0
  0
LINE
  5
177
330
172
100
AcDbEntity
  8
0
 62
     0
100
AcDbLine
 10
4.4067824492
 20
9.671990294
 30
0.0
 11
4.4067824492
 21
4.9388883635
 31
0.0
  0
LINE
  5
178
330
172
100
AcDbEntity
  8
0
 62
     0
100
AcDbLine
 10
4.4067824492
 20
4.9388883635
 30
0.0
 11
5.4651157698
 21
4.9388883635
 31
0.0
  0
LINE
  5
179
330
172
100
AcDbEntity
  8
0
 62
     0
100
AcDbLine
 10
9.8219214706
 20
9.671990294
 30
0.0
 11
10.8802547911
 21
9.671990294
 31
0.0
  0
LINE
  5
17A
330
172
100
AcDbEntity
  8
0
 62
     0
100
AcDbLine
 10
10.8802547911
 20
9.671990294
 30
0.0
 11
10.8802547911
 21
4.9388883635
 31
0.0
  0
LINE
  5
17B
330
172
100
AcDbEntity
  8
0
 62
     0
100
AcDbLine
 10
10.8802547911
 20
4.9388883635
 30
0.0
 11
9.8219214706
 21
4.9388883635
 31
0.0
  0
LINE
  5
17C
330
172
100
AcDbEntity
  8
0
 62
     0
100
AcDbLine
 10
25.0750041956
 20
5.1887726877
 30
0.0
 11
15.2870379388
 21
5.1887726877
 31
0.0
  0
LINE
  5
17D
330
172
100
AcDbEntity
  8
0
 62
     0
100
AcDbLine
 10
16.3030379388
 20
-20.2112273123
 30
0.0
 11
16.3030379388
 21
5.1887726877
 31
0.0
  0
MTEXT
  5
17E
330
172
100
AcDbEntity
  8
0
 62
     0
100
AcDbMText
 10
1.190625
 20
4.0927900738
 30
0.0
 40
3.175
 41
0.0
 71
     1
 72
     1
  1

  7
SLDTEXTSTYLE0
 73
     1
 44
1.0
  0
MTEXT
  5
17F
330
172
100
AcDbEntity
  8
0
 62
     0
100
AcDbMText
 10
5.4651157698
 20
9.0316784373
 30
0.0
 40
3.175
 41
0.0
 71
     1
 72
     1
  1
5"
  7
SLDTEXTSTYLE0
 73
     1
 44
1.0
  0
MTEXT
  5
180
330
172
100
AcDbEntity
  8
0
 62
     0
100
AcDbMText
 10
1.1759259505
 20
4.0927898409
 30
0.0
 40
3.175
 41
0.0
 71
     1
 72
     1
  1
127,00
  7
SLDTEXTSTYLE0
 73
     1
 44
1.0
  0
MTEXT
  5
181
330
172
100
AcDbEntity
  8
0
 62
     0
100
AcDbMText
 10
15.3017368719
 20
4.0927900738
 30
0.0
 40
3.175
 41
0.0
 71
     1
 72
     1
  1

  7
SLDTEXTSTYLE0
 73
     1
 44
1.0
  0
ENDBLK
  5
174
330
172
100
AcDbEntity
  8
0
100
AcDbBlockEnd
  0
BLOCK
  5
184
330
183
100
AcDbEntity
  8
0
100
AcDbBlockBegin
  2
SW_NOTE_0_3
 70
     0
 10
0.0
 20
0.0
 30
0.0
  3
SW_NOTE_0_3
  1

  0
MTEXT
  5
186
330
183
100
AcDbEntity
  8
0
 62
     0
100
AcDbMText
 10
6.7138020833
 20
4.7749217527
 30
0.0
 40
3.7041666667
 41
0.0
 71
     2
 72
     1
  1
(Inch)
  7
SLDTEXTSTYLE0
 73
     1
 44
1.0
  0
MTEXT
  5
187
330
183
100
AcDbEntity
  8
0
 62
     0
100
AcDbMText
 10
6.7309508326
 20
-1.1639672404
 30
0.0
 40
3.7041666667
 41
0.0
 71
     2
 72
     1
  1
mm
  7
SLDTEXTSTYLE0
 73
     1
 44
1.0
  0
ENDBLK
  5
185
330
183
100
AcDbEntity
  8
0
100
AcDbBlockEnd
  0
BLOCK
  5
18A
330
189
100
AcDbEntity
  8
0
100
AcDbBlockBegin
  2
SW_NOTE_0_4
 70
     0
 10
0.0
 20
0.0
 30
0.0
  3
SW_NOTE_0_4
  1

  0
MTEXT
  5
18C
330
189
100
AcDbEntity
  8
0
 62
     0
100
AcDbMText
 10
0.0
 20
4.7749217527
 30
0.0
 40
3.7041666667
 41
0.0
 71
     1
 72
     1
  1
mm
  7
SLDTEXTSTYLE0
 73
     1
 44
1.0
  0
ENDBLK
  5
18B
330
189
100
AcDbEntity
  8
0
100
AcDbBlockEnd
  0
BLOCK
  5
199
330
198
100
AcDbEntity
  8
0
100
AcDbBlockBegin
  2
SW_NOTE_0_5
 70
     0
 10
0.0
 20
0.0
 30
0.0
  3
SW_NOTE_0_5
  1

  0
MTEXT
  5
19B
330
198
100
AcDbEntity
  8
0
  6
Continuous
 62
     0
370
     0
100
AcDbMText
 10
19.893359375
 20
4.0927900738
 30
0.0
 40
3.175
 41
0.0
 71
     2
 72
     1
  1
ABP-Beyerle GmbH
  7
SLDTEXTSTYLE0
 73
     1
 44
1.0
  0
MTEXT
  5
19C
330
198
100
AcDbEntity
  8
0
  6
Continuous
 62
     0
370
     0
100
AcDbMText
 10
20.6558884293
 20
-0.1405432084
 30
0.0
 40
3.175
 41
0.0
 71
     2
 72
     1
  1
Im Schollengarten 24b, 76646 Bruchsal
  7
SLDTEXTSTYLE0
 73
     1
 44
1.0
  0
MTEXT
  5
19D
330
198
100
AcDbEntity
  8
0
  6
Continuous
 62
     0
370
     0
100
AcDbMText
 10
20.7863491923
 20
-4.3738764906
 30
0.0
 40
3.175
 41
0.0
 71
     2
 72
     1
  1
Tel. +49 (0)7251-9127-0, Fax. +49 (0)7251-9127-29
  7
SLDTEXTSTYLE0
 73
     1
 44
1.0
  0
MTEXT
  5
19E
330
198
100
AcDbEntity
  8
0
  6
Continuous
 62
     0
370
     0
100
AcDbMText
 10
20.8392552227
 20
-8.6072097727
 30
0.0
 40
3.175
 41
0.0
 71
     2
 72
     1
  1
info@abp-beyerle.de, www.abp-beyerle.de
  7
SLDTEXTSTYLE0
 73
     1
 44
1.0
  0
ENDBLK
  5
19A
330
198
100
AcDbEntity
  8
0
100
AcDbBlockEnd
  0
BLOCK
  5
2D2
330
2D1
100
AcDbEntity
  8
0
100
AcDbBlockBegin
  2
_D
 70
     0
 10
0.0
 20
0.0
 30
0.0
  3
_D
  1

  0
SOLID
  5
2D4
330
2D1
100
AcDbEntity
  8
0
  6
Continuous
 62
   102
370
    18
100
AcDbTrace
 10
281.9896583541
 20
228.1893525441
 30
0.0
 11
281.4816583541
 21
224.8873525441
 31
0.0
 12
282.4976583541
 22
224.8873525441
 32
0.0
 13
282.4976583541
 23
224.8873525441
 33
0.0
  0
SOLID
  5
2D5
330
2D1
100
AcDbEntity
  8
0
  6
Continuous
 62
   102
370
    18
100
AcDbTrace
 10
281.9896583541
 20
198.1893525441
 30
0.0
 11
282.4976583541
 21
201.4913525441
 31
0.0
 12
281.4816583541
 22
201.4913525441
 32
0.0
 13
281.4816583541
 23
201.4913525441
 33
0.0
  0
LINE
  5
2D6
330
2D1
100
AcDbEntity
  8
0
  6
Continuous
 62
   102
370
    18
100
AcDbLine
 10
272.4896583541
 20
228.1893525441
 30
0.0
 11
282.9896583541
 21
228.1893525441
 31
0.0
  0
LINE
  5
2D7
330
2D1
100
AcDbEntity
  8
0
  6
Continuous
 62
   102
370
    18
100
AcDbLine
 10
272.4896583541
 20
198.1893525441
 30
0.0
 11
282.9896583541
 21
198.1893525441
 31
0.0
  0
LINE
  5
2D8
330
2D1
100
AcDbEntity
  8
0
  6
Continuous
 62
   102
370
    18
100
AcDbLine
 10
281.9896583541
 20
228.1893525441
 30
0.0
 11
281.9896583541
 21
198.1893525441
 31
0.0
  0
MTEXT
  5
2D9
330
2D1
100
AcDbEntity
  8
0
  6
Continuous
 62
   102
370
    18
100
AcDbMText
 10
277.4779214395
 20
209.201819877
 30
0.0
 40
3.5
 41
0.0
 71
     1
 72
     1
  1
30
  7
SLDTEXTSTYLE1
 11
-6.156016597943509E-15
 21
1.0
 31
0.0
 73
     1
 44
1.0
  0
ENDBLK
  5
2D3
330
2D1
100
AcDbEntity
  8
0
100
AcDbBlockEnd
  0
ENDSEC
  0
SECTION
  2
ENTITIES
  0
LINE
  5
18E
330
1F
100
AcDbEntity
  8
0
100
AcDbLine
 10
127.4819306314
 20
27.1626886523
 30
0.0
 11
127.4819306314
 21
7.1626886523
 31
0.0
  0
LINE
  5
18F
330
1F
100
AcDbEntity
  8
0
100
AcDbLine
 10
127.4819306314
 20
7.1626886523
 30
0.0
 11
231.2890403829
 21
7.1626886523
 31
0.0
  0
LINE
  5
190
330
1F
100
AcDbEntity
  8
0
100
AcDbLine
 10
231.2890403829
 20
7.1626886523
 30
0.0
 11
231.2890403829
 21
27.1626886523
 31
0.0
  0
LINE
  5
191
330
1F
100
AcDbEntity
  8
0
100
AcDbLine
 10
231.2890403829
 20
27.1626886523
 30
0.0
 11
127.4819306314
 21
27.1626886523
 31
0.0
  0
LINE
  5
192
330
1F
100
AcDbEntity
  8
0
100
AcDbLine
 10
231.2890403829
 20
17.1626886523
 30
0.0
 11
127.4819306314
 21
17.1626886523
 31
0.0
  0
LINE
  5
193
330
1F
100
AcDbEntity
  8
0
100
AcDbLine
 10
188.5336333335
 20
27.1626886523
 30
0.0
 11
188.5336333335
 21
7.1626886523
 31
0.0
  0
INSERT
  5
194
330
1F
100
AcDbEntity
  8
0
100
AcDbBlockReference
  2
Block5
 10
19.561342692
 20
-6.9223244521
 30
0.0
  0
MTEXT
  5
196
330
1F
100
AcDbEntity
  8
0
  6
Continuous
 62
     7
370
     0
100
AcDbMText
 10
402.5
 20
14.7189135832
 30
0.0
 40
6.35
 41
0.0
 71
     1
 72
     1
  1
1:1
  7
SLDTEXTSTYLE1
 73
     1
 44
1.0
  0
MTEXT
  5
197
330
1F
100
AcDbEntity
  8
0
  6
Continuous
 62
     7
370
     0
100
AcDbMText
 10
190.3749692016
 20
25.1056679674
 30
0.0
 40
4.2333333333
 41
0.0
 71
     1
 72
     1
  1
224.00011
  7
SLDTEXTSTYLE1
 73
     1
 44
1.0
  0
INSERT
  5
19F
330
1F
100
AcDbEntity
  8
0
  6
Continuous
 62
     7
370
     0
100
AcDbBlockReference
  2
SW_NOTE_0_5
 10
35.4202146835
 20
20.1681939512
 30
0.0
  0
MTEXT
  5
1A0
330
1F
100
AcDbEntity
  8
0
100
AcDbMText
 10
131.6112989967
 20
25.1056677346
 30
0.0
 40
4.2333333333
 41
0.0
 71
     1
 72
     1
  1
Artikelnummer
  7
SLDTEXTSTYLE1
 73
     1
 44
1.0
  0
MTEXT
  5
1A1
330
1F
100
AcDbEntity
  8
0
100
AcDbMText
 10
131.6112989967
 20
15.1068467326
 30
0.0
 40
4.2333333333
 41
0.0
 71
     1
 72
     1
  1
Index
  7
SLDTEXTSTYLE1
 73
     1
 44
1.0
  0
MTEXT
  5
1A2
330
1F
100
AcDbEntity
  8
0
100
AcDbMText
 10
191.3424447454
 20
14.5571014523
 30
0.0
 40
4.2333333333
 41
0.0
 71
     1
 72
     1
  1
0
  7
SLDTEXTSTYLE1
 73
     1
 44
1.0
  0
LINE
  5
1A3
330
1F
100
AcDbEntity
  8
0
  6
Continuous
 62
     7
370
    25
100
AcDbLine
 10
133.8061197803
 20
198.6893529606
 30
0.0
 11
138.2061178938
 21
198.6893529606
 31
0.0
  0
LINE
  5
1A4
330
1F
100
AcDbEntity
  8
0
  6
Continuous
 62
     7
370
    25
100
AcDbLine
 10
138.2061178938
 20
227.6893525918
 30
0.0
 11
133.8061197803
 21
227.6893525918
 31
0.0
  0
LINE
  5
1A5
330
1F
100
AcDbEntity
  8
0
  6
Continuous
 62
     7
370
    25
100
AcDbLine
 10
133.8061197803
 20
227.6893525918
 30
0.0
 11
133.5061184272
 21
227.3893526357
 31
0.0
  0
LINE
  5
1A6
330
1F
100
AcDbEntity
  8
0
  6
Continuous
 62
     7
370
    25
100
AcDbLine
 10
133.5061184272
 20
198.9893524509
 30
0.0
 11
133.8061197803
 21
198.6893529606
 31
0.0
  0
LINE
  5
1A7
330
1F
100
AcDbEntity
  8
0
  6
Continuous
 62
     7
370
    25
100
AcDbLine
 10
138.2061178938
 20
198.6893529606
 30
0.0
 11
138.5061192468
 21
198.9893524509
 31
0.0
  0
LINE
  5
1A8
330
1F
100
AcDbEntity
  8
0
  6
Continuous
 62
     7
370
    25
100
AcDbLine
 10
138.5061192468
 20
227.3893526357
 30
0.0
 11
138.2061178938
 21
227.6893525918
 31
0.0
  0
LINE
  5
1A9
330
1F
100
AcDbEntity
  8
0
  6
Continuous
 62
     7
370
    25
100
AcDbLine
 10
145.5061185316
 20
227.1893525098
 30
0.0
 11
143.5061182037
 21
227.1893525098
 31
0.0
  0
LINE
  5
1AA
330
1F
100
AcDbEntity
  8
0
  6
Continuous
 62
     7
370
    25
100
AcDbLine
 10
143.5061182037
 20
199.1893521112
 30
0.0
 11
145.5061185316
 21
199.1893521112
 31
0.0
  0
LINE
  5
1AB
330
1F
100
AcDbEntity
  8
0
  6
Continuous
 62
     7
370
    25
100
AcDbLine
 10
148.00611801
 20
221.9393525806
 30
0.0
 11
147.7061185196
 21
221.9393525806
 31
0.0
  0
LINE
  5
1AC
330
1F
100
AcDbEntity
  8
0
  6
Continuous
 62
     7
370
    25
100
AcDbLine
 10
147.7061185196
 20
204.4393534374
 30
0.0
 11
148.00611801
 21
204.4393534374
 31
0.0
  0
LINE
  5
1AD
330
1F
100
AcDbEntity
  8
0
  6
Continuous
 62
     7
370
    25
100
AcDbLine
 10
147.7061185196
 20
221.9393525806
 30
0.0
 11
147.5061188594
 21
221.7393525711
 31
0.0
  0
LINE
  5
1AE
330
1F
100
AcDbEntity
  8
0
  6
Continuous
 62
     7
370
    25
100
AcDbLine
 10
147.5061188594
 20
204.6393530977
 30
0.0
 11
147.7061185196
 21
204.4393534374
 31
0.0
  0
LINE
  5
1AF
330
1F
100
AcDbEntity
  8
0
  6
Continuous
 62
     7
370
    25
100
AcDbLine
 10
155.506118308
 20
228.1893526737
 30
0.0
 11
150.5061184198
 21
223.1893525436
 31
0.0
  0
LINE
  5
1B0
330
1F
100
AcDbEntity
  8
0
  6
Continuous
 62
     7
370
    25
100
AcDbLine
 10
150.5061184198
 20
203.1893527669
 30
0.0
 11
155.506118308
 21
198.1893519473
 31
0.0
  0
LINE
  5
1B1
330
1F
100
AcDbEntity
  8
0
  6
Continuous
 62
     7
370
    25
100
AcDbLine
 10
148.00611801
 20
203.1893527669
 30
0.0
 11
150.5061184198
 21
203.1893527669
 31
0.0
  0
LINE
  5
1B2
330
1F
100
AcDbEntity
  8
0
  6
Continuous
 62
     7
370
    25
100
AcDbLine
 10
150.5061184198
 20
223.1893525436
 30
0.0
 11
148.00611801
 21
223.1893525436
 31
0.0
  0
LINE
  5
1B3
330
1F
100
AcDbEntity
  8
0
  6
Continuous
 62
     7
370
    25
100
AcDbLine
 10
147.0175153718
 20
217.1893527333
 30
0.0
 11
146.6292488531
 21
216.6348525856
 31
0.0
  0
LINE
  5
1B4
330
1F
100
AcDbEntity
  8
0
  6
Continuous
 62
     7
370
    25
100
AcDbLine
 10
146.6292488531
 20
209.7438529667
 30
0.0
 11
147.0175153718
 21
209.189352819
 31
0.0
  0
LINE
  5
1B5
330
1F
100
AcDbEntity
  8
0
  6
Continuous
 62
     7
370
    25
100
AcDbLine
 10
146.0421412394
 20
217.1893527333
 30
0.0
 11
145.6538765833
 21
216.6348525856
 31
0.0
  0
LINE
  5
1B6
330
1F
100
AcDbEntity
  8
0
  6
Continuous
 62
     7
370
    25
100
AcDbLine
 10
145.6538765833
 20
209.7438529667
 30
0.0
 11
146.0421412394
 21
209.189352819
 31
0.0
  0
LINE
  5
1B7
330
1F
100
AcDbEntity
  8
0
  6
Continuous
 62
     7
370
    25
100
AcDbLine
 10
147.0175153718
 20
209.189352819
 30
0.0
 11
147.2163583294
 21
209.189352819
 31
0.0
  0
LINE
  5
1B8
330
1F
100
AcDbEntity
  8
0
  6
Continuous
 62
     7
370
    25
100
AcDbLine
 10
147.2163583294
 20
217.1893527333
 30
0.0
 11
147.0175153718
 21
217.1893527333
 31
0.0
  0
LINE
  5
1B9
330
1F
100
AcDbEntity
  8
0
  6
Continuous
 62
     7
370
    25
100
AcDbLine
 10
146.0421412394
 20
209.189352819
 30
0.0
 11
146.240984197
 21
209.189352819
 31
0.0
  0
LINE
  5
1BA
330
1F
100
AcDbEntity
  8
0
  6
Continuous
 62
     7
370
    25
100
AcDbLine
 10
146.240984197
 20
217.1893527333
 30
0.0
 11
146.0421412394
 21
217.1893527333
 31
0.0
  0
LINE
  5
1BB
330
1F
100
AcDbEntity
  8
0
  6
Continuous
 62
     7
370
    25
100
AcDbLine
 10
146.240984197
 20
209.189352819
 30
0.0
 11
146.6292488531
 21
209.7438529667
 31
0.0
  0
LINE
  5
1BC
330
1F
100
AcDbEntity
  8
0
  6
Continuous
 62
     7
370
    25
100
AcDbLine
 10
146.6292488531
 20
216.6348525856
 30
0.0
 11
146.240984197
 21
217.1893527333
 31
0.0
  0
LINE
  5
1BD
330
1F
100
AcDbEntity
  8
0
  6
Continuous
 62
     7
370
    25
100
AcDbLine
 10
145.5061185316
 20
209.5328329664
 30
0.0
 11
145.6538765833
 21
209.7438529667
 31
0.0
  0
LINE
  5
1BE
330
1F
100
AcDbEntity
  8
0
  6
Continuous
 62
     7
370
    25
100
AcDbLine
 10
145.6538765833
 20
216.6348525856
 30
0.0
 11
145.5061185316
 21
216.8458716546
 31
0.0
  0
LINE
  5
1BF
330
1F
100
AcDbEntity
  8
0
  6
Continuous
 62
     7
370
    25
100
AcDbLine
 10
147.2163583294
 20
209.189352819
 30
0.0
 11
147.5061188594
 21
209.6031729665
 31
0.0
  0
LINE
  5
1C0
330
1F
100
AcDbEntity
  8
0
  6
Continuous
 62
     7
370
    25
100
AcDbLine
 10
147.5061188594
 20
216.7755321201
 30
0.0
 11
147.2163583294
 21
217.1893527333
 31
0.0
  0
LINE
  5
1C1
330
1F
100
AcDbEntity
  8
0
  6
Continuous
 62
     7
370
    25
100
AcDbLine
 10
139.0061183974
 20
198.6893529606
 30
0.0
 11
143.5061182037
 21
198.6893529606
 31
0.0
  0
LINE
  5
1C2
330
1F
100
AcDbEntity
  8
0
  6
Continuous
 62
     7
370
    25
100
AcDbLine
 10
139.0061183974
 20
227.6893525918
 30
0.0
 11
139.0061183974
 21
198.6893529606
 31
0.0
  0
LINE
  5
1C3
330
1F
100
AcDbEntity
  8
0
  6
Continuous
 62
     7
370
    25
100
AcDbLine
 10
143.5061182037
 20
227.6893525918
 30
0.0
 11
139.0061183974
 21
227.6893525918
 31
0.0
  0
LINE
  5
1C4
330
1F
100
AcDbEntity
  8
0
  6
Continuous
 62
     7
370
    25
100
AcDbLine
 10
143.5061182037
 20
227.6893525918
 30
0.0
 11
143.5061182037
 21
198.6893529606
 31
0.0
  0
LINE
  5
1C5
330
1F
100
AcDbEntity
  8
0
  6
Continuous
 62
     7
370
    25
100
AcDbLine
 10
138.5061192468
 20
198.6893529606
 30
0.0
 11
138.5061192468
 21
227.6893525918
 31
0.0
  0
LINE
  5
1C6
330
1F
100
AcDbEntity
  8
0
  6
Continuous
 62
     7
370
    25
100
AcDbLine
 10
138.5061192468
 20
227.6893525918
 30
0.0
 11
139.0061183974
 21
227.6893525918
 31
0.0
  0
LINE
  5
1C7
330
1F
100
AcDbEntity
  8
0
  6
Continuous
 62
     7
370
    25
100
AcDbLine
 10
138.5061192468
 20
198.6893529606
 30
0.0
 11
139.0061183974
 21
198.6893529606
 31
0.0
  0
LINE
  5
1C8
330
1F
100
AcDbEntity
  8
0
  6
Continuous
 62
     7
370
    25
100
AcDbLine
 10
139.0061183974
 20
228.1893526737
 30
0.0
 11
139.0061183974
 21
227.6893525918
 31
0.0
  0
LINE
  5
1C9
330
1F
100
AcDbEntity
  8
0
  6
Continuous
 62
     7
370
    25
100
AcDbLine
 10
139.0061183974
 20
228.1893526737
 30
0.0
 11
138.5061192468
 21
227.6893525918
 31
0.0
  0
LINE
  5
1CA
330
1F
100
AcDbEntity
  8
0
  6
Continuous
 62
     7
370
    25
100
AcDbLine
 10
139.0061183974
 20
228.1893526737
 30
0.0
 11
143.5061182037
 21
228.1893526737
 31
0.0
  0
LINE
  5
1CB
330
1F
100
AcDbEntity
  8
0
  6
Continuous
 62
     7
370
    25
100
AcDbLine
 10
143.5061182037
 20
228.1893526737
 30
0.0
 11
143.5061182037
 21
227.6893525918
 31
0.0
  0
LINE
  5
1CC
330
1F
100
AcDbEntity
  8
0
  6
Continuous
 62
     7
370
    25
100
AcDbLine
 10
139.0061183974
 20
198.1893519473
 30
0.0
 11
139.0061183974
 21
198.6893529606
 31
0.0
  0
LINE
  5
1CD
330
1F
100
AcDbEntity
  8
0
  6
Continuous
 62
     7
370
    25
100
AcDbLine
 10
138.5061192468
 20
198.6893529606
 30
0.0
 11
139.0061183974
 21
198.1893519473
 31
0.0
  0
LINE
  5
1CE
330
1F
100
AcDbEntity
  8
0
  6
Continuous
 62
     7
370
    25
100
AcDbLine
 10
143.5061182037
 20
198.1893519473
 30
0.0
 11
139.0061183974
 21
198.1893519473
 31
0.0
  0
LINE
  5
1CF
330
1F
100
AcDbEntity
  8
0
  6
Continuous
 62
     7
370
    25
100
AcDbLine
 10
143.5061182037
 20
198.6893529606
 30
0.0
 11
143.5061182037
 21
198.1893519473
 31
0.0
  0
LINE
  5
1D0
330
1F
100
AcDbEntity
  8
0
  6
Continuous
 62
     7
370
    25
100
AcDbLine
 10
138.5061192468
 20
227.6893525918
 30
0.0
 11
138.2061178938
 21
227.6893525918
 31
0.0
  0
LINE
  5
1D1
330
1F
100
AcDbEntity
  8
0
  6
Continuous
 62
     7
370
    25
100
AcDbLine
 10
134.5061185912
 20
228.1893526737
 30
0.0
 11
134.5061185912
 21
227.6893525918
 31
0.0
  0
LINE
  5
1D2
330
1F
100
AcDbEntity
  8
0
  6
Continuous
 62
     7
370
    25
100
AcDbLine
 10
134.5061185912
 20
228.1893526737
 30
0.0
 11
139.0061183974
 21
228.1893526737
 31
0.0
  0
LINE
  5
1D3
330
1F
100
AcDbEntity
  8
0
  6
Continuous
 62
     7
370
    25
100
AcDbLine
 10
138.2061178938
 20
198.6893529606
 30
0.0
 11
138.5061192468
 21
198.6893529606
 31
0.0
  0
LINE
  5
1D4
330
1F
100
AcDbEntity
  8
0
  6
Continuous
 62
     7
370
    25
100
AcDbLine
 10
134.5061185912
 20
198.6893529606
 30
0.0
 11
134.5061185912
 21
198.1893519473
 31
0.0
  0
LINE
  5
1D5
330
1F
100
AcDbEntity
  8
0
  6
Continuous
 62
     7
370
    25
100
AcDbLine
 10
139.0061183974
 20
198.1893519473
 30
0.0
 11
134.5061185912
 21
198.1893519473
 31
0.0
  0
LINE
  5
1D6
330
1F
100
AcDbEntity
  8
0
  6
Continuous
 62
     7
370
    25
100
AcDbLine
 10
134.5061185912
 20
227.6893525918
 30
0.0
 11
78.0061214373
 21
227.6893525918
 31
0.0
  0
LINE
  5
1D7
330
1F
100
AcDbEntity
  8
0
  6
Continuous
 62
     7
370
    25
100
AcDbLine
 10
78.0061214373
 20
198.6893529606
 30
0.0
 11
134.5061185912
 21
198.6893529606
 31
0.0
  0
LINE
  5
1D8
330
1F
100
AcDbEntity
  8
0
  6
Continuous
 62
     7
370
    25
100
AcDbLine
 10
78.0061214373
 20
227.6893525918
 30
0.0
 11
78.0061214373
 21
198.6893529606
 31
0.0
  0
LINE
  5
1D9
330
1F
100
AcDbEntity
  8
0
  6
Continuous
 62
     7
370
    25
100
AcDbLine
 10
78.0061214373
 20
228.1893526737
 30
0.0
 11
78.0061214373
 21
227.6893525918
 31
0.0
  0
LINE
  5
1DA
330
1F
100
AcDbEntity
  8
0
  6
Continuous
 62
     7
370
    25
100
AcDbLine
 10
78.0061214373
 20
228.1893526737
 30
0.0
 11
134.5061185912
 21
228.1893526737
 31
0.0
  0
LINE
  5
1DB
330
1F
100
AcDbEntity
  8
0
  6
Continuous
 62
     7
370
    25
100
AcDbLine
 10
77.506120424
 20
227.6893525918
 30
0.0
 11
78.0061214373
 21
227.6893525918
 31
0.0
  0
LINE
  5
1DC
330
1F
100
AcDbEntity
  8
0
  6
Continuous
 62
     7
370
    25
100
AcDbLine
 10
78.0061214373
 20
228.1893526737
 30
0.0
 11
77.506120424
 21
227.6893525918
 31
0.0
  0
LINE
  5
1DD
330
1F
100
AcDbEntity
  8
0
  6
Continuous
 62
     7
370
    25
100
AcDbLine
 10
77.506120424
 20
198.6893529606
 30
0.0
 11
77.506120424
 21
227.6893525918
 31
0.0
  0
LINE
  5
1DE
330
1F
100
AcDbEntity
  8
0
  6
Continuous
 62
     7
370
    25
100
AcDbLine
 10
77.506120424
 20
198.6893529606
 30
0.0
 11
78.0061214373
 21
198.6893529606
 31
0.0
  0
LINE
  5
1DF
330
1F
100
AcDbEntity
  8
0
  6
Continuous
 62
     7
370
    25
100
AcDbLine
 10
78.0061214373
 20
198.6893529606
 30
0.0
 11
78.0061214373
 21
198.1893519473
 31
0.0
  0
LINE
  5
1E0
330
1F
100
AcDbEntity
  8
0
  6
Continuous
 62
     7
370
    25
100
AcDbLine
 10
134.5061185912
 20
198.1893519473
 30
0.0
 11
78.0061214373
 21
198.1893519473
 31
0.0
  0
LINE
  5
1E1
330
1F
100
AcDbEntity
  8
0
  6
Continuous
 62
     7
370
    25
100
AcDbLine
 10
77.506120424
 20
198.6893529606
 30
0.0
 11
78.0061214373
 21
198.1893519473
 31
0.0
  0
LINE
  5
1E2
330
1F
100
AcDbEntity
  8
0
  6
Continuous
 62
     7
370
    25
100
AcDbLine
 10
133.8061197803
 20
227.6893525918
 30
0.0
 11
133.8061197803
 21
198.6893529606
 31
0.0
  0
LINE
  5
1E3
330
1F
100
AcDbEntity
  8
0
  6
Continuous
 62
     7
370
    25
100
AcDbLine
 10
138.2061178938
 20
198.6893529606
 30
0.0
 11
138.2061178938
 21
227.6893525918
 31
0.0
  0
LINE
  5
1E4
330
1F
100
AcDbEntity
  8
0
  6
Continuous
 62
     7
370
    25
100
AcDbLine
 10
133.5061184272
 20
198.9893524509
 30
0.0
 11
133.5061184272
 21
227.3893526357
 31
0.0
  0
CIRCLE
  5
1E5
330
1F
100
AcDbEntity
  8
0
  6
Continuous
 62
     7
370
    25
100
AcDbCircle
 10
95.5061183784
 20
213.1893525441
 30
0.0
 40
14.49999999999999
  0
CIRCLE
  5
1E6
330
1F
100
AcDbEntity
  8
0
  6
Continuous
 62
     7
370
    25
100
AcDbCircle
 10
95.5061183784
 20
213.1893525441
 30
0.0
 40
14.19999999999999
  0
LINE
  5
1E7
330
1F
100
AcDbEntity
  8
0
  6
Continuous
 62
     7
370
    25
100
AcDbLine
 10
96.9494908259
 20
215.6893524875
 30
0.0
 11
94.0627410218
 21
215.6893524875
 31
0.0
  0
LINE
  5
1E8
330
1F
100
AcDbEntity
  8
0
  6
Continuous
 62
     7
370
    25
100
AcDbLine
 10
94.0627410218
 20
215.6893524875
 30
0.0
 11
92.6193698451
 21
213.1893525433
 31
0.0
  0
LINE
  5
1E9
330
1F
100
AcDbEntity
  8
0
  6
Continuous
 62
     7
370
    25
100
AcDbLine
 10
92.6193698451
 20
213.1893525433
 30
0.0
 11
94.0627410218
 21
210.6893521336
 31
0.0
  0
LINE
  5
1EA
330
1F
100
AcDbEntity
  8
0
  6
Continuous
 62
     7
370
    25
100
AcDbLine
 10
94.0627410218
 20
210.6893521336
 30
0.0
 11
96.9494908259
 21
210.6893521336
 31
0.0
  0
LINE
  5
1EB
330
1F
100
AcDbEntity
  8
0
  6
Continuous
 62
     7
370
    25
100
AcDbLine
 10
96.9494908259
 20
210.6893521336
 30
0.0
 11
98.3928694532
 21
213.1893525433
 31
0.0
  0
LINE
  5
1EC
330
1F
100
AcDbEntity
  8
0
  6
Continuous
 62
     7
370
    25
100
AcDbLine
 10
98.3928694532
 20
213.1893525433
 30
0.0
 11
96.9494908259
 21
215.6893524875
 31
0.0
  0
LINE
  5
1ED
330
1F
100
AcDbEntity
  8
0
  6
Continuous
 62
     7
370
    25
100
AcDbLine
 10
145.5061185316
 20
199.1893521112
 30
0.0
 11
145.5061185316
 21
227.1893525098
 31
0.0
  0
LINE
  5
1EE
330
1F
100
AcDbEntity
  8
0
  6
Continuous
 62
     7
370
    25
100
AcDbLine
 10
147.7061185196
 20
221.9393525806
 30
0.0
 11
147.7061185196
 21
204.4393534374
 31
0.0
  0
LINE
  5
1EF
330
1F
100
AcDbEntity
  8
0
  6
Continuous
 62
     7
370
    25
100
AcDbLine
 10
147.5061188594
 20
204.6393530977
 30
0.0
 11
147.5061188594
 21
221.7393525711
 31
0.0
  0
LINE
  5
1F0
330
1F
100
AcDbEntity
  8
0
  6
Continuous
 62
     7
370
    25
100
AcDbLine
 10
150.5061184198
 20
203.1893527669
 30
0.0
 11
150.5061184198
 21
223.1893525436
 31
0.0
  0
LINE
  5
1F1
330
1F
100
AcDbEntity
  8
0
  6
Continuous
 62
     7
370
    25
100
AcDbLine
 10
155.506118308
 20
198.1893519473
 30
0.0
 11
155.506118308
 21
228.1893526737
 31
0.0
  0
LINE
  5
1F2
330
1F
100
AcDbEntity
  8
0
  6
Continuous
 62
     7
370
    25
100
AcDbLine
 10
148.00611801
 20
203.1893527669
 30
0.0
 11
148.00611801
 21
223.1893525436
 31
0.0
  0
LINE
  5
1F3
330
1F
100
AcDbEntity
  8
0
  6
Continuous
 62
     7
370
    25
100
AcDbLine
 10
93.673388581
 20
214.5945013103
 30
0.0
 11
93.372861962
 21
212.3047385898
 31
0.0
  0
LINE
  5
1F4
330
1F
100
AcDbEntity
  8
0
  6
Continuous
 62
     7
370
    25
100
AcDbLine
 10
95.2055855796
 20
210.8995898229
 30
0.0
 11
93.372861962
 21
212.3047385898
 31
0.0
  0
LINE
  5
1F5
330
1F
100
AcDbEntity
  8
0
  6
Continuous
 62
     7
370
    25
100
AcDbLine
 10
97.3388432667
 20
211.7842037764
 30
0.0
 11
95.2055855796
 21
210.8995898229
 31
0.0
  0
LINE
  5
1F6
330
1F
100
AcDbEntity
  8
0
  6
Continuous
 62
     7
370
    25
100
AcDbLine
 10
97.3388432667
 20
211.7842037764
 30
0.0
 11
97.6393773362
 21
214.0739664969
 31
0.0
  0
LINE
  5
1F7
330
1F
100
AcDbEntity
  8
0
  6
Continuous
 62
     7
370
    25
100
AcDbLine
 10
95.8066462681
 20
215.4791152638
 30
0.0
 11
97.6393773362
 21
214.0739664969
 31
0.0
  0
LINE
  5
1F8
330
1F
100
AcDbEntity
  8
0
  6
Continuous
 62
     7
370
    25
100
AcDbLine
 10
95.8066462681
 20
215.4791152638
 30
0.0
 11
93.673388581
 21
214.5945013103
 31
0.0
  0
LINE
  5
1F9
330
1F
100
AcDbEntity
  8
0
  6
Continuous
 62
     7
370
    25
100
AcDbLine
 10
147.0175153718
 20
209.189352819
 30
0.0
 11
147.0175153718
 21
217.1893527333
 31
0.0
  0
LINE
  5
1FA
330
1F
100
AcDbEntity
  8
0
  6
Continuous
 62
     7
370
    25
100
AcDbLine
 10
146.6292488531
 20
209.7438529667
 30
0.0
 11
146.6292488531
 21
216.6348525856
 31
0.0
  0
LINE
  5
1FB
330
1F
100
AcDbEntity
  8
0
  6
Continuous
 62
     7
370
    25
100
AcDbLine
 10
146.0421412394
 20
209.189352819
 30
0.0
 11
146.0421412394
 21
217.1893527333
 31
0.0
  0
LINE
  5
1FC
330
1F
100
AcDbEntity
  8
0
  6
Continuous
 62
     7
370
    25
100
AcDbLine
 10
145.6538765833
 20
209.7438529667
 30
0.0
 11
145.6538765833
 21
216.6348525856
 31
0.0
  0
LINE
  5
1FD
330
1F
100
AcDbEntity
  8
0
  6
Continuous
 62
     7
370
    25
100
AcDbLine
 10
147.2163583294
 20
209.189352819
 30
0.0
 11
147.2163583294
 21
217.1893527333
 31
0.0
  0
LINE
  5
1FE
330
1F
100
AcDbEntity
  8
0
  6
Continuous
 62
     7
370
    25
100
AcDbLine
 10
146.240984197
 20
209.189352819
 30
0.0
 11
146.240984197
 21
217.1893527333
 31
0.0
  0
LINE
  5
1FF
330
1F
100
AcDbEntity
  8
0
  6
Continuous
 62
     7
370
    25
100
AcDbLine
 10
133.8061197803
 20
87.2880132924
 30
0.0
 11
138.2061178938
 21
87.2880132924
 31
0.0
  0
LINE
  5
200
330
1F
100
AcDbEntity
  8
0
  6
Continuous
 62
     7
370
    25
100
AcDbLine
 10
138.2061178938
 20
116.2880152519
 30
0.0
 11
133.8061197803
 21
116.2880152519
 31
0.0
  0
LINE
  5
201
330
1F
100
AcDbEntity
  8
0
  6
Continuous
 62
     7
370
    25
100
AcDbLine
 10
133.8061197803
 20
116.2880152519
 30
0.0
 11
133.5061184272
 21
115.9880148302
 31
0.0
  0
LINE
  5
202
330
1F
100
AcDbEntity
  8
0
  6
Continuous
 62
     7
370
    25
100
AcDbLine
 10
133.5061184272
 20
87.5880146454
 30
0.0
 11
133.8061197803
 21
87.2880132924
 31
0.0
  0
LINE
  5
203
330
1F
100
AcDbEntity
  8
0
  6
Continuous
 62
     7
370
    25
100
AcDbLine
 10
138.2061178938
 20
87.2880132924
 30
0.0
 11
138.5061192468
 21
87.5880146454
 31
0.0
  0
LINE
  5
204
330
1F
100
AcDbEntity
  8
0
  6
Continuous
 62
     7
370
    25
100
AcDbLine
 10
138.5061192468
 20
115.9880148302
 30
0.0
 11
138.2061178938
 21
116.2880152519
 31
0.0
  0
LINE
  5
205
330
1F
100
AcDbEntity
  8
0
  6
Continuous
 62
     7
370
    25
100
AcDbLine
 10
110.0061192319
 20
144.4880148451
 30
0.0
 11
109.7061178789
 21
144.7880152668
 31
0.0
  0
LINE
  5
206
330
1F
100
AcDbEntity
  8
0
  6
Continuous
 62
     7
370
    25
100
AcDbLine
 10
81.3061176941
 20
144.7880152668
 30
0.0
 11
81.0061200664
 21
144.4880148451
 31
0.0
  0
LINE
  5
207
330
1F
100
AcDbEntity
  8
0
  6
Continuous
 62
     7
370
    25
100
AcDbLine
 10
110.0061192319
 20
140.0880148689
 30
0.0
 11
110.0061192319
 21
144.4880148451
 31
0.0
  0
LINE
  5
208
330
1F
100
AcDbEntity
  8
0
  6
Continuous
 62
     7
370
    25
100
AcDbLine
 10
81.0061200664
 20
144.4880148451
 30
0.0
 11
81.0061200664
 21
140.0880148689
 31
0.0
  0
LINE
  5
209
330
1F
100
AcDbEntity
  8
0
  6
Continuous
 62
     7
370
    25
100
AcDbLine
 10
81.0061200664
 20
140.0880148689
 30
0.0
 11
81.3061176941
 21
139.7880153786
 31
0.0
  0
LINE
  5
20A
330
1F
100
AcDbEntity
  8
0
  6
Continuous
 62
     7
370
    25
100
AcDbLine
 10
109.7061178789
 20
139.7880153786
 30
0.0
 11
110.0061192319
 21
140.0880148689
 31
0.0
  0
LINE
  5
20B
330
1F
100
AcDbEntity
  8
0
  6
Continuous
 62
     7
370
    25
100
AcDbLine
 10
145.5061185316
 20
115.7880151699
 30
0.0
 11
143.5061182037
 21
115.7880151699
 31
0.0
  0
LINE
  5
20C
330
1F
100
AcDbEntity
  8
0
  6
Continuous
 62
     7
370
    25
100
AcDbLine
 10
143.5061182037
 20
87.7880143057
 30
0.0
 11
145.5061185316
 21
87.7880143057
 31
0.0
  0
LINE
  5
20D
330
1F
100
AcDbEntity
  8
0
  6
Continuous
 62
     7
370
    25
100
AcDbLine
 10
81.5061210797
 20
151.7880154829
 30
0.0
 11
81.5061210797
 21
149.788015155
 31
0.0
  0
LINE
  5
20E
330
1F
100
AcDbEntity
  8
0
  6
Continuous
 62
     7
370
    25
100
AcDbLine
 10
109.5061182186
 20
149.788015155
 30
0.0
 11
109.5061182186
 21
151.7880154829
 31
0.0
  0
LINE
  5
20F
330
1F
100
AcDbEntity
  8
0
  6
Continuous
 62
     7
370
    25
100
AcDbLine
 10
147.7061185196
 20
110.5380157064
 30
0.0
 11
147.5061188594
 21
110.3380141835
 31
0.0
  0
LINE
  5
210
330
1F
100
AcDbEntity
  8
0
  6
Continuous
 62
     7
370
    25
100
AcDbLine
 10
147.5061188594
 20
93.2380134295
 30
0.0
 11
147.7061185196
 21
93.0380137692
 31
0.0
  0
LINE
  5
211
330
1F
100
AcDbEntity
  8
0
  6
Continuous
 62
     7
370
    25
100
AcDbLine
 10
148.00611801
 20
110.5380157064
 30
0.0
 11
147.7061185196
 21
110.5380157064
 31
0.0
  0
LINE
  5
212
330
1F
100
AcDbEntity
  8
0
  6
Continuous
 62
     7
370
    25
100
AcDbLine
 10
147.7061185196
 20
93.0380137692
 30
0.0
 11
148.00611801
 21
93.0380137692
 31
0.0
  0
LINE
  5
213
330
1F
100
AcDbEntity
  8
0
  6
Continuous
 62
     7
370
    25
100
AcDbLine
 10
86.7561205432
 20
154.2880149613
 30
0.0
 11
86.7561205432
 21
153.9880154709
 31
0.0
  0
LINE
  5
214
330
1F
100
AcDbEntity
  8
0
  6
Continuous
 62
     7
370
    25
100
AcDbLine
 10
104.2561187551
 20
153.9880154709
 30
0.0
 11
104.2561187551
 21
154.2880149613
 31
0.0
  0
LINE
  5
215
330
1F
100
AcDbEntity
  8
0
  6
Continuous
 62
     7
370
    25
100
AcDbLine
 10
86.7561205432
 20
153.9880154709
 30
0.0
 11
86.9561164782
 21
153.7880158107
 31
0.0
  0
LINE
  5
216
330
1F
100
AcDbEntity
  8
0
  6
Continuous
 62
     7
370
    25
100
AcDbLine
 10
104.0561190948
 20
153.7880158107
 30
0.0
 11
104.2561187551
 21
153.9880154709
 31
0.0
  0
LINE
  5
217
330
1F
100
AcDbEntity
  8
0
  6
Continuous
 62
     7
370
    25
100
AcDbLine
 10
155.506118308
 20
116.7880153339
 30
0.0
 11
150.5061184198
 21
111.7880145143
 31
0.0
  0
LINE
  5
218
330
1F
100
AcDbEntity
  8
0
  6
Continuous
 62
     7
370
    25
100
AcDbLine
 10
150.5061184198
 20
91.7880149613
 30
0.0
 11
155.506118308
 21
86.7880160044
 31
0.0
  0
LINE
  5
219
330
1F
100
AcDbEntity
  8
0
  6
Continuous
 62
     7
370
    25
100
AcDbLine
 10
148.00611801
 20
91.7880149613
 30
0.0
 11
150.5061184198
 21
91.7880149613
 31
0.0
  0
LINE
  5
21A
330
1F
100
AcDbEntity
  8
0
  6
Continuous
 62
     7
370
    25
100
AcDbLine
 10
150.5061184198
 20
111.7880145143
 30
0.0
 11
148.00611801
 21
111.7880145143
 31
0.0
  0
LINE
  5
21B
330
1F
100
AcDbEntity
  8
0
  6
Continuous
 62
     7
370
    25
100
AcDbLine
 10
80.5061190531
 20
161.7880152593
 30
0.0
 11
85.5061217353
 21
156.7880144398
 31
0.0
  0
LINE
  5
21C
330
1F
100
AcDbEntity
  8
0
  6
Continuous
 62
     7
370
    25
100
AcDbLine
 10
105.506117563
 20
156.7880144398
 30
0.0
 11
110.5061165199
 21
161.7880152593
 31
0.0
  0
LINE
  5
21D
330
1F
100
AcDbEntity
  8
0
  6
Continuous
 62
     7
370
    25
100
AcDbLine
 10
105.506117563
 20
154.2880149613
 30
0.0
 11
105.506117563
 21
156.7880144398
 31
0.0
  0
LINE
  5
21E
330
1F
100
AcDbEntity
  8
0
  6
Continuous
 62
     7
370
    25
100
AcDbLine
 10
85.5061217353
 20
156.7880144398
 30
0.0
 11
85.5061217353
 21
154.2880149613
 31
0.0
  0
LINE
  5
21F
330
1F
100
AcDbEntity
  8
0
  6
Continuous
 62
     7
370
    25
100
AcDbLine
 10
99.5061203048
 20
153.4982552807
 30
0.0
 11
99.0923001573
 21
153.7880158107
 31
0.0
  0
LINE
  5
220
330
1F
100
AcDbEntity
  8
0
  6
Continuous
 62
     7
370
    25
100
AcDbLine
 10
91.919939141
 20
153.7880158107
 30
0.0
 11
91.5061189935
 21
153.4982552807
 31
0.0
  0
LINE
  5
221
330
1F
100
AcDbEntity
  8
0
  6
Continuous
 62
     7
370
    25
100
AcDbLine
 10
99.5061203048
 20
153.2994104604
 30
0.0
 11
99.5061203048
 21
153.4982552807
 31
0.0
  0
LINE
  5
222
330
1F
100
AcDbEntity
  8
0
  6
Continuous
 62
     7
370
    25
100
AcDbLine
 10
91.5061189935
 20
153.4982552807
 30
0.0
 11
91.5061189935
 21
153.2994104604
 31
0.0
  0
LINE
  5
223
330
1F
100
AcDbEntity
  8
0
  6
Continuous
 62
     7
370
    25
100
AcDbLine
 10
91.5061189935
 20
153.2994104604
 30
0.0
 11
92.0606210038
 21
152.9111458044
 31
0.0
  0
LINE
  5
224
330
1F
100
AcDbEntity
  8
0
  6
Continuous
 62
     7
370
    25
100
AcDbLine
 10
98.9516182944
 20
152.9111458044
 30
0.0
 11
99.5061203048
 21
153.2994104604
 31
0.0
  0
LINE
  5
225
330
1F
100
AcDbEntity
  8
0
  6
Continuous
 62
     7
370
    25
100
AcDbLine
 10
99.5061203048
 20
152.5228811483
 30
0.0
 11
98.9516182944
 21
152.9111458044
 31
0.0
  0
LINE
  5
226
330
1F
100
AcDbEntity
  8
0
  6
Continuous
 62
     7
370
    25
100
AcDbLine
 10
92.0606210038
 20
152.9111458044
 30
0.0
 11
91.5061189935
 21
152.5228811483
 31
0.0
  0
LINE
  5
227
330
1F
100
AcDbEntity
  8
0
  6
Continuous
 62
     7
370
    25
100
AcDbLine
 10
99.5061203048
 20
152.3240381907
 30
0.0
 11
99.5061203048
 21
152.5228811483
 31
0.0
  0
LINE
  5
228
330
1F
100
AcDbEntity
  8
0
  6
Continuous
 62
     7
370
    25
100
AcDbLine
 10
91.5061189935
 20
152.5228811483
 30
0.0
 11
91.5061189935
 21
152.3240381907
 31
0.0
  0
LINE
  5
229
330
1F
100
AcDbEntity
  8
0
  6
Continuous
 62
     7
370
    25
100
AcDbLine
 10
91.5061189935
 20
152.3240381907
 30
0.0
 11
92.0606210038
 21
151.935771672
 31
0.0
  0
LINE
  5
22A
330
1F
100
AcDbEntity
  8
0
  6
Continuous
 62
     7
370
    25
100
AcDbLine
 10
98.9516182944
 20
151.935771672
 30
0.0
 11
99.5061203048
 21
152.3240381907
 31
0.0
  0
LINE
  5
22B
330
1F
100
AcDbEntity
  8
0
  6
Continuous
 62
     7
370
    25
100
AcDbLine
 10
99.1626410887
 20
151.7880154829
 30
0.0
 11
98.9516182944
 21
151.935771672
 31
0.0
  0
LINE
  5
22C
330
1F
100
AcDbEntity
  8
0
  6
Continuous
 62
     7
370
    25
100
AcDbLine
 10
92.0606210038
 20
151.935771672
 30
0.0
 11
91.8495982096
 21
151.7880154829
 31
0.0
  0
LINE
  5
22D
330
1F
100
AcDbEntity
  8
0
  6
Continuous
 62
     7
370
    25
100
AcDbLine
 10
147.0175153718
 20
97.7880159448
 30
0.0
 11
147.2163583294
 21
97.7880159448
 31
0.0
  0
LINE
  5
22E
330
1F
100
AcDbEntity
  8
0
  6
Continuous
 62
     7
370
    25
100
AcDbLine
 10
147.2163583294
 20
105.7880153935
 30
0.0
 11
147.0175153718
 21
105.7880153935
 31
0.0
  0
LINE
  5
22F
330
1F
100
AcDbEntity
  8
0
  6
Continuous
 62
     7
370
    25
100
AcDbLine
 10
146.0421412394
 20
105.7880153935
 30
0.0
 11
145.6538765833
 21
105.2335152458
 31
0.0
  0
LINE
  5
230
330
1F
100
AcDbEntity
  8
0
  6
Continuous
 62
     7
370
    25
100
AcDbLine
 10
145.6538765833
 20
98.3425142299
 30
0.0
 11
146.0421412394
 21
97.7880159448
 31
0.0
  0
LINE
  5
231
330
1F
100
AcDbEntity
  8
0
  6
Continuous
 62
     7
370
    25
100
AcDbLine
 10
147.0175153718
 20
105.7880153935
 30
0.0
 11
146.6292488531
 21
105.2335152458
 31
0.0
  0
LINE
  5
232
330
1F
100
AcDbEntity
  8
0
  6
Continuous
 62
     7
370
    25
100
AcDbLine
 10
146.6292488531
 20
98.3425142299
 30
0.0
 11
147.0175153718
 21
97.7880159448
 31
0.0
  0
LINE
  5
233
330
1F
100
AcDbEntity
  8
0
  6
Continuous
 62
     7
370
    25
100
AcDbLine
 10
146.0421412394
 20
97.7880159448
 30
0.0
 11
146.240984197
 21
97.7880159448
 31
0.0
  0
LINE
  5
234
330
1F
100
AcDbEntity
  8
0
  6
Continuous
 62
     7
370
    25
100
AcDbLine
 10
146.240984197
 20
105.7880153935
 30
0.0
 11
146.0421412394
 21
105.7880153935
 31
0.0
  0
LINE
  5
235
330
1F
100
AcDbEntity
  8
0
  6
Continuous
 62
     7
370
    25
100
AcDbLine
 10
145.5061185316
 20
98.1314951609
 30
0.0
 11
145.6538765833
 21
98.3425142299
 31
0.0
  0
LINE
  5
236
330
1F
100
AcDbEntity
  8
0
  6
Continuous
 62
     7
370
    25
100
AcDbLine
 10
145.6538765833
 20
105.2335152458
 30
0.0
 11
145.5061185316
 21
105.4445343147
 31
0.0
  0
LINE
  5
237
330
1F
100
AcDbEntity
  8
0
  6
Continuous
 62
     7
370
    25
100
AcDbLine
 10
147.2163583294
 20
97.7880159448
 30
0.0
 11
147.5061188594
 21
98.2018360923
 31
0.0
  0
LINE
  5
238
330
1F
100
AcDbEntity
  8
0
  6
Continuous
 62
     7
370
    25
100
AcDbLine
 10
147.5061188594
 20
105.3741952459
 30
0.0
 11
147.2163583294
 21
105.7880153935
 31
0.0
  0
LINE
  5
239
330
1F
100
AcDbEntity
  8
0
  6
Continuous
 62
     7
370
    25
100
AcDbLine
 10
146.240984197
 20
97.7880159448
 30
0.0
 11
146.6292488531
 21
98.3425142299
 31
0.0
  0
LINE
  5
23A
330
1F
100
AcDbEntity
  8
0
  6
Continuous
 62
     7
370
    25
100
AcDbLine
 10
146.6292488531
 20
105.2335152458
 30
0.0
 11
146.240984197
 21
105.7880153935
 31
0.0
  0
ARC
  5
23B
330
1F
100
AcDbEntity
  8
0
  6
Continuous
 62
     7
370
    25
100
AcDbCircle
 10
134.5061183784
 20
140.7880149626
 30
0.0
 40
4.500000000000057
100
AcDbArc
 50
0.0
 51
90.0
  0
LINE
  5
23C
330
1F
100
AcDbEntity
  8
0
  6
Continuous
 62
     7
370
    25
100
AcDbLine
 10
78.0061214373
 20
145.2880153488
 30
0.0
 11
134.5061185912
 21
145.2880153488
 31
0.0
  0
LINE
  5
23D
330
1F
100
AcDbEntity
  8
0
  6
Continuous
 62
     7
370
    25
100
AcDbLine
 10
78.0061214373
 20
149.788015155
 30
0.0
 11
78.0061214373
 21
145.2880153488
 31
0.0
  0
LINE
  5
23E
330
1F
100
AcDbEntity
  8
0
  6
Continuous
 62
     7
370
    25
100
AcDbLine
 10
135.5061187551
 20
149.788015155
 30
0.0
 11
78.0061214373
 21
149.788015155
 31
0.0
  0
ARC
  5
23F
330
1F
100
AcDbEntity
  8
0
  6
Continuous
 62
     7
370
    25
100
AcDbCircle
 10
135.5061183784
 20
141.7880149626
 30
0.0
 40
8.000000000000028
100
AcDbArc
 50
0.0
 51
90.0
  0
LINE
  5
240
330
1F
100
AcDbEntity
  8
0
  6
Continuous
 62
     7
370
    25
100
AcDbLine
 10
143.5061182037
 20
84.2880146633
 30
0.0
 11
143.5061182037
 21
141.7880147751
 31
0.0
  0
LINE
  5
241
330
1F
100
AcDbEntity
  8
0
  6
Continuous
 62
     7
370
    25
100
AcDbLine
 10
139.0061183974
 20
84.2880146633
 30
0.0
 11
143.5061182037
 21
84.2880146633
 31
0.0
  0
LINE
  5
242
330
1F
100
AcDbEntity
  8
0
  6
Continuous
 62
     7
370
    25
100
AcDbLine
 10
139.0061183974
 20
140.7880146111
 30
0.0
 11
139.0061183974
 21
84.2880146633
 31
0.0
  0
LINE
  5
243
330
1F
100
AcDbEntity
  8
0
  6
Continuous
 62
     7
370
    25
100
AcDbLine
 10
78.0061214373
 20
145.2880153488
 30
0.0
 11
77.506120424
 21
145.2880153488
 31
0.0
  0
LINE
  5
244
330
1F
100
AcDbEntity
  8
0
  6
Continuous
 62
     7
370
    25
100
AcDbLine
 10
77.506120424
 20
145.2880153488
 30
0.0
 11
77.506120424
 21
149.788015155
 31
0.0
  0
LINE
  5
245
330
1F
100
AcDbEntity
  8
0
  6
Continuous
 62
     7
370
    25
100
AcDbLine
 10
77.506120424
 20
149.788015155
 30
0.0
 11
78.0061214373
 21
149.788015155
 31
0.0
  0
LINE
  5
246
330
1F
100
AcDbEntity
  8
0
  6
Continuous
 62
     7
370
    25
100
AcDbLine
 10
134.5061185912
 20
145.2880153488
 30
0.0
 11
134.5061185912
 21
144.7880152668
 31
0.0
  0
LINE
  5
247
330
1F
100
AcDbEntity
  8
0
  6
Continuous
 62
     7
370
    25
100
AcDbLine
 10
134.5061185912
 20
144.7880152668
 30
0.0
 11
78.0061214373
 21
144.7880152668
 31
0.0
  0
LINE
  5
248
330
1F
100
AcDbEntity
  8
0
  6
Continuous
 62
     7
370
    25
100
AcDbLine
 10
78.0061214373
 20
145.2880153488
 30
0.0
 11
78.0061214373
 21
144.7880152668
 31
0.0
  0
LINE
  5
249
330
1F
100
AcDbEntity
  8
0
  6
Continuous
 62
     7
370
    25
100
AcDbLine
 10
77.506120424
 20
145.2880153488
 30
0.0
 11
78.0061214373
 21
144.7880152668
 31
0.0
  0
LINE
  5
24A
330
1F
100
AcDbEntity
  8
0
  6
Continuous
 62
     7
370
    25
100
AcDbLine
 10
139.0061183974
 20
140.7880146111
 30
0.0
 11
138.5061192468
 21
140.7880146111
 31
0.0
  0
ARC
  5
24B
330
1F
100
AcDbEntity
  8
0
  6
Continuous
 62
     7
370
    25
100
AcDbCircle
 10
134.5061183784
 20
140.7880149626
 30
0.0
 40
4.000000000000028
100
AcDbArc
 50
0.0
 51
90.0
  0
LINE
  5
24C
330
1F
100
AcDbEntity
  8
0
  6
Continuous
 62
     7
370
    25
100
AcDbLine
 10
139.0061183974
 20
84.2880146633
 30
0.0
 11
138.5061192468
 21
84.2880146633
 31
0.0
  0
LINE
  5
24D
330
1F
100
AcDbEntity
  8
0
  6
Continuous
 62
     7
370
    25
100
AcDbLine
 10
138.5061192468
 20
84.2880146633
 30
0.0
 11
138.5061192468
 21
140.7880146111
 31
0.0
  0
LINE
  5
24E
330
1F
100
AcDbEntity
  8
0
  6
Continuous
 62
     7
370
    25
100
AcDbLine
 10
143.5061182037
 20
83.78801365
 30
0.0
 11
139.0061183974
 21
83.78801365
 31
0.0
  0
LINE
  5
24F
330
1F
100
AcDbEntity
  8
0
  6
Continuous
 62
     7
370
    25
100
AcDbLine
 10
139.0061183974
 20
84.2880146633
 30
0.0
 11
139.0061183974
 21
83.78801365
 31
0.0
  0
LINE
  5
250
330
1F
100
AcDbEntity
  8
0
  6
Continuous
 62
     7
370
    25
100
AcDbLine
 10
143.5061182037
 20
84.2880146633
 30
0.0
 11
143.5061182037
 21
83.78801365
 31
0.0
  0
LINE
  5
251
330
1F
100
AcDbEntity
  8
0
  6
Continuous
 62
     7
370
    25
100
AcDbLine
 10
138.5061192468
 20
84.2880146633
 30
0.0
 11
139.0061183974
 21
83.78801365
 31
0.0
  0
LINE
  5
252
330
1F
100
AcDbEntity
  8
0
  6
Continuous
 62
     7
370
    25
100
AcDbLine
 10
133.8061197803
 20
116.2880152519
 30
0.0
 11
133.8061197803
 21
87.2880132924
 31
0.0
  0
LINE
  5
253
330
1F
100
AcDbEntity
  8
0
  6
Continuous
 62
     7
370
    25
100
AcDbLine
 10
138.2061178938
 20
87.2880132924
 30
0.0
 11
138.2061178938
 21
116.2880152519
 31
0.0
  0
LINE
  5
254
330
1F
100
AcDbEntity
  8
0
  6
Continuous
 62
     7
370
    25
100
AcDbLine
 10
133.5061184272
 20
87.5880146454
 30
0.0
 11
133.5061184272
 21
115.9880148302
 31
0.0
  0
LINE
  5
255
330
1F
100
AcDbEntity
  8
0
  6
Continuous
 62
     7
370
    25
100
AcDbLine
 10
110.0061192319
 20
144.4880148451
 30
0.0
 11
81.0061200664
 21
144.4880148451
 31
0.0
  0
LINE
  5
256
330
1F
100
AcDbEntity
  8
0
  6
Continuous
 62
     7
370
    25
100
AcDbLine
 10
81.0061200664
 20
140.0880148689
 30
0.0
 11
110.0061192319
 21
140.0880148689
 31
0.0
  0
LINE
  5
257
330
1F
100
AcDbEntity
  8
0
  6
Continuous
 62
     7
370
    25
100
AcDbLine
 10
109.7061178789
 20
139.7880153786
 30
0.0
 11
81.3061176941
 21
139.7880153786
 31
0.0
  0
LINE
  5
258
330
1F
100
AcDbEntity
  8
0
  6
Continuous
 62
     7
370
    25
100
AcDbLine
 10
145.5061185316
 20
87.7880143057
 30
0.0
 11
145.5061185316
 21
115.7880151699
 31
0.0
  0
LINE
  5
259
330
1F
100
AcDbEntity
  8
0
  6
Continuous
 62
     7
370
    25
100
AcDbLine
 10
109.5061182186
 20
151.7880154829
 30
0.0
 11
81.5061210797
 21
151.7880154829
 31
0.0
  0
LINE
  5
25A
330
1F
100
AcDbEntity
  8
0
  6
Continuous
 62
     7
370
    25
100
AcDbLine
 10
147.5061188594
 20
93.2380134295
 30
0.0
 11
147.5061188594
 21
110.3380141835
 31
0.0
  0
LINE
  5
25B
330
1F
100
AcDbEntity
  8
0
  6
Continuous
 62
     7
370
    25
100
AcDbLine
 10
147.7061185196
 20
110.5380157064
 30
0.0
 11
147.7061185196
 21
93.0380137692
 31
0.0
  0
LINE
  5
25C
330
1F
100
AcDbEntity
  8
0
  6
Continuous
 62
     7
370
    25
100
AcDbLine
 10
86.7561205432
 20
153.9880154709
 30
0.0
 11
104.2561187551
 21
153.9880154709
 31
0.0
  0
LINE
  5
25D
330
1F
100
AcDbEntity
  8
0
  6
Continuous
 62
     7
370
    25
100
AcDbLine
 10
104.0561190948
 20
153.7880158107
 30
0.0
 11
86.9561164782
 21
153.7880158107
 31
0.0
  0
LINE
  5
25E
330
1F
100
AcDbEntity
  8
0
  6
Continuous
 62
     7
370
    25
100
AcDbLine
 10
150.5061184198
 20
91.7880149613
 30
0.0
 11
150.5061184198
 21
111.7880145143
 31
0.0
  0
LINE
  5
25F
330
1F
100
AcDbEntity
  8
0
  6
Continuous
 62
     7
370
    25
100
AcDbLine
 10
155.506118308
 20
86.7880160044
 30
0.0
 11
155.506118308
 21
116.7880153339
 31
0.0
  0
LINE
  5
260
330
1F
100
AcDbEntity
  8
0
  6
Continuous
 62
     7
370
    25
100
AcDbLine
 10
148.00611801
 20
91.7880149613
 30
0.0
 11
148.00611801
 21
111.7880145143
 31
0.0
  0
LINE
  5
261
330
1F
100
AcDbEntity
  8
0
  6
Continuous
 62
     7
370
    25
100
AcDbLine
 10
105.506117563
 20
156.7880144398
 30
0.0
 11
85.5061217353
 21
156.7880144398
 31
0.0
  0
LINE
  5
262
330
1F
100
AcDbEntity
  8
0
  6
Continuous
 62
     7
370
    25
100
AcDbLine
 10
110.5061165199
 20
161.7880152593
 30
0.0
 11
80.5061190531
 21
161.7880152593
 31
0.0
  0
LINE
  5
263
330
1F
100
AcDbEntity
  8
0
  6
Continuous
 62
     7
370
    25
100
AcDbLine
 10
105.506117563
 20
154.2880149613
 30
0.0
 11
85.5061217353
 21
154.2880149613
 31
0.0
  0
LINE
  5
264
330
1F
100
AcDbEntity
  8
0
  6
Continuous
 62
     7
370
    25
100
AcDbLine
 10
99.5061203048
 20
153.4982552807
 30
0.0
 11
91.5061189935
 21
153.4982552807
 31
0.0
  0
LINE
  5
265
330
1F
100
AcDbEntity
  8
0
  6
Continuous
 62
     7
370
    25
100
AcDbLine
 10
99.5061203048
 20
153.2994104604
 30
0.0
 11
91.5061189935
 21
153.2994104604
 31
0.0
  0
LINE
  5
266
330
1F
100
AcDbEntity
  8
0
  6
Continuous
 62
     7
370
    25
100
AcDbLine
 10
98.9516182944
 20
152.9111458044
 30
0.0
 11
92.0606210038
 21
152.9111458044
 31
0.0
  0
LINE
  5
267
330
1F
100
AcDbEntity
  8
0
  6
Continuous
 62
     7
370
    25
100
AcDbLine
 10
99.5061203048
 20
152.5228811483
 30
0.0
 11
91.5061189935
 21
152.5228811483
 31
0.0
  0
LINE
  5
268
330
1F
100
AcDbEntity
  8
0
  6
Continuous
 62
     7
370
    25
100
AcDbLine
 10
99.5061203048
 20
152.3240381907
 30
0.0
 11
91.5061189935
 21
152.3240381907
 31
0.0
  0
LINE
  5
269
330
1F
100
AcDbEntity
  8
0
  6
Continuous
 62
     7
370
    25
100
AcDbLine
 10
98.9516182944
 20
151.935771672
 30
0.0
 11
92.0606210038
 21
151.935771672
 31
0.0
  0
LINE
  5
26A
330
1F
100
AcDbEntity
  8
0
  6
Continuous
 62
     7
370
    25
100
AcDbLine
 10
147.0175153718
 20
97.7880159448
 30
0.0
 11
147.0175153718
 21
105.7880153935
 31
0.0
  0
LINE
  5
26B
330
1F
100
AcDbEntity
  8
0
  6
Continuous
 62
     7
370
    25
100
AcDbLine
 10
147.2163583294
 20
97.7880159448
 30
0.0
 11
147.2163583294
 21
105.7880153935
 31
0.0
  0
LINE
  5
26C
330
1F
100
AcDbEntity
  8
0
  6
Continuous
 62
     7
370
    25
100
AcDbLine
 10
146.0421412394
 20
97.7880159448
 30
0.0
 11
146.0421412394
 21
105.7880153935
 31
0.0
  0
LINE
  5
26D
330
1F
100
AcDbEntity
  8
0
  6
Continuous
 62
     7
370
    25
100
AcDbLine
 10
145.6538765833
 20
98.3425142299
 30
0.0
 11
145.6538765833
 21
105.2335152458
 31
0.0
  0
LINE
  5
26E
330
1F
100
AcDbEntity
  8
0
  6
Continuous
 62
     7
370
    25
100
AcDbLine
 10
146.6292488531
 20
98.3425142299
 30
0.0
 11
146.6292488531
 21
105.2335152458
 31
0.0
  0
LINE
  5
26F
330
1F
100
AcDbEntity
  8
0
  6
Continuous
 62
     7
370
    25
100
AcDbLine
 10
146.240984197
 20
97.7880159448
 30
0.0
 11
146.240984197
 21
105.7880153935
 31
0.0
  0
LINE
  5
270
330
1F
100
AcDbEntity
  8
0
  6
Continuous
 62
     7
370
    25
100
AcDbLine
 10
215.6896584478
 20
227.6893525918
 30
0.0
 11
211.2896584716
 21
227.6893525918
 31
0.0
  0
LINE
  5
271
330
1F
100
AcDbEntity
  8
0
  6
Continuous
 62
     7
370
    25
100
AcDbLine
 10
211.2896584716
 20
198.6893529606
 30
0.0
 11
215.6896584478
 21
198.6893529606
 31
0.0
  0
LINE
  5
272
330
1F
100
AcDbEntity
  8
0
  6
Continuous
 62
     7
370
    25
100
AcDbLine
 10
211.2896584716
 20
227.6893525918
 30
0.0
 11
210.9896580499
 21
227.3893526357
 31
0.0
  0
LINE
  5
273
330
1F
100
AcDbEntity
  8
0
  6
Continuous
 62
     7
370
    25
100
AcDbLine
 10
210.9896580499
 20
198.9893524509
 30
0.0
 11
211.2896584716
 21
198.6893529606
 31
0.0
  0
LINE
  5
274
330
1F
100
AcDbEntity
  8
0
  6
Continuous
 62
     7
370
    25
100
AcDbLine
 10
215.6896584478
 20
198.6893529606
 30
0.0
 11
215.9896579382
 21
198.9893524509
 31
0.0
  0
LINE
  5
275
330
1F
100
AcDbEntity
  8
0
  6
Continuous
 62
     7
370
    25
100
AcDbLine
 10
215.9896579382
 20
227.3893526357
 30
0.0
 11
215.6896584478
 21
227.6893525918
 31
0.0
  0
LINE
  5
276
330
1F
100
AcDbEntity
  8
0
  6
Continuous
 62
     7
370
    25
100
AcDbLine
 10
203.9896578338
 20
199.1893521112
 30
0.0
 11
205.9896581617
 21
199.1893521112
 31
0.0
  0
LINE
  5
277
330
1F
100
AcDbEntity
  8
0
  6
Continuous
 62
     7
370
    25
100
AcDbLine
 10
205.9896581617
 20
227.1893525098
 30
0.0
 11
203.9896578338
 21
227.1893525098
 31
0.0
  0
LINE
  5
278
330
1F
100
AcDbEntity
  8
0
  6
Continuous
 62
     7
370
    25
100
AcDbLine
 10
201.4896583554
 20
204.4393534374
 30
0.0
 11
201.7896578458
 21
204.4393534374
 31
0.0
  0
LINE
  5
279
330
1F
100
AcDbEntity
  8
0
  6
Continuous
 62
     7
370
    25
100
AcDbLine
 10
201.7896578458
 20
221.9393525806
 30
0.0
 11
201.4896583554
 21
221.9393525806
 31
0.0
  0
LINE
  5
27A
330
1F
100
AcDbEntity
  8
0
  6
Continuous
 62
     7
370
    25
100
AcDbLine
 10
201.7896578458
 20
204.4393534374
 30
0.0
 11
201.989657506
 21
204.6393530977
 31
0.0
  0
LINE
  5
27B
330
1F
100
AcDbEntity
  8
0
  6
Continuous
 62
     7
370
    25
100
AcDbLine
 10
201.989657506
 20
221.7393525711
 30
0.0
 11
201.7896578458
 21
221.9393525806
 31
0.0
  0
LINE
  5
27C
330
1F
100
AcDbEntity
  8
0
  6
Continuous
 62
     7
370
    25
100
AcDbLine
 10
193.9896580574
 20
198.1893519473
 30
0.0
 11
198.9896588769
 21
203.1893527669
 31
0.0
  0
LINE
  5
27D
330
1F
100
AcDbEntity
  8
0
  6
Continuous
 62
     7
370
    25
100
AcDbLine
 10
198.9896588769
 20
223.1893525436
 30
0.0
 11
193.9896580574
 21
228.1893526737
 31
0.0
  0
LINE
  5
27E
330
1F
100
AcDbEntity
  8
0
  6
Continuous
 62
     7
370
    25
100
AcDbLine
 10
201.4896583554
 20
223.1893525436
 30
0.0
 11
198.9896588769
 21
223.1893525436
 31
0.0
  0
LINE
  5
27F
330
1F
100
AcDbEntity
  8
0
  6
Continuous
 62
     7
370
    25
100
AcDbLine
 10
198.9896588769
 20
203.1893527669
 30
0.0
 11
201.4896583554
 21
203.1893527669
 31
0.0
  0
LINE
  5
280
330
1F
100
AcDbEntity
  8
0
  6
Continuous
 62
     7
370
    25
100
AcDbLine
 10
202.4782628563
 20
217.1893527333
 30
0.0
 11
202.279418036
 21
217.1893527333
 31
0.0
  0
LINE
  5
281
330
1F
100
AcDbEntity
  8
0
  6
Continuous
 62
     7
370
    25
100
AcDbLine
 10
202.279418036
 20
209.189352819
 30
0.0
 11
202.4782628563
 21
209.189352819
 31
0.0
  0
LINE
  5
282
330
1F
100
AcDbEntity
  8
0
  6
Continuous
 62
     7
370
    25
100
AcDbLine
 10
202.4782628563
 20
209.189352819
 30
0.0
 11
202.8665275123
 21
209.7438529667
 31
0.0
  0
LINE
  5
283
330
1F
100
AcDbEntity
  8
0
  6
Continuous
 62
     7
370
    25
100
AcDbLine
 10
202.8665275123
 20
216.6348525856
 30
0.0
 11
202.4782628563
 21
217.1893527333
 31
0.0
  0
LINE
  5
284
330
1F
100
AcDbEntity
  8
0
  6
Continuous
 62
     7
370
    25
100
AcDbLine
 10
202.279418036
 20
217.1893527333
 30
0.0
 11
201.989657506
 21
216.7755321201
 31
0.0
  0
LINE
  5
285
330
1F
100
AcDbEntity
  8
0
  6
Continuous
 62
     7
370
    25
100
AcDbLine
 10
201.989657506
 20
209.6031729665
 30
0.0
 11
202.279418036
 21
209.189352819
 31
0.0
  0
LINE
  5
286
330
1F
100
AcDbEntity
  8
0
  6
Continuous
 62
     7
370
    25
100
AcDbLine
 10
203.2547921684
 20
217.1893527333
 30
0.0
 11
202.8665275123
 21
216.6348525856
 31
0.0
  0
LINE
  5
287
330
1F
100
AcDbEntity
  8
0
  6
Continuous
 62
     7
370
    25
100
AcDbLine
 10
202.8665275123
 20
209.7438529667
 30
0.0
 11
203.2547921684
 21
209.189352819
 31
0.0
  0
LINE
  5
288
330
1F
100
AcDbEntity
  8
0
  6
Continuous
 62
     7
370
    25
100
AcDbLine
 10
203.453635126
 20
217.1893527333
 30
0.0
 11
203.2547921684
 21
217.1893527333
 31
0.0
  0
LINE
  5
289
330
1F
100
AcDbEntity
  8
0
  6
Continuous
 62
     7
370
    25
100
AcDbLine
 10
203.2547921684
 20
209.189352819
 30
0.0
 11
203.453635126
 21
209.189352819
 31
0.0
  0
LINE
  5
28A
330
1F
100
AcDbEntity
  8
0
  6
Continuous
 62
     7
370
    25
100
AcDbLine
 10
203.9896578338
 20
216.8458716546
 30
0.0
 11
203.8419016447
 21
216.6348525856
 31
0.0
  0
LINE
  5
28B
330
1F
100
AcDbEntity
  8
0
  6
Continuous
 62
     7
370
    25
100
AcDbLine
 10
203.8419016447
 20
209.7438529667
 30
0.0
 11
203.9896578338
 21
209.5328329664
 31
0.0
  0
LINE
  5
28C
330
1F
100
AcDbEntity
  8
0
  6
Continuous
 62
     7
370
    25
100
AcDbLine
 10
203.453635126
 20
209.189352819
 30
0.0
 11
203.8419016447
 21
209.7438529667
 31
0.0
  0
LINE
  5
28D
330
1F
100
AcDbEntity
  8
0
  6
Continuous
 62
     7
370
    25
100
AcDbLine
 10
203.8419016447
 20
216.6348525856
 30
0.0
 11
203.453635126
 21
217.1893527333
 31
0.0
  0
LINE
  5
28E
330
1F
100
AcDbEntity
  8
0
  6
Continuous
 62
     7
370
    25
100
AcDbLine
 10
205.9896581617
 20
228.1893526737
 30
0.0
 11
210.489657968
 21
228.1893526737
 31
0.0
  0
LINE
  5
28F
330
1F
100
AcDbEntity
  8
0
  6
Continuous
 62
     7
370
    25
100
AcDbLine
 10
210.489657968
 20
228.1893526737
 30
0.0
 11
210.489657968
 21
227.6893525918
 31
0.0
  0
LINE
  5
290
330
1F
100
AcDbEntity
  8
0
  6
Continuous
 62
     7
370
    25
100
AcDbLine
 10
210.489657968
 20
227.6893525918
 30
0.0
 11
205.9896581617
 21
227.6893525918
 31
0.0
  0
LINE
  5
291
330
1F
100
AcDbEntity
  8
0
  6
Continuous
 62
     7
370
    25
100
AcDbLine
 10
205.9896581617
 20
227.6893525918
 30
0.0
 11
205.9896581617
 21
228.1893526737
 31
0.0
  0
LINE
  5
292
330
1F
100
AcDbEntity
  8
0
  6
Continuous
 62
     7
370
    25
100
AcDbLine
 10
210.489657968
 20
198.1893519473
 30
0.0
 11
205.9896581617
 21
198.1893519473
 31
0.0
  0
LINE
  5
293
330
1F
100
AcDbEntity
  8
0
  6
Continuous
 62
     7
370
    25
100
AcDbLine
 10
205.9896581617
 20
198.6893529606
 30
0.0
 11
210.489657968
 21
198.6893529606
 31
0.0
  0
LINE
  5
294
330
1F
100
AcDbEntity
  8
0
  6
Continuous
 62
     7
370
    25
100
AcDbLine
 10
210.489657968
 20
198.6893529606
 30
0.0
 11
210.489657968
 21
198.1893519473
 31
0.0
  0
LINE
  5
295
330
1F
100
AcDbEntity
  8
0
  6
Continuous
 62
     7
370
    25
100
AcDbLine
 10
205.9896581617
 20
198.1893519473
 30
0.0
 11
205.9896581617
 21
198.6893529606
 31
0.0
  0
LINE
  5
296
330
1F
100
AcDbEntity
  8
0
  6
Continuous
 62
     7
370
    25
100
AcDbLine
 10
210.489657968
 20
198.6893529606
 30
0.0
 11
210.489657968
 21
227.6893525918
 31
0.0
  0
LINE
  5
297
330
1F
100
AcDbEntity
  8
0
  6
Continuous
 62
     7
370
    25
100
AcDbLine
 10
205.9896581617
 20
227.6893525918
 30
0.0
 11
205.9896581617
 21
198.6893529606
 31
0.0
  0
LINE
  5
298
330
1F
100
AcDbEntity
  8
0
  6
Continuous
 62
     7
370
    25
100
AcDbLine
 10
210.489657968
 20
227.6893525918
 30
0.0
 11
210.9896580499
 21
227.6893525918
 31
0.0
  0
LINE
  5
299
330
1F
100
AcDbEntity
  8
0
  6
Continuous
 62
     7
370
    25
100
AcDbLine
 10
210.9896580499
 20
227.6893525918
 30
0.0
 11
210.9896580499
 21
198.6893529606
 31
0.0
  0
LINE
  5
29A
330
1F
100
AcDbEntity
  8
0
  6
Continuous
 62
     7
370
    25
100
AcDbLine
 10
210.489657968
 20
198.6893529606
 30
0.0
 11
210.9896580499
 21
198.6893529606
 31
0.0
  0
LINE
  5
29B
330
1F
100
AcDbEntity
  8
0
  6
Continuous
 62
     7
370
    25
100
AcDbLine
 10
210.9896580499
 20
198.6893529606
 30
0.0
 11
210.489657968
 21
198.1893519473
 31
0.0
  0
LINE
  5
29C
330
1F
100
AcDbEntity
  8
0
  6
Continuous
 62
     7
370
    25
100
AcDbLine
 10
210.489657968
 20
228.1893526737
 30
0.0
 11
210.9896580499
 21
227.6893525918
 31
0.0
  0
LINE
  5
29D
330
1F
100
AcDbEntity
  8
0
  6
Continuous
 62
     7
370
    25
100
AcDbLine
 10
210.9896580499
 20
198.6893529606
 30
0.0
 11
211.2896584716
 21
198.6893529606
 31
0.0
  0
LINE
  5
29E
330
1F
100
AcDbEntity
  8
0
  6
Continuous
 62
     7
370
    25
100
AcDbLine
 10
214.9896587056
 20
198.6893529606
 30
0.0
 11
214.9896587056
 21
198.1893519473
 31
0.0
  0
LINE
  5
29F
330
1F
100
AcDbEntity
  8
0
  6
Continuous
 62
     7
370
    25
100
AcDbLine
 10
214.9896587056
 20
198.1893519473
 30
0.0
 11
210.489657968
 21
198.1893519473
 31
0.0
  0
LINE
  5
2A0
330
1F
100
AcDbEntity
  8
0
  6
Continuous
 62
     7
370
    25
100
AcDbLine
 10
211.2896584716
 20
227.6893525918
 30
0.0
 11
210.9896580499
 21
227.6893525918
 31
0.0
  0
LINE
  5
2A1
330
1F
100
AcDbEntity
  8
0
  6
Continuous
 62
     7
370
    25
100
AcDbLine
 10
214.9896587056
 20
228.1893526737
 30
0.0
 11
214.9896587056
 21
227.6893525918
 31
0.0
  0
LINE
  5
2A2
330
1F
100
AcDbEntity
  8
0
  6
Continuous
 62
     7
370
    25
100
AcDbLine
 10
210.489657968
 20
228.1893526737
 30
0.0
 11
214.9896587056
 21
228.1893526737
 31
0.0
  0
LINE
  5
2A3
330
1F
100
AcDbEntity
  8
0
  6
Continuous
 62
     7
370
    25
100
AcDbLine
 10
214.9896587056
 20
198.6893529606
 30
0.0
 11
271.4896586534
 21
198.6893529606
 31
0.0
  0
LINE
  5
2A4
330
1F
100
AcDbEntity
  8
0
  6
Continuous
 62
     7
370
    25
100
AcDbLine
 10
271.4896586534
 20
198.6893529606
 30
0.0
 11
271.4896586534
 21
198.1893519473
 31
0.0
  0
LINE
  5
2A5
330
1F
100
AcDbEntity
  8
0
  6
Continuous
 62
     7
370
    25
100
AcDbLine
 10
271.4896586534
 20
198.1893519473
 30
0.0
 11
214.9896587056
 21
198.1893519473
 31
0.0
  0
LINE
  5
2A6
330
1F
100
AcDbEntity
  8
0
  6
Continuous
 62
     7
370
    25
100
AcDbLine
 10
271.4896586534
 20
227.6893525918
 30
0.0
 11
214.9896587056
 21
227.6893525918
 31
0.0
  0
LINE
  5
2A7
330
1F
100
AcDbEntity
  8
0
  6
Continuous
 62
     7
370
    25
100
AcDbLine
 10
271.4896586534
 20
198.6893529606
 30
0.0
 11
271.4896586534
 21
227.6893525918
 31
0.0
  0
LINE
  5
2A8
330
1F
100
AcDbEntity
  8
0
  6
Continuous
 62
     7
370
    25
100
AcDbLine
 10
271.4896586534
 20
228.1893526737
 30
0.0
 11
271.4896586534
 21
227.6893525918
 31
0.0
  0
LINE
  5
2A9
330
1F
100
AcDbEntity
  8
0
  6
Continuous
 62
     7
370
    25
100
AcDbLine
 10
214.9896587056
 20
228.1893526737
 30
0.0
 11
271.4896586534
 21
228.1893526737
 31
0.0
  0
LINE
  5
2AA
330
1F
100
AcDbEntity
  8
0
  6
Continuous
 62
     7
370
    25
100
AcDbLine
 10
271.4896586534
 20
198.6893529606
 30
0.0
 11
271.9896596667
 21
198.6893529606
 31
0.0
  0
LINE
  5
2AB
330
1F
100
AcDbEntity
  8
0
  6
Continuous
 62
     7
370
    25
100
AcDbLine
 10
271.4896586534
 20
198.1893519473
 30
0.0
 11
271.9896596667
 21
198.6893529606
 31
0.0
  0
LINE
  5
2AC
330
1F
100
AcDbEntity
  8
0
  6
Continuous
 62
     7
370
    25
100
AcDbLine
 10
271.4896586534
 20
228.1893526737
 30
0.0
 11
271.9896596667
 21
227.6893525918
 31
0.0
  0
LINE
  5
2AD
330
1F
100
AcDbEntity
  8
0
  6
Continuous
 62
     7
370
    25
100
AcDbLine
 10
271.4896586534
 20
227.6893525918
 30
0.0
 11
271.9896596667
 21
227.6893525918
 31
0.0
  0
LINE
  5
2AE
330
1F
100
AcDbEntity
  8
0
  6
Continuous
 62
     7
370
    25
100
AcDbLine
 10
271.9896596667
 20
227.6893525918
 30
0.0
 11
271.9896596667
 21
198.6893529606
 31
0.0
  0
CIRCLE
  5
2AF
330
1F
100
AcDbEntity
  8
0
  6
Continuous
 62
     7
370
    25
100
AcDbCircle
 10
253.9896583541
 20
213.1893525441
 30
0.0
 40
14.5
  0
CIRCLE
  5
2B0
330
1F
100
AcDbEntity
  8
0
  6
Continuous
 62
     7
370
    25
100
AcDbCircle
 10
253.9896583541
 20
213.1893525441
 30
0.0
 40
14.20000000000002
  0
LINE
  5
2B1
330
1F
100
AcDbEntity
  8
0
  6
Continuous
 62
     7
370
    25
100
AcDbLine
 10
255.4330334809
 20
215.6893524875
 30
0.0
 11
252.5462818142
 21
215.6893524875
 31
0.0
  0
LINE
  5
2B2
330
1F
100
AcDbEntity
  8
0
  6
Continuous
 62
     7
370
    25
100
AcDbLine
 10
252.5462818142
 20
215.6893524875
 30
0.0
 11
251.1029069122
 21
213.1893525433
 31
0.0
  0
LINE
  5
2B3
330
1F
100
AcDbEntity
  8
0
  6
Continuous
 62
     7
370
    25
100
AcDbLine
 10
251.1029069122
 20
213.1893525433
 30
0.0
 11
252.5462818142
 21
210.6893521336
 31
0.0
  0
LINE
  5
2B4
330
1F
100
AcDbEntity
  8
0
  6
Continuous
 62
     7
370
    25
100
AcDbLine
 10
252.5462818142
 20
210.6893521336
 30
0.0
 11
255.4330334809
 21
210.6893521336
 31
0.0
  0
LINE
  5
2B5
330
1F
100
AcDbEntity
  8
0
  6
Continuous
 62
     7
370
    25
100
AcDbLine
 10
255.4330334809
 20
210.6893521336
 30
0.0
 11
256.8764102456
 21
213.1893525433
 31
0.0
  0
LINE
  5
2B6
330
1F
100
AcDbEntity
  8
0
  6
Continuous
 62
     7
370
    25
100
AcDbLine
 10
256.8764102456
 20
213.1893525433
 30
0.0
 11
255.4330334809
 21
215.6893524875
 31
0.0
  0
LINE
  5
2B7
330
1F
100
AcDbEntity
  8
0
  6
Continuous
 62
     7
370
    25
100
AcDbLine
 10
215.6896584478
 20
213.1893525433
 30
0.0
 11
215.6896584478
 21
227.6893525918
 31
0.0
  0
LINE
  5
2B8
330
1F
100
AcDbEntity
  8
0
  6
Continuous
 62
     7
370
    25
100
AcDbLine
 10
215.6896584478
 20
198.6893529606
 30
0.0
 11
215.6896584478
 21
213.1893525433
 31
0.0
  0
LINE
  5
2B9
330
1F
100
AcDbEntity
  8
0
  6
Continuous
 62
     7
370
    25
100
AcDbLine
 10
211.2896584716
 20
213.1893525433
 30
0.0
 11
211.2896584716
 21
198.6893529606
 31
0.0
  0
LINE
  5
2BA
330
1F
100
AcDbEntity
  8
0
  6
Continuous
 62
     7
370
    25
100
AcDbLine
 10
211.2896584716
 20
227.6893525918
 30
0.0
 11
211.2896584716
 21
213.1893525433
 31
0.0
  0
LINE
  5
2BB
330
1F
100
AcDbEntity
  8
0
  6
Continuous
 62
     7
370
    25
100
AcDbLine
 10
215.9896579382
 20
213.1893525433
 30
0.0
 11
215.9896579382
 21
198.9893524509
 31
0.0
  0
LINE
  5
2BC
330
1F
100
AcDbEntity
  8
0
  6
Continuous
 62
     7
370
    25
100
AcDbLine
 10
215.9896579382
 20
227.3893526357
 30
0.0
 11
215.9896579382
 21
213.1893525433
 31
0.0
  0
LINE
  5
2BD
330
1F
100
AcDbEntity
  8
0
  6
Continuous
 62
     7
370
    25
100
AcDbLine
 10
203.9896578338
 20
227.1893525098
 30
0.0
 11
203.9896578338
 21
199.1893521112
 31
0.0
  0
LINE
  5
2BE
330
1F
100
AcDbEntity
  8
0
  6
Continuous
 62
     7
370
    25
100
AcDbLine
 10
201.7896578458
 20
204.4393534374
 30
0.0
 11
201.7896578458
 21
221.9393525806
 31
0.0
  0
LINE
  5
2BF
330
1F
100
AcDbEntity
  8
0
  6
Continuous
 62
     7
370
    25
100
AcDbLine
 10
201.989657506
 20
221.7393525711
 30
0.0
 11
201.989657506
 21
204.6393530977
 31
0.0
  0
LINE
  5
2C0
330
1F
100
AcDbEntity
  8
0
  6
Continuous
 62
     7
370
    25
100
AcDbLine
 10
198.9896588769
 20
223.1893525436
 30
0.0
 11
198.9896588769
 21
203.1893527669
 31
0.0
  0
LINE
  5
2C1
330
1F
100
AcDbEntity
  8
0
  6
Continuous
 62
     7
370
    25
100
AcDbLine
 10
193.9896580574
 20
228.1893526737
 30
0.0
 11
193.9896580574
 21
198.1893519473
 31
0.0
  0
LINE
  5
2C2
330
1F
100
AcDbEntity
  8
0
  6
Continuous
 62
     7
370
    25
100
AcDbLine
 10
201.4896583554
 20
223.1893525436
 30
0.0
 11
201.4896583554
 21
203.1893527669
 31
0.0
  0
LINE
  5
2C3
330
1F
100
AcDbEntity
  8
0
  6
Continuous
 62
     7
370
    25
100
AcDbLine
 10
202.4782628563
 20
217.1893527333
 30
0.0
 11
202.4782628563
 21
209.189352819
 31
0.0
  0
LINE
  5
2C4
330
1F
100
AcDbEntity
  8
0
  6
Continuous
 62
     7
370
    25
100
AcDbLine
 10
202.279418036
 20
217.1893527333
 30
0.0
 11
202.279418036
 21
209.189352819
 31
0.0
  0
LINE
  5
2C5
330
1F
100
AcDbEntity
  8
0
  6
Continuous
 62
     7
370
    25
100
AcDbLine
 10
202.8665275123
 20
216.6348525856
 30
0.0
 11
202.8665275123
 21
209.7438529667
 31
0.0
  0
LINE
  5
2C6
330
1F
100
AcDbEntity
  8
0
  6
Continuous
 62
     7
370
    25
100
AcDbLine
 10
203.2547921684
 20
217.1893527333
 30
0.0
 11
203.2547921684
 21
209.189352819
 31
0.0
  0
LINE
  5
2C7
330
1F
100
AcDbEntity
  8
0
  6
Continuous
 62
     7
370
    25
100
AcDbLine
 10
203.453635126
 20
217.1893527333
 30
0.0
 11
203.453635126
 21
209.189352819
 31
0.0
  0
LINE
  5
2C8
330
1F
100
AcDbEntity
  8
0
  6
Continuous
 62
     7
370
    25
100
AcDbLine
 10
203.8419016447
 20
216.6348525856
 30
0.0
 11
203.8419016447
 21
209.7438529667
 31
0.0
  0
LINE
  5
2C9
330
1F
100
AcDbEntity
  8
0
  6
Continuous
 62
     7
370
    25
100
AcDbLine
 10
252.8349582848
 20
215.1893528712
 30
0.0
 11
251.6802579906
 21
213.1893525433
 31
0.0
  0
LINE
  5
2CA
330
1F
100
AcDbEntity
  8
0
  6
Continuous
 62
     7
370
    25
100
AcDbLine
 10
252.8349582848
 20
211.1893522155
 30
0.0
 11
251.6802579906
 21
213.1893525433
 31
0.0
  0
LINE
  5
2CB
330
1F
100
AcDbEntity
  8
0
  6
Continuous
 62
     7
370
    25
100
AcDbLine
 10
255.144358873
 20
211.1893522155
 30
0.0
 11
252.8349582848
 21
211.1893522155
 31
0.0
  0
LINE
  5
2CC
330
1F
100
AcDbEntity
  8
0
  6
Continuous
 62
     7
370
    25
100
AcDbLine
 10
255.144358873
 20
211.1893522155
 30
0.0
 11
256.2990610298
 21
213.1893525433
 31
0.0
  0
LINE
  5
2CD
330
1F
100
AcDbEntity
  8
0
  6
Continuous
 62
     7
370
    25
100
AcDbLine
 10
255.144358873
 20
215.1893528712
 30
0.0
 11
256.2990610298
 21
213.1893525433
 31
0.0
  0
LINE
  5
2CE
330
1F
100
AcDbEntity
  8
0
  6
Continuous
 62
     7
370
    25
100
AcDbLine
 10
255.144358873
 20
215.1893528712
 30
0.0
 11
252.8349582848
 21
215.1893528712
 31
0.0
  0
DIMENSION
  5
2CF
330
1F
100
AcDbEntity
  8
0
  6
Continuous
 62
   102
370
    18
100
AcDbDimension
  2
_D
 10
281.9896583541
 20
198.1893525441
 30
0.0
 11
281.9896583541
 21
211.7879310705
 31
0.0
 70
   160
  1
<>
 71
     2
 42
-1.0
  3
SLDDIMSTYLE0
100
AcDbAlignedDimension
 13
271.4896583541
 23
228.1893525441
 33
0.0
 14
271.4896583541
 24
198.1893525441
 34
0.0
 50
90.0
100
AcDbRotatedDimension
  0
ENDSEC
  0
SECTION
  2
OBJECTS
  0
DICTIONARY
  5
C
330
0
100
AcDbDictionary
281
     1
  3
ACAD_GROUP
350
D
  3
ACAD_LAYOUT
350
1A
  3
ACAD_MLINESTYLE
350
17
  3
ACAD_PLOTSETTINGS
350
19
  3
ACAD_PLOTSTYLENAME
350
E
  3
ACAD_SCALELIST
350
47
  0
DICTIONARY
  5
D
102
{ACAD_REACTORS
330
C
102
}
330
C
100
AcDbDictionary
281
     1
  0
DICTIONARY
  5
1A
102
{ACAD_REACTORS
330
C
102
}
330
C
100
AcDbDictionary
281
     1
  3
Layout1
350
1E
  3
Layout2
350
26
  3
Model
350
22
  0
DICTIONARY
  5
17
102
{ACAD_REACTORS
330
C
102
}
330
C
100
AcDbDictionary
281
     1
  3
Standard
350
18
  0
DICTIONARY
  5
19
102
{ACAD_REACTORS
330
C
102
}
330
C
100
AcDbDictionary
281
     1
  0
ACDBDICTIONARYWDFLT
  5
E
102
{ACAD_REACTORS
330
C
102
}
330
C
100
AcDbDictionary
281
     1
  3
Normal
350
F
100
AcDbDictionaryWithDefault
340
F
  0
DICTIONARY
  5
47
102
{ACAD_REACTORS
330
C
102
}
330
C
100
AcDbDictionary
281
     1
  3
A0
350
48
  3
A1
350
49
  3
A2
350
4A
  3
A3
350
4B
  3
A4
350
4C
  3
A5
350
4D
  3
A6
350
4E
  3
A7
350
4F
  3
A8
350
50
  3
A9
350
51
  3
B0
350
52
  3
B1
350
53
  3
B2
350
54
  3
B3
350
55
  3
B4
350
56
  3
B5
350
57
  3
B6
350
58
  3
B7
350
59
  3
B8
350
5A
  3
B9
350
5B
  3
C0
350
5C
  3
C1
350
5D
  3
C2
350
5E
  3
C3
350
5F
  3
C4
350
60
  3
C5
350
61
  3
C6
350
62
  3
C7
350
63
  3
C8
350
64
  3
C9
350
65
  3
D0
350
66
  3
D1
350
67
  3
D2
350
68
  0
LAYOUT
  5
1E
102
{ACAD_REACTORS
330
1A
102
}
330
1A
100
AcDbPlotSettings
  1

  2
none_device
  4

  6

 40
0.0
 41
0.0
 42
0.0
 43
0.0
 44
0.0
 45
0.0
 46
0.0
 47
0.0
 48
0.0
 49
0.0
140
0.0
141
0.0
142
1.0
143
1.0
 70
   688
 72
     1
 73
     0
 74
     5
  7

 75
    16
147
1.0
148
0.0
149
0.0
100
AcDbLayout
  1
Layout1
 70
     1
 71
     1
 10
0.0
 20
0.0
 11
420.0
 21
297.0
 12
0.0
 22
0.0
 32
0.0
 14
1.0000000000E+20
 24
1.0000000000E+20
 34
1.0000000000E+20
 15
-1.0000000000E+20
 25
-1.0000000000E+20
 35
-1.0000000000E+20
146
0.0
 13
0.0
 23
0.0
 33
0.0
 16
1.0
 26
0.0
 36
0.0
 17
0.0
 27
1.0
 37
0.0
 76
     0
330
1B
  0
LAYOUT
  5
26
102
{ACAD_REACTORS
330
1A
102
}
330
1A
100
AcDbPlotSettings
  1

  2
none_device
  4

  6

 40
0.0
 41
0.0
 42
0.0
 43
0.0
 44
0.0
 45
0.0
 46
0.0
 47
0.0
 48
0.0
 49
0.0
140
0.0
141
0.0
142
1.0
143
1.0
 70
   688
 72
     1
 73
     0
 74
     5
  7

 75
    16
147
1.0
148
0.0
149
0.0
100
AcDbLayout
  1
Layout2
 70
     1
 71
     2
 10
0.0
 20
0.0
 11
0.0
 21
0.0
 12
0.0
 22
0.0
 32
0.0
 14
0.0
 24
0.0
 34
0.0
 15
0.0
 25
0.0
 35
0.0
146
0.0
 13
0.0
 23
0.0
 33
0.0
 16
1.0
 26
0.0
 36
0.0
 17
0.0
 27
1.0
 37
0.0
 76
     0
330
23
  0
LAYOUT
  5
22
102
{ACAD_REACTORS
330
1A
102
}
330
1A
100
AcDbPlotSettings
  1

  2
none_device
  4
Letter_(8.50_x_11.00_Inches)
  6

 40
6.35
 41
6.35
 42
6.35000508
 43
6.35000508
 44
215.9
 45
279.4
 46
0.0
 47
0.0
 48
0.0
 49
0.0
140
0.0
141
0.0
142
1.0
143
1.0
 70
  1712
 72
     1
 73
     0
 74
     0
  7

 75
     0
147
1.0
148
0.0
149
0.0
100
AcDbLayout
  1
Model
 70
     1
 71
     0
 10
0.0
 20
0.0
 11
431.8
 21
279.4
 12
0.0
 22
0.0
 32
0.0
 14
0.0
 24
0.0
 34
0.0
 15
431.8
 25
279.4
 35
0.0
146
0.0
 13
0.0
 23
0.0
 33
0.0
 16
1.0
 26
0.0
 36
0.0
 17
0.0
 27
1.0
 37
0.0
 76
     0
330
1F
331
29
  0
MLINESTYLE
  5
18
102
{ACAD_REACTORS
330
17
102
}
330
17
100
AcDbMlineStyle
  2
Standard
 70
     0
  3

 62
   256
 51
90.0
 52
90.0
 71
     2
 49
0.5
 62
   256
  6
BYLAYER
 49
-0.5
 62
   256
  6
BYLAYER
  0
ACDBPLACEHOLDER
  5
F
102
{ACAD_REACTORS
330
E
102
}
330
E
  0
SCALE
  5
48
102
{ACAD_REACTORS
330
47
102
}
330
47
100
AcDbScale
 70
     0
300
1:1
140
1.0
141
1.0
290
     1
  0
SCALE
  5
49
102
{ACAD_REACTORS
330
47
102
}
330
47
100
AcDbScale
 70
     0
300
1:2
140
1.0
141
2.0
290
     0
  0
SCALE
  5
4A
102
{ACAD_REACTORS
330
47
102
}
330
47
100
AcDbScale
 70
     0
300
1:4
140
1.0
141
4.0
290
     0
  0
SCALE
  5
4B
102
{ACAD_REACTORS
330
47
102
}
330
47
100
AcDbScale
 70
     0
300
1:5
140
1.0
141
5.0
290
     0
  0
SCALE
  5
4C
102
{ACAD_REACTORS
330
47
102
}
330
47
100
AcDbScale
 70
     0
300
1:8
140
1.0
141
8.0
290
     0
  0
SCALE
  5
4D
102
{ACAD_REACTORS
330
47
102
}
330
47
100
AcDbScale
 70
     0
300
1:10
140
1.0
141
10.0
290
     0
  0
SCALE
  5
4E
102
{ACAD_REACTORS
330
47
102
}
330
47
100
AcDbScale
 70
     0
300
1:16
140
1.0
141
16.0
290
     0
  0
SCALE
  5
4F
102
{ACAD_REACTORS
330
47
102
}
330
47
100
AcDbScale
 70
     0
300
1:20
140
1.0
141
20.0
290
     0
  0
SCALE
  5
50
102
{ACAD_REACTORS
330
47
102
}
330
47
100
AcDbScale
 70
     0
300
1:30
140
1.0
141
30.0
290
     0
  0
SCALE
  5
51
102
{ACAD_REACTORS
330
47
102
}
330
47
100
AcDbScale
 70
     0
300
1:40
140
1.0
141
40.0
290
     0
  0
SCALE
  5
52
102
{ACAD_REACTORS
330
47
102
}
330
47
100
AcDbScale
 70
     0
300
1:50
140
1.0
141
50.0
290
     0
  0
SCALE
  5
53
102
{ACAD_REACTORS
330
47
102
}
330
47
100
AcDbScale
 70
     0
300
1:100
140
1.0
141
100.0
290
     0
  0
SCALE
  5
54
102
{ACAD_REACTORS
330
47
102
}
330
47
100
AcDbScale
 70
     0
300
2:1
140
2.0
141
1.0
290
     0
  0
SCALE
  5
55
102
{ACAD_REACTORS
330
47
102
}
330
47
100
AcDbScale
 70
     0
300
4:1
140
4.0
141
1.0
290
     0
  0
SCALE
  5
56
102
{ACAD_REACTORS
330
47
102
}
330
47
100
AcDbScale
 70
     0
300
8:1
140
8.0
141
1.0
290
     0
  0
SCALE
  5
57
102
{ACAD_REACTORS
330
47
102
}
330
47
100
AcDbScale
 70
     0
300
10:1
140
10.0
141
1.0
290
     0
  0
SCALE
  5
58
102
{ACAD_REACTORS
330
47
102
}
330
47
100
AcDbScale
 70
     0
300
100:1
140
100.0
141
1.0
290
     0
  0
SCALE
  5
59
102
{ACAD_REACTORS
330
47
102
}
330
47
100
AcDbScale
 70
     0
300
1/128" = 1'-0"
140
0.0078125
141
12.0
290
     0
  0
SCALE
  5
5A
102
{ACAD_REACTORS
330
47
102
}
330
47
100
AcDbScale
 70
     0
300
1/64" = 1'-0"
140
0.015625
141
12.0
290
     0
  0
SCALE
  5
5B
102
{ACAD_REACTORS
330
47
102
}
330
47
100
AcDbScale
 70
     0
300
1/32" = 1'-0"
140
0.03125
141
12.0
290
     0
  0
SCALE
  5
5C
102
{ACAD_REACTORS
330
47
102
}
330
47
100
AcDbScale
 70
     0
300
1/16" = 1'-0"
140
0.0625
141
12.0
290
     0
  0
SCALE
  5
5D
102
{ACAD_REACTORS
330
47
102
}
330
47
100
AcDbScale
 70
     0
300
3/32" = 1'-0"
140
0.09375
141
12.0
290
     0
  0
SCALE
  5
5E
102
{ACAD_REACTORS
330
47
102
}
330
47
100
AcDbScale
 70
     0
300
1/8" = 1'-0"
140
0.125
141
12.0
290
     0
  0
SCALE
  5
5F
102
{ACAD_REACTORS
330
47
102
}
330
47
100
AcDbScale
 70
     0
300
3/16" = 1'-0"
140
0.1875
141
12.0
290
     0
  0
SCALE
  5
60
102
{ACAD_REACTORS
330
47
102
}
330
47
100
AcDbScale
 70
     0
300
1/4" = 1'-0"
140
0.25
141
12.0
290
     0
  0
SCALE
  5
61
102
{ACAD_REACTORS
330
47
102
}
330
47
100
AcDbScale
 70
     0
300
3/8" = 1'-0"
140
0.375
141
12.0
290
     0
  0
SCALE
  5
62
102
{ACAD_REACTORS
330
47
102
}
330
47
100
AcDbScale
 70
     0
300
1/2" = 1'-0"
140
0.5
141
12.0
290
     0
  0
SCALE
  5
63
102
{ACAD_REACTORS
330
47
102
}
330
47
100
AcDbScale
 70
     0
300
3/4" = 1'-0"
140
0.75
141
12.0
290
     0
  0
SCALE
  5
64
102
{ACAD_REACTORS
330
47
102
}
330
47
100
AcDbScale
 70
     0
300
1" = 1'-0"
140
1.0
141
12.0
290
     0
  0
SCALE
  5
65
102
{ACAD_REACTORS
330
47
102
}
330
47
100
AcDbScale
 70
     0
300
1-1/2" = 1'-0"
140
1.5
141
12.0
290
     0
  0
SCALE
  5
66
102
{ACAD_REACTORS
330
47
102
}
330
47
100
AcDbScale
 70
     0
300
3" = 1'-0"
140
3.0
141
12.0
290
     0
  0
SCALE
  5
67
102
{ACAD_REACTORS
330
47
102
}
330
47
100
AcDbScale
 70
     0
300
6" = 1'-0"
140
6.0
141
12.0
290
     0
  0
SCALE
  5
68
102
{ACAD_REACTORS
330
47
102
}
330
47
100
AcDbScale
 70
     0
300
1'-0" = 1'-0"
140
12.0
141
12.0
290
     0
  0
ENDSEC
  0
EOF
