  0
SECTION
  2
HEADER
  9
$ACADVER
  1
AC1015
  9
$ACADMAINTVER
 70
     6
  9
$DWGCODEPAGE
  3
ANSI_1252
  9
$INSBASE
 10
0.0
 20
0.0
 30
0.0
  9
$EXTMIN
 10
0.0
 20
0.0
 30
0.0
  9
$EXTMAX
 10
431.8
 20
279.4
 30
0.0
  9
$LIMMIN
 10
0.0
 20
0.0
  9
$LIMMAX
 10
431.8
 20
279.4
  9
$ORTHOMODE
 70
     0
  9
$REGENMODE
 70
     1
  9
$FILLMODE
 70
     1
  9
$QTEXTMODE
 70
     0
  9
$MIRRTEXT
 70
     1
  9
$LTSCALE
 40
1.0
  9
$ATTMODE
 70
     1
  9
$TEXTSIZE
 40
3.5
  9
$TRACEWID
 40
1.0
  9
$TEXTSTYLE
  7
Standard
  9
$CLAYER
  8
0
  9
$CELTYPE
  6
ByLayer
  9
$CECOLOR
 62
   256
  9
$CELTSCALE
 40
1.0
  9
$DISPSILH
 70
     0
  9
$DIMSCALE
 40
1.0
  9
$DIMASZ
 40
5.0
  9
$DIMEXO
 40
1.0
  9
$DIMDLI
 40
3.75
  9
$DIMRND
 40
0.0
  9
$DIMDLE
 40
0.0
  9
$DIMEXE
 40
1.0
  9
$DIMTP
 40
0.0
  9
$DIMTM
 40
0.0
  9
$DIMTXT
 40
3.0
  9
$DIMCEN
 40
2.5
  9
$DIMTSZ
 40
0.0
  9
$DIMTOL
 70
     0
  9
$DIMLIM
 70
     0
  9
$DIMTIH
 70
     1
  9
$DIMTOH
 70
     1
  9
$DIMSE1
 70
     0
  9
$DIMSE2
 70
     0
  9
$DIMTAD
 70
     1
  9
$DIMZIN
 70
     0
  9
$DIMBLK
  1

  9
$DIMASO
 70
     1
  9
$DIMSHO
 70
     1
  9
$DIMPOST
  1

  9
$DIMAPOST
  1

  9
$DIMALT
 70
     0
  9
$DIMALTD
 70
     3
  9
$DIMALTF
 40
0.0393700787
  9
$DIMLFAC
 40
1.0
  9
$DIMTOFL
 70
     1
  9
$DIMTVP
 40
0.0
  9
$DIMTIX
 70
     0
  9
$DIMSOXD
 70
     0
  9
$DIMSAH
 70
     0
  9
$DIMBLK1
  1

  9
$DIMBLK2
  1

  9
$DIMSTYLE
  2
ISO-25
  9
$DIMCLRD
 70
     0
  9
$DIMCLRE
 70
     0
  9
$DIMCLRT
 70
     0
  9
$DIMTFAC
 40
1.0
  9
$DIMGAP
 40
1.524
  9
$DIMJUST
 70
     0
  9
$DIMSD1
 70
     0
  9
$DIMSD2
 70
     0
  9
$DIMTOLJ
 70
     0
  9
$DIMTZIN
 70
     0
  9
$DIMALTZ
 70
     0
  9
$DIMALTTZ
 70
     0
  9
$DIMUPT
 70
     0
  9
$DIMDEC
 70
     2
  9
$DIMTDEC
 70
     2
  9
$DIMALTU
 70
     2
  9
$DIMALTTD
 70
     3
  9
$DIMTXSTY
  7
Standard
  9
$DIMAUNIT
 70
     0
  9
$DIMADEC
 70
     0
  9
$DIMALTRND
 40
0.0
  9
$DIMAZIN
 70
     0
  9
$DIMDSEP
 70
    44
  9
$DIMATFIT
 70
     3
  9
$DIMFRAC
 70
     0
  9
$DIMLDRBLK
  1

  9
$DIMLUNIT
 70
     2
  9
$DIMLWD
 70
    -2
  9
$DIMLWE
 70
    -2
  9
$DIMTMOVE
 70
     0
  9
$LUNITS
 70
     2
  9
$LUPREC
 70
     2
  9
$SKETCHINC
 40
1.0
  9
$FILLETRAD
 40
10.0
  9
$AUNITS
 70
     0
  9
$AUPREC
 70
     0
  9
$MENU
  1
.
  9
$ELEVATION
 40
0.0
  9
$PELEVATION
 40
0.0
  9
$THICKNESS
 40
0.0
  9
$LIMCHECK
 70
     0
  9
$CHAMFERA
 40
0.0
  9
$CHAMFERB
 40
0.0
  9
$CHAMFERC
 40
0.0
  9
$CHAMFERD
 40
0.0
  9
$SKPOLY
 70
     0
  9
$TDCREATE
 40
2459936.41595368
  9
$TDUCREATE
 40
2459936.374287014
  9
$TDUPDATE
 40
2459936.415958426
  9
$TDUUPDATE
 40
2459936.374291759
  9
$TDINDWG
 40
0.0000000116
  9
$TDUSRTIMER
 40
0.0000000116
  9
$USRTIMER
 70
     1
  9
$ANGBASE
 50
0.0
  9
$ANGDIR
 70
     0
  9
$PDMODE
 70
     0
  9
$PDSIZE
 40
-1.0
  9
$PLINEWID
 40
0.0
  9
$SPLFRAME
 70
     0
  9
$SPLINETYPE
 70
     6
  9
$SPLINESEGS
 70
     8
  9
$HANDSEED
  5
27A
  9
$SURFTAB1
 70
     6
  9
$SURFTAB2
 70
     6
  9
$SURFTYPE
 70
     6
  9
$SURFU
 70
     6
  9
$SURFV
 70
     6
  9
$UCSBASE
  2

  9
$UCSNAME
  2

  9
$UCSORG
 10
0.0
 20
0.0
 30
0.0
  9
$UCSXDIR
 10
1.0
 20
0.0
 30
0.0
  9
$UCSYDIR
 10
0.0
 20
1.0
 30
0.0
  9
$UCSORTHOREF
  2

  9
$UCSORTHOVIEW
 70
     0
  9
$UCSORGTOP
 10
0.0
 20
0.0
 30
0.0
  9
$UCSORGBOTTOM
 10
0.0
 20
0.0
 30
0.0
  9
$UCSORGLEFT
 10
0.0
 20
0.0
 30
0.0
  9
$UCSORGRIGHT
 10
0.0
 20
0.0
 30
0.0
  9
$UCSORGFRONT
 10
0.0
 20
0.0
 30
0.0
  9
$UCSORGBACK
 10
0.0
 20
0.0
 30
0.0
  9
$PUCSBASE
  2

  9
$PUCSNAME
  2

  9
$PUCSORG
 10
0.0
 20
0.0
 30
0.0
  9
$PUCSXDIR
 10
1.0
 20
0.0
 30
0.0
  9
$PUCSYDIR
 10
0.0
 20
1.0
 30
0.0
  9
$PUCSORTHOREF
  2

  9
$PUCSORTHOVIEW
 70
     0
  9
$PUCSORGTOP
 10
0.0
 20
0.0
 30
0.0
  9
$PUCSORGBOTTOM
 10
0.0
 20
0.0
 30
0.0
  9
$PUCSORGLEFT
 10
0.0
 20
0.0
 30
0.0
  9
$PUCSORGRIGHT
 10
0.0
 20
0.0
 30
0.0
  9
$PUCSORGFRONT
 10
0.0
 20
0.0
 30
0.0
  9
$PUCSORGBACK
 10
0.0
 20
0.0
 30
0.0
  9
$USERI1
 70
     0
  9
$USERI2
 70
     0
  9
$USERI3
 70
     0
  9
$USERI4
 70
     0
  9
$USERI5
 70
     0
  9
$USERR1
 40
0.0
  9
$USERR2
 40
0.0
  9
$USERR3
 40
0.0
  9
$USERR4
 40
0.0
  9
$USERR5
 40
0.0
  9
$WORLDVIEW
 70
     1
  9
$SHADEDGE
 70
     3
  9
$SHADEDIF
 70
    70
  9
$TILEMODE
 70
     1
  9
$MAXACTVP
 70
    64
  9
$PINSBASE
 10
0.0
 20
0.0
 30
0.0
  9
$PLIMCHECK
 70
     0
  9
$PEXTMIN
 10
1.0000000000E+20
 20
1.0000000000E+20
 30
1.0000000000E+20
  9
$PEXTMAX
 10
-1.0000000000E+20
 20
-1.0000000000E+20
 30
-1.0000000000E+20
  9
$PLIMMIN
 10
0.0
 20
0.0
  9
$PLIMMAX
 10
420.0
 20
297.0
  9
$UNITMODE
 70
     0
  9
$VISRETAIN
 70
     1
  9
$PLINEGEN
 70
     0
  9
$PSLTSCALE
 70
     1
  9
$TREEDEPTH
 70
  3020
  9
$CMLSTYLE
  2
Standard
  9
$CMLJUST
 70
     0
  9
$CMLSCALE
 40
20.0
  9
$PROXYGRAPHICS
 70
     1
  9
$MEASUREMENT
 70
     1
  9
$CELWEIGHT
370
    -1
  9
$ENDCAPS
280
     0
  9
$JOINSTYLE
280
     0
  9
$LWDISPLAY
290
     1
  9
$INSUNITS
 70
     4
  9
$HYPERLINKBASE
  1

  9
$STYLESHEET
  1

  9
$XEDIT
290
     1
  9
$CEPSNTYPE
380
     0
  9
$PSTYLEMODE
290
     1
  9
$FINGERPRINTGUID
  2
{16bd3392-3aa5-4f1c-a82e-f787bb31219c}
  9
$VERSIONGUID
  2
{FAEB1C32-E019-11D5-929B-00C0DF256EC4}
  9
$EXTNAMES
290
     1
  9
$PSVPSCALE
 40
0.0
  9
$OLESTARTUP
290
     0
  0
ENDSEC
  0
SECTION
  2
CLASSES
  0
CLASS
  1
ACDBDICTIONARYWDFLT
  2
AcDbDictionaryWithDefault
  3
ObjectDBX Classes
 90
        0
280
     0
281
     0
  0
CLASS
  1
VISUALSTYLE
  2
AcDbVisualStyle
  3
ObjectDBX Classes
 90
     4095
280
     0
281
     0
  0
CLASS
  1
MATERIAL
  2
AcDbMaterial
  3
ObjectDBX Classes
 90
     1153
280
     0
281
     0
  0
CLASS
  1
SCALE
  2
AcDbScale
  3
ObjectDBX Classes
 90
     1153
280
     0
281
     0
  0
CLASS
  1
TABLESTYLE
  2
AcDbTableStyle
  3
ObjectDBX Classes
 90
     4095
280
     0
281
     0
  0
CLASS
  1
MLEADERSTYLE
  2
AcDbMLeaderStyle
  3
ACDB_MLEADERSTYLE_CLASS
 90
     4095
280
     0
281
     0
  0
CLASS
  1
SUN
  2
AcDbSun
  3
SCENEOE
 90
     1153
280
     0
281
     0
  0
CLASS
  1
ACDBPLACEHOLDER
  2
AcDbPlaceHolder
  3
ObjectDBX Classes
 90
        0
280
     0
281
     0
  0
CLASS
  1
LAYOUT
  2
AcDbLayout
  3
ObjectDBX Classes
 90
        0
280
     0
281
     0
  0
ENDSEC
  0
SECTION
  2
TABLES
  0
TABLE
  2
VPORT
  5
8
330
0
100
AcDbSymbolTable
 70
     1
  0
VPORT
  5
29
330
8
100
AcDbSymbolTableRecord
100
AcDbViewportTableRecord
  2
*Active
 70
     0
 10
0.0
 20
0.0
 11
1.0
 21
1.0
 12
215.9
 22
139.7
 13
0.0
 23
0.0
 14
10.0
 24
10.0
 15
10.0
 25
10.0
 16
0.0
 26
0.0
 36
1.0
 17
0.0
 27
0.0
 37
0.0
 40
279.4
 41
1.5454545455
 42
50.0
 43
0.0
 44
0.0
 50
0.0
 51
0.0
 71
     0
 72
  2000
 73
     1
 74
     3
 75
     0
 76
     0
 77
     0
 78
     0
281
     0
 65
     1
110
0.0
120
0.0
130
0.0
111
1.0
121
0.0
131
0.0
112
0.0
122
1.0
132
0.0
 79
     0
146
0.0
  0
ENDTAB
  0
TABLE
  2
LTYPE
  5
5
330
0
100
AcDbSymbolTable
 70
     6
  0
LTYPE
  5
14
330
5
100
AcDbSymbolTableRecord
100
AcDbLinetypeTableRecord
  2
ByBlock
 70
     0
  3

 72
    65
 73
     0
 40
0.0
  0
LTYPE
  5
15
330
5
100
AcDbSymbolTableRecord
100
AcDbLinetypeTableRecord
  2
ByLayer
 70
     0
  3

 72
    65
 73
     0
 40
0.0
  0
LTYPE
  5
16
330
5
100
AcDbSymbolTableRecord
100
AcDbLinetypeTableRecord
  2
Continuous
 70
     0
  3
Solid line
 72
    65
 73
     0
 40
0.0
  0
LTYPE
  5
6E
330
5
100
AcDbSymbolTableRecord
100
AcDbLinetypeTableRecord
  2
HIDDEN
 70
     0
  3
Hidden __ __ __ __ __ __ __ __ __ __ __ __ __ __
 72
    65
 73
     2
 40
1.905
 49
1.27
 74
     0
 49
-0.635
 74
     0
  0
LTYPE
  5
6F
330
5
100
AcDbSymbolTableRecord
100
AcDbLinetypeTableRecord
  2
PHANTOM
 70
     0
  3
Phantom ______  __  __  ______  __  __  ______
 72
    65
 73
     6
 40
12.7
 49
6.35
 74
     0
 49
-1.27
 74
     0
 49
1.27
 74
     0
 49
-1.27
 74
     0
 49
1.27
 74
     0
 49
-1.27
 74
     0
  0
LTYPE
  5
70
330
5
100
AcDbSymbolTableRecord
100
AcDbLinetypeTableRecord
  2
CENTER
 70
     0
  3
Center ____ _ ____ _ ____ _ ____ _ ____ _ ____
 72
    65
 73
     4
 40
10.16
 49
6.35
 74
     0
 49
-1.27
 74
     0
 49
1.27
 74
     0
 49
-1.27
 74
     0
  0
LTYPE
  5
71
330
5
100
AcDbSymbolTableRecord
100
AcDbLinetypeTableRecord
  2
CENTERX2
 70
     0
  3
Center (2x) ________  __  ________  __  _____
 72
    65
 73
     4
 40
20.32
 49
12.7
 74
     0
 49
-2.54
 74
     0
 49
2.54
 74
     0
 49
-2.54
 74
     0
  0
LTYPE
  5
72
330
5
100
AcDbSymbolTableRecord
100
AcDbLinetypeTableRecord
  2
DOT2
 70
     0
  3
Dot (.5x) ........................................
 72
    65
 73
     2
 40
0.635
 49
0.0
 74
     0
 49
-0.635
 74
     0
  0
ENDTAB
  0
TABLE
  2
LAYER
  5
2
330
0
100
AcDbSymbolTable
 70
     1
  0
LAYER
  5
10
330
2
100
AcDbSymbolTableRecord
100
AcDbLayerTableRecord
  2
0
 70
     0
 62
     7
  6
Continuous
370
    -3
390
F
  0
ENDTAB
  0
TABLE
  2
STYLE
  5
3
330
0
100
AcDbSymbolTable
 70
     3
  0
STYLE
  5
11
330
3
100
AcDbSymbolTableRecord
100
AcDbTextStyleTableRecord
  2
Standard
 70
     0
 40
0.0
 41
1.0
 50
0.0
 71
     0
 42
3.5
  3
txt
  4

  0
STYLE
  5
94
330
3
100
AcDbSymbolTableRecord
100
AcDbTextStyleTableRecord
  2
SLDTEXTSTYLE0
 70
     0
 40
0.0
 41
0.605
 50
0.0
 71
     0
 42
3.5
  3
TXT
  4

  0
STYLE
  5
176
330
3
100
AcDbSymbolTableRecord
100
AcDbTextStyleTableRecord
  2
SLDTEXTSTYLE1
 70
     0
 40
0.0
 41
0.75
 50
0.0
 71
     0
 42
3.5
  3
TXT
  4

  0
ENDTAB
  0
TABLE
  2
VIEW
  5
6
330
0
100
AcDbSymbolTable
 70
     0
  0
ENDTAB
  0
TABLE
  2
UCS
  5
7
330
0
100
AcDbSymbolTable
 70
     0
  0
ENDTAB
  0
TABLE
  2
APPID
  5
9
330
0
100
AcDbSymbolTable
 70
     1
  0
APPID
  5
12
330
9
100
AcDbSymbolTableRecord
100
AcDbRegAppTableRecord
  2
ACAD
 70
     0
  0
ENDTAB
  0
TABLE
  2
DIMSTYLE
  5
A
330
0
100
AcDbSymbolTable
 70
     2
100
AcDbDimStyleTable
  0
DIMSTYLE
105
27
330
A
100
AcDbSymbolTableRecord
100
AcDbDimStyleTableRecord
  2
ISO-25
 70
     0
 41
2.5
 42
0.625
 43
3.75
 44
1.25
 73
     0
 74
     0
 77
     1
 78
     8
140
2.5
141
2.5
143
0.0393700787
147
0.625
171
     3
172
     1
178
     0
271
     2
272
     2
274
     3
278
    44
283
     0
284
     8
340
11
  0
DIMSTYLE
105
1A8
102
{ACAD_REACTORS
330
1A7
330
21E
330
235
330
24C
330
262
102
}
330
A
100
AcDbSymbolTableRecord
100
AcDbDimStyleTableRecord
  2
SLDDIMSTYLE0
 70
     0
 41
5.0
 44
0.0
 45
0.000000001
 73
     0
 74
     0
 77
     1
 78
    12
 79
     3
140
3.0
143
0.0393700787
147
0.75
148
0.000000001
170
     1
171
     3
173
     1
178
     0
271
     2
272
     2
274
     3
276
     2
284
    12
340
176
  0
ENDTAB
  0
TABLE
  2
BLOCK_RECORD
  5
1
330
0
100
AcDbSymbolTable
 70
    31
  0
BLOCK_RECORD
  5
1F
330
1
100
AcDbSymbolTableRecord
100
AcDbBlockTableRecord
  2
*Model_Space
340
22
  0
BLOCK_RECORD
  5
1B
330
1
100
AcDbSymbolTableRecord
100
AcDbBlockTableRecord
  2
*Paper_Space
340
1E
  0
BLOCK_RECORD
  5
23
330
1
100
AcDbSymbolTableRecord
100
AcDbBlockTableRecord
  2
*Paper_Space0
340
26
  0
BLOCK_RECORD
  5
73
330
1
100
AcDbSymbolTableRecord
100
AcDbBlockTableRecord
  2
Block5
340
0
102
{BLKREFS
331
175
102
}
  0
BLOCK_RECORD
  5
8A
330
1
100
AcDbSymbolTableRecord
100
AcDbBlockTableRecord
  2
SW_BLOCK_DIMENSION_0
340
0
102
{BLKREFS
331
96
102
}
  0
BLOCK_RECORD
  5
8D
330
1
100
AcDbSymbolTableRecord
100
AcDbBlockTableRecord
  2
_Origin
340
0
102
{BLKREFS
331
92
331
102
102
}
  0
BLOCK_RECORD
  5
97
330
1
100
AcDbSymbolTableRecord
100
AcDbBlockTableRecord
  2
SW_BLOCK_DIMENSION_1
340
0
102
{BLKREFS
331
9E
102
}
  0
BLOCK_RECORD
  5
9F
330
1
100
AcDbSymbolTableRecord
100
AcDbBlockTableRecord
  2
SW_BLOCK_DIMENSION_2
340
0
102
{BLKREFS
331
A6
102
}
  0
BLOCK_RECORD
  5
A7
330
1
100
AcDbSymbolTableRecord
100
AcDbBlockTableRecord
  2
SW_BLOCK_DIMENSION_3
340
0
102
{BLKREFS
331
AE
102
}
  0
BLOCK_RECORD
  5
AF
330
1
100
AcDbSymbolTableRecord
100
AcDbBlockTableRecord
  2
SW_BLOCK_DIMENSION_4
340
0
102
{BLKREFS
331
B6
102
}
  0
BLOCK_RECORD
  5
B7
330
1
100
AcDbSymbolTableRecord
100
AcDbBlockTableRecord
  2
SW_BLOCK_DIMENSION_5
340
0
102
{BLKREFS
331
BE
102
}
  0
BLOCK_RECORD
  5
BF
330
1
100
AcDbSymbolTableRecord
100
AcDbBlockTableRecord
  2
SW_BLOCK_DIMENSION_6
340
0
102
{BLKREFS
331
C6
102
}
  0
BLOCK_RECORD
  5
C7
330
1
100
AcDbSymbolTableRecord
100
AcDbBlockTableRecord
  2
SW_BLOCK_DIMENSION_7
340
0
102
{BLKREFS
331
CE
102
}
  0
BLOCK_RECORD
  5
CF
330
1
100
AcDbSymbolTableRecord
100
AcDbBlockTableRecord
  2
SW_BLOCK_DIMENSION_8
340
0
102
{BLKREFS
331
D6
102
}
  0
BLOCK_RECORD
  5
D7
330
1
100
AcDbSymbolTableRecord
100
AcDbBlockTableRecord
  2
SW_BLOCK_DIMENSION_9
340
0
102
{BLKREFS
331
DE
102
}
  0
BLOCK_RECORD
  5
DF
330
1
100
AcDbSymbolTableRecord
100
AcDbBlockTableRecord
  2
SW_BLOCK_DIMENSION_10
340
0
102
{BLKREFS
331
E6
102
}
  0
BLOCK_RECORD
  5
E7
330
1
100
AcDbSymbolTableRecord
100
AcDbBlockTableRecord
  2
SW_BLOCK_DIMENSION_11
340
0
102
{BLKREFS
331
EE
102
}
  0
BLOCK_RECORD
  5
EF
330
1
100
AcDbSymbolTableRecord
100
AcDbBlockTableRecord
  2
SW_BLOCK_DIMENSION_12
340
0
102
{BLKREFS
331
F6
102
}
  0
BLOCK_RECORD
  5
F7
330
1
100
AcDbSymbolTableRecord
100
AcDbBlockTableRecord
  2
SW_BLOCK_DIMENSION_13
340
0
102
{BLKREFS
331
FE
102
}
  0
BLOCK_RECORD
  5
FF
330
1
100
AcDbSymbolTableRecord
100
AcDbBlockTableRecord
  2
SW_BLOCK_DIMENSION_14
340
0
102
{BLKREFS
331
10E
102
}
  0
BLOCK_RECORD
  5
10F
330
1
100
AcDbSymbolTableRecord
100
AcDbBlockTableRecord
  2
SW_BLOCK_DIMENSION_15
340
0
102
{BLKREFS
331
11F
102
}
  0
BLOCK_RECORD
  5
120
330
1
100
AcDbSymbolTableRecord
100
AcDbBlockTableRecord
  2
SW_BLOCK_DIMENSION_16
340
0
102
{BLKREFS
331
130
102
}
  0
BLOCK_RECORD
  5
131
330
1
100
AcDbSymbolTableRecord
100
AcDbBlockTableRecord
  2
SW_BLOCK_DIMENSION_17
340
0
102
{BLKREFS
331
141
102
}
  0
BLOCK_RECORD
  5
142
330
1
100
AcDbSymbolTableRecord
100
AcDbBlockTableRecord
  2
SW_BLOCK_DIMENSION_18
340
0
102
{BLKREFS
331
152
102
}
  0
BLOCK_RECORD
  5
153
330
1
100
AcDbSymbolTableRecord
100
AcDbBlockTableRecord
  2
SW_BLOCK_DIMENSION_19
340
0
102
{BLKREFS
331
163
102
}
  0
BLOCK_RECORD
  5
164
330
1
100
AcDbSymbolTableRecord
100
AcDbBlockTableRecord
  2
SW_NOTE_0
340
0
102
{BLKREFS
331
169
102
}
  0
BLOCK_RECORD
  5
16A
330
1
100
AcDbSymbolTableRecord
100
AcDbBlockTableRecord
  2
SW_NOTE_0_1
340
0
102
{BLKREFS
331
16E
102
}
  0
BLOCK_RECORD
  5
179
330
1
100
AcDbSymbolTableRecord
100
AcDbBlockTableRecord
  2
SW_NOTE_0_2
340
0
102
{BLKREFS
331
180
102
}
  0
BLOCK_RECORD
  5
1A9
330
1
100
AcDbSymbolTableRecord
100
AcDbBlockTableRecord
  2
_D
340
0
  0
BLOCK_RECORD
  5
21F
330
1
100
AcDbSymbolTableRecord
100
AcDbBlockTableRecord
  2
_D_1
340
0
  0
BLOCK_RECORD
  5
236
330
1
100
AcDbSymbolTableRecord
100
AcDbBlockTableRecord
  2
_D_2
340
0
  0
BLOCK_RECORD
  5
24D
330
1
100
AcDbSymbolTableRecord
100
AcDbBlockTableRecord
  2
_D_3
340
0
  0
BLOCK_RECORD
  5
263
330
1
100
AcDbSymbolTableRecord
100
AcDbBlockTableRecord
  2
_D_4
340
0
  0
ENDTAB
  0
ENDSEC
  0
SECTION
  2
BLOCKS
  0
BLOCK
  5
20
330
1F
100
AcDbEntity
  8
0
100
AcDbBlockBegin
  2
*Model_Space
 70
     0
 10
0.0
 20
0.0
 30
0.0
  3
*Model_Space
  1

  0
ENDBLK
  5
21
330
1F
100
AcDbEntity
  8
0
100
AcDbBlockEnd
  0
BLOCK
  5
1C
330
1B
100
AcDbEntity
 67
     1
  8
0
100
AcDbBlockBegin
  2
*Paper_Space
 70
     0
 10
0.0
 20
0.0
 30
0.0
  3
*Paper_Space
  1

  0
ENDBLK
  5
1D
330
1B
100
AcDbEntity
 67
     1
  8
0
100
AcDbBlockEnd
  0
BLOCK
  5
24
330
23
100
AcDbEntity
  8
0
100
AcDbBlockBegin
  2
*Paper_Space0
 70
     0
 10
0.0
 20
0.0
 30
0.0
  3
*Paper_Space0
  1

  0
ENDBLK
  5
25
330
23
100
AcDbEntity
  8
0
100
AcDbBlockEnd
  0
BLOCK
  5
74
330
73
100
AcDbEntity
  8
0
100
AcDbBlockBegin
  2
Block5
 70
     0
 10
0.0
 20
0.0
 30
0.0
  3
Block5
  1

  0
LINE
  5
76
330
73
100
AcDbEntity
  8
0
100
AcDbLine
 10
363.6834285714
 20
41.3579706949
 30
0.0
 11
388.6834285714
 21
41.3579706949
 31
0.0
  0
LINE
  5
77
330
73
100
AcDbEntity
  8
0
100
AcDbLine
 10
374.9034285714
 20
41.3579706949
 30
0.0
 11
374.9034285714
 21
171.3579706949
 31
0.0
  0
LINE
  5
78
330
73
100
AcDbEntity
  8
0
100
AcDbLine
 10
374.9034285714
 20
51.3579706949
 30
0.0
 11
384.9034285714
 21
51.3579706949
 31
0.0
  0
LINE
  5
79
330
73
100
AcDbEntity
  8
0
100
AcDbLine
 10
374.9034285714
 20
61.3579706949
 30
0.0
 11
384.9034285714
 21
61.3579706949
 31
0.0
  0
LINE
  5
7A
330
73
100
AcDbEntity
  8
0
100
AcDbLine
 10
374.9034285714
 20
71.3579706949
 30
0.0
 11
384.9034285714
 21
71.3579706949
 31
0.0
  0
LINE
  5
7B
330
73
100
AcDbEntity
  8
0
100
AcDbLine
 10
374.9034285714
 20
81.3579706949
 30
0.0
 11
384.9034285714
 21
81.3579706949
 31
0.0
  0
LINE
  5
7C
330
73
100
AcDbEntity
  8
0
100
AcDbLine
 10
374.9034285714
 20
91.3579706949
 30
0.0
 11
384.9034285714
 21
91.3579706949
 31
0.0
  0
LINE
  5
7D
330
73
100
AcDbEntity
  8
0
100
AcDbLine
 10
374.9034285714
 20
101.3579706949
 30
0.0
 11
384.9034285714
 21
101.3579706949
 31
0.0
  0
LINE
  5
7E
330
73
100
AcDbEntity
  8
0
100
AcDbLine
 10
374.9034285714
 20
111.3579706949
 30
0.0
 11
384.9034285714
 21
111.3579706949
 31
0.0
  0
LINE
  5
7F
330
73
100
AcDbEntity
  8
0
100
AcDbLine
 10
374.9034285714
 20
121.3579706949
 30
0.0
 11
384.9034285714
 21
121.3579706949
 31
0.0
  0
LINE
  5
80
330
73
100
AcDbEntity
  8
0
100
AcDbLine
 10
374.9034285714
 20
131.3579706949
 30
0.0
 11
384.9034285714
 21
131.3579706949
 31
0.0
  0
LINE
  5
81
330
73
100
AcDbEntity
  8
0
100
AcDbLine
 10
374.9034285714
 20
141.3579706949
 30
0.0
 11
384.9034285714
 21
141.3579706949
 31
0.0
  0
LINE
  5
82
330
73
100
AcDbEntity
  8
0
100
AcDbLine
 10
374.9034285714
 20
151.3579706949
 30
0.0
 11
384.9034285714
 21
151.3579706949
 31
0.0
  0
LINE
  5
83
330
73
100
AcDbEntity
  8
0
100
AcDbLine
 10
374.9034285714
 20
161.3579706949
 30
0.0
 11
384.9034285714
 21
161.3579706949
 31
0.0
  0
LINE
  5
84
330
73
100
AcDbEntity
  8
0
100
AcDbLine
 10
374.9034285714
 20
171.3579706949
 30
0.0
 11
384.9034285714
 21
171.3579706949
 31
0.0
  0
LINE
  5
85
330
73
100
AcDbEntity
  8
0
100
AcDbLine
 10
374.9034285714
 20
66.7579706949
 30
0.0
 11
362.9034285714
 21
66.7579706949
 31
0.0
  0
LINE
  5
86
330
73
100
AcDbEntity
  8
0
100
AcDbLine
 10
374.9034285714
 20
92.1579706949
 30
0.0
 11
362.9034285714
 21
92.1579706949
 31
0.0
  0
LINE
  5
87
330
73
100
AcDbEntity
  8
0
100
AcDbLine
 10
374.9034285714
 20
117.5579706949
 30
0.0
 11
362.9034285714
 21
117.5579706949
 31
0.0
  0
LINE
  5
88
330
73
100
AcDbEntity
  8
0
100
AcDbLine
 10
374.9034285714
 20
142.9579706949
 30
0.0
 11
362.9034285714
 21
142.9579706949
 31
0.0
  0
LINE
  5
89
330
73
100
AcDbEntity
  8
0
100
AcDbLine
 10
374.9034285714
 20
168.3579706949
 30
0.0
 11
362.9034285714
 21
168.3579706949
 31
0.0
  0
INSERT
  5
96
330
73
100
AcDbEntity
  8
0
100
AcDbBlockReference
  2
SW_BLOCK_DIMENSION_0
 10
397.2096946378
 20
38.9914197296
 30
0.0
  0
INSERT
  5
9E
330
73
100
AcDbEntity
  8
0
100
AcDbBlockReference
  2
SW_BLOCK_DIMENSION_1
 10
397.2096946378
 20
48.9914197296
 30
0.0
  0
INSERT
  5
A6
330
73
100
AcDbEntity
  8
0
100
AcDbBlockReference
  2
SW_BLOCK_DIMENSION_2
 10
397.2096946378
 20
58.9914197296
 30
0.0
  0
INSERT
  5
AE
330
73
100
AcDbEntity
  8
0
100
AcDbBlockReference
  2
SW_BLOCK_DIMENSION_3
 10
397.2096946378
 20
68.9914197296
 30
0.0
  0
INSERT
  5
B6
330
73
100
AcDbEntity
  8
0
100
AcDbBlockReference
  2
SW_BLOCK_DIMENSION_4
 10
397.2096946378
 20
78.9914197296
 30
0.0
  0
INSERT
  5
BE
330
73
100
AcDbEntity
  8
0
100
AcDbBlockReference
  2
SW_BLOCK_DIMENSION_5
 10
397.2096946378
 20
88.9914197296
 30
0.0
  0
INSERT
  5
C6
330
73
100
AcDbEntity
  8
0
100
AcDbBlockReference
  2
SW_BLOCK_DIMENSION_6
 10
397.2096946378
 20
98.9914197296
 30
0.0
  0
INSERT
  5
CE
330
73
100
AcDbEntity
  8
0
100
AcDbBlockReference
  2
SW_BLOCK_DIMENSION_7
 10
397.2096946378
 20
108.9914197296
 30
0.0
  0
INSERT
  5
D6
330
73
100
AcDbEntity
  8
0
100
AcDbBlockReference
  2
SW_BLOCK_DIMENSION_8
 10
397.2096946378
 20
118.9914197296
 30
0.0
  0
INSERT
  5
DE
330
73
100
AcDbEntity
  8
0
100
AcDbBlockReference
  2
SW_BLOCK_DIMENSION_9
 10
397.2096946378
 20
128.9914197296
 30
0.0
  0
INSERT
  5
E6
330
73
100
AcDbEntity
  8
0
100
AcDbBlockReference
  2
SW_BLOCK_DIMENSION_10
 10
397.2096946378
 20
138.9914197296
 30
0.0
  0
INSERT
  5
EE
330
73
100
AcDbEntity
  8
0
100
AcDbBlockReference
  2
SW_BLOCK_DIMENSION_11
 10
397.2096946378
 20
148.9914197296
 30
0.0
  0
INSERT
  5
F6
330
73
100
AcDbEntity
  8
0
100
AcDbBlockReference
  2
SW_BLOCK_DIMENSION_12
 10
397.2096946378
 20
158.9914197296
 30
0.0
  0
INSERT
  5
FE
330
73
100
AcDbEntity
  8
0
100
AcDbBlockReference
  2
SW_BLOCK_DIMENSION_13
 10
397.2096946378
 20
168.9914197296
 30
0.0
  0
INSERT
  5
10E
330
73
100
AcDbEntity
  8
0
100
AcDbBlockReference
  2
SW_BLOCK_DIMENSION_14
 10
341.1734707322
 20
36.1691980072
 30
0.0
  0
INSERT
  5
11F
330
73
100
AcDbEntity
  8
0
100
AcDbBlockReference
  2
SW_BLOCK_DIMENSION_15
 10
339.1802765097
 20
61.5691980072
 30
0.0
  0
INSERT
  5
130
330
73
100
AcDbEntity
  8
0
100
AcDbBlockReference
  2
SW_BLOCK_DIMENSION_16
 10
339.1802765097
 20
86.9691980072
 30
0.0
  0
INSERT
  5
141
330
73
100
AcDbEntity
  8
0
100
AcDbBlockReference
  2
SW_BLOCK_DIMENSION_17
 10
339.1802765097
 20
112.3691980072
 30
0.0
  0
INSERT
  5
152
330
73
100
AcDbEntity
  8
0
100
AcDbBlockReference
  2
SW_BLOCK_DIMENSION_18
 10
336.8284243759
 20
137.7691980072
 30
0.0
  0
INSERT
  5
163
330
73
100
AcDbEntity
  8
0
100
AcDbBlockReference
  2
SW_BLOCK_DIMENSION_19
 10
341.1734707322
 20
163.1691980072
 30
0.0
  0
INSERT
  5
169
330
73
100
AcDbEntity
  8
0
 62
     7
100
AcDbBlockReference
  2
SW_NOTE_0
 10
337.5586028241
 20
28.8175207347
 30
0.0
  0
INSERT
  5
16E
330
73
100
AcDbEntity
  8
0
 62
     7
100
AcDbBlockReference
  2
SW_NOTE_0_1
 10
393.160738319
 20
28.8175207347
 30
0.0
  0
ENDBLK
  5
75
330
73
100
AcDbEntity
  8
0
100
AcDbBlockEnd
  0
BLOCK
  5
8B
330
8A
100
AcDbEntity
  8
0
100
AcDbBlockBegin
  2
SW_BLOCK_DIMENSION_0
 70
     0
 10
0.0
 20
0.0
 30
0.0
  3
SW_BLOCK_DIMENSION_0
  1

  0
INSERT
  5
92
330
8A
100
AcDbEntity
  8
0
 62
     0
100
AcDbBlockReference
  2
_Origin
 10
-1.8
 20
2.3665509652
 30
0.0
 41
1.8
 42
1.8
 50
0.0
  0
LINE
  5
93
330
8A
100
AcDbEntity
  8
0
 62
     0
100
AcDbLine
 10
-7.5262660664
 20
2.3665509652
 30
0.0
 11
0.0
 21
2.3665509652
 31
0.0
  0
MTEXT
  5
95
330
8A
100
AcDbEntity
  8
0
 62
     0
100
AcDbMText
 10
0.0
 20
4.0927900738
 30
0.0
 40
3.175
 41
0.0
 71
     1
 72
     1
  1
0
  7
SLDTEXTSTYLE0
 73
     1
 44
1.0
  0
ENDBLK
  5
8C
330
8A
100
AcDbEntity
  8
0
100
AcDbBlockEnd
  0
BLOCK
  5
8E
330
8D
100
AcDbEntity
  8
0
100
AcDbBlockBegin
  2
_Origin
 70
     0
 10
0.0
 20
0.0
 30
0.0
  3
_Origin
  1

  0
CIRCLE
  5
90
330
8D
100
AcDbEntity
  8
0
  6
ByBlock
 62
     0
370
    -2
100
AcDbCircle
 10
0.0
 20
0.0
 30
0.0
 40
0.5
  0
LINE
  5
91
330
8D
100
AcDbEntity
  8
0
  6
ByBlock
 62
     0
370
    -2
100
AcDbLine
 10
0.0
 20
0.0
 30
0.0
 11
-1.0
 21
0.0
 31
0.0
  0
ENDBLK
  5
8F
330
8D
100
AcDbEntity
  8
0
100
AcDbBlockEnd
  0
BLOCK
  5
98
330
97
100
AcDbEntity
  8
0
100
AcDbBlockBegin
  2
SW_BLOCK_DIMENSION_1
 70
     0
 10
0.0
 20
0.0
 30
0.0
  3
SW_BLOCK_DIMENSION_1
  1

  0
SOLID
  5
9A
330
97
100
AcDbEntity
  8
0
 62
     0
100
AcDbTrace
 10
-1.8
 20
2.3665509652
 30
0.0
 11
-2.7
 21
-2.6334490348
 31
0.0
 12
-0.9
 22
-2.6334490348
 32
0.0
 13
-0.9
 23
-2.6334490348
 33
0.0
  0
LINE
  5
9B
330
97
100
AcDbEntity
  8
0
 62
     0
100
AcDbLine
 10
-11.3062660664
 20
2.3665509652
 30
0.0
 11
0.0
 21
2.3665509652
 31
0.0
  0
LINE
  5
9C
330
97
100
AcDbEntity
  8
0
 62
     0
100
AcDbLine
 10
-1.8
 20
-7.6334490348
 30
0.0
 11
-1.8
 21
2.3665509652
 31
0.0
  0
MTEXT
  5
9D
330
97
100
AcDbEntity
  8
0
 62
     0
100
AcDbMText
 10
0.0
 20
4.0927900738
 30
0.0
 40
3.175
 41
0.0
 71
     1
 72
     1
  1
10
  7
SLDTEXTSTYLE0
 73
     1
 44
1.0
  0
ENDBLK
  5
99
330
97
100
AcDbEntity
  8
0
100
AcDbBlockEnd
  0
BLOCK
  5
A0
330
9F
100
AcDbEntity
  8
0
100
AcDbBlockBegin
  2
SW_BLOCK_DIMENSION_2
 70
     0
 10
0.0
 20
0.0
 30
0.0
  3
SW_BLOCK_DIMENSION_2
  1

  0
SOLID
  5
A2
330
9F
100
AcDbEntity
  8
0
 62
     0
100
AcDbTrace
 10
-1.8
 20
2.3665509652
 30
0.0
 11
-2.7
 21
-2.6334490348
 31
0.0
 12
-0.9
 22
-2.6334490348
 32
0.0
 13
-0.9
 23
-2.6334490348
 33
0.0
  0
LINE
  5
A3
330
9F
100
AcDbEntity
  8
0
 62
     0
100
AcDbLine
 10
-11.3062660664
 20
2.3665509652
 30
0.0
 11
0.0
 21
2.3665509652
 31
0.0
  0
LINE
  5
A4
330
9F
100
AcDbEntity
  8
0
 62
     0
100
AcDbLine
 10
-1.8
 20
-7.6334490348
 30
0.0
 11
-1.8
 21
2.3665509652
 31
0.0
  0
MTEXT
  5
A5
330
9F
100
AcDbEntity
  8
0
 62
     0
100
AcDbMText
 10
0.0
 20
4.0927900738
 30
0.0
 40
3.175
 41
0.0
 71
     1
 72
     1
  1
20
  7
SLDTEXTSTYLE0
 73
     1
 44
1.0
  0
ENDBLK
  5
A1
330
9F
100
AcDbEntity
  8
0
100
AcDbBlockEnd
  0
BLOCK
  5
A8
330
A7
100
AcDbEntity
  8
0
100
AcDbBlockBegin
  2
SW_BLOCK_DIMENSION_3
 70
     0
 10
0.0
 20
0.0
 30
0.0
  3
SW_BLOCK_DIMENSION_3
  1

  0
SOLID
  5
AA
330
A7
100
AcDbEntity
  8
0
 62
     0
100
AcDbTrace
 10
-1.8
 20
2.3665509652
 30
0.0
 11
-2.7
 21
-2.6334490348
 31
0.0
 12
-0.9
 22
-2.6334490348
 32
0.0
 13
-0.9
 23
-2.6334490348
 33
0.0
  0
LINE
  5
AB
330
A7
100
AcDbEntity
  8
0
 62
     0
100
AcDbLine
 10
-11.3062660664
 20
2.3665509652
 30
0.0
 11
0.0
 21
2.3665509652
 31
0.0
  0
LINE
  5
AC
330
A7
100
AcDbEntity
  8
0
 62
     0
100
AcDbLine
 10
-1.8
 20
-7.6334490348
 30
0.0
 11
-1.8
 21
2.3665509652
 31
0.0
  0
MTEXT
  5
AD
330
A7
100
AcDbEntity
  8
0
 62
     0
100
AcDbMText
 10
0.0
 20
4.0927900738
 30
0.0
 40
3.175
 41
0.0
 71
     1
 72
     1
  1
30
  7
SLDTEXTSTYLE0
 73
     1
 44
1.0
  0
ENDBLK
  5
A9
330
A7
100
AcDbEntity
  8
0
100
AcDbBlockEnd
  0
BLOCK
  5
B0
330
AF
100
AcDbEntity
  8
0
100
AcDbBlockBegin
  2
SW_BLOCK_DIMENSION_4
 70
     0
 10
0.0
 20
0.0
 30
0.0
  3
SW_BLOCK_DIMENSION_4
  1

  0
SOLID
  5
B2
330
AF
100
AcDbEntity
  8
0
 62
     0
100
AcDbTrace
 10
-1.8
 20
2.3665509652
 30
0.0
 11
-2.7
 21
-2.6334490348
 31
0.0
 12
-0.9
 22
-2.6334490348
 32
0.0
 13
-0.9
 23
-2.6334490348
 33
0.0
  0
LINE
  5
B3
330
AF
100
AcDbEntity
  8
0
 62
     0
100
AcDbLine
 10
-11.3062660664
 20
2.3665509652
 30
0.0
 11
0.0
 21
2.3665509652
 31
0.0
  0
LINE
  5
B4
330
AF
100
AcDbEntity
  8
0
 62
     0
100
AcDbLine
 10
-1.8
 20
-7.6334490348
 30
0.0
 11
-1.8
 21
2.3665509652
 31
0.0
  0
MTEXT
  5
B5
330
AF
100
AcDbEntity
  8
0
 62
     0
100
AcDbMText
 10
0.0
 20
4.0927900738
 30
0.0
 40
3.175
 41
0.0
 71
     1
 72
     1
  1
40
  7
SLDTEXTSTYLE0
 73
     1
 44
1.0
  0
ENDBLK
  5
B1
330
AF
100
AcDbEntity
  8
0
100
AcDbBlockEnd
  0
BLOCK
  5
B8
330
B7
100
AcDbEntity
  8
0
100
AcDbBlockBegin
  2
SW_BLOCK_DIMENSION_5
 70
     0
 10
0.0
 20
0.0
 30
0.0
  3
SW_BLOCK_DIMENSION_5
  1

  0
SOLID
  5
BA
330
B7
100
AcDbEntity
  8
0
 62
     0
100
AcDbTrace
 10
-1.8
 20
2.3665509652
 30
0.0
 11
-2.7
 21
-2.6334490348
 31
0.0
 12
-0.9
 22
-2.6334490348
 32
0.0
 13
-0.9
 23
-2.6334490348
 33
0.0
  0
LINE
  5
BB
330
B7
100
AcDbEntity
  8
0
 62
     0
100
AcDbLine
 10
-11.3062660664
 20
2.3665509652
 30
0.0
 11
0.0
 21
2.3665509652
 31
0.0
  0
LINE
  5
BC
330
B7
100
AcDbEntity
  8
0
 62
     0
100
AcDbLine
 10
-1.8
 20
-7.6334490348
 30
0.0
 11
-1.8
 21
2.3665509652
 31
0.0
  0
MTEXT
  5
BD
330
B7
100
AcDbEntity
  8
0
 62
     0
100
AcDbMText
 10
0.0
 20
4.0927900738
 30
0.0
 40
3.175
 41
0.0
 71
     1
 72
     1
  1
50
  7
SLDTEXTSTYLE0
 73
     1
 44
1.0
  0
ENDBLK
  5
B9
330
B7
100
AcDbEntity
  8
0
100
AcDbBlockEnd
  0
BLOCK
  5
C0
330
BF
100
AcDbEntity
  8
0
100
AcDbBlockBegin
  2
SW_BLOCK_DIMENSION_6
 70
     0
 10
0.0
 20
0.0
 30
0.0
  3
SW_BLOCK_DIMENSION_6
  1

  0
SOLID
  5
C2
330
BF
100
AcDbEntity
  8
0
 62
     0
100
AcDbTrace
 10
-1.8
 20
2.3665509652
 30
0.0
 11
-2.7
 21
-2.6334490348
 31
0.0
 12
-0.9
 22
-2.6334490348
 32
0.0
 13
-0.9
 23
-2.6334490348
 33
0.0
  0
LINE
  5
C3
330
BF
100
AcDbEntity
  8
0
 62
     0
100
AcDbLine
 10
-11.3062660664
 20
2.3665509652
 30
0.0
 11
0.0
 21
2.3665509652
 31
0.0
  0
LINE
  5
C4
330
BF
100
AcDbEntity
  8
0
 62
     0
100
AcDbLine
 10
-1.8
 20
-7.6334490348
 30
0.0
 11
-1.8
 21
2.3665509652
 31
0.0
  0
MTEXT
  5
C5
330
BF
100
AcDbEntity
  8
0
 62
     0
100
AcDbMText
 10
0.0
 20
4.0927900738
 30
0.0
 40
3.175
 41
0.0
 71
     1
 72
     1
  1
60
  7
SLDTEXTSTYLE0
 73
     1
 44
1.0
  0
ENDBLK
  5
C1
330
BF
100
AcDbEntity
  8
0
100
AcDbBlockEnd
  0
BLOCK
  5
C8
330
C7
100
AcDbEntity
  8
0
100
AcDbBlockBegin
  2
SW_BLOCK_DIMENSION_7
 70
     0
 10
0.0
 20
0.0
 30
0.0
  3
SW_BLOCK_DIMENSION_7
  1

  0
SOLID
  5
CA
330
C7
100
AcDbEntity
  8
0
 62
     0
100
AcDbTrace
 10
-1.8
 20
2.3665509652
 30
0.0
 11
-2.7
 21
-2.6334490348
 31
0.0
 12
-0.9
 22
-2.6334490348
 32
0.0
 13
-0.9
 23
-2.6334490348
 33
0.0
  0
LINE
  5
CB
330
C7
100
AcDbEntity
  8
0
 62
     0
100
AcDbLine
 10
-11.3062660664
 20
2.3665509652
 30
0.0
 11
0.0
 21
2.3665509652
 31
0.0
  0
LINE
  5
CC
330
C7
100
AcDbEntity
  8
0
 62
     0
100
AcDbLine
 10
-1.8
 20
-7.6334490348
 30
0.0
 11
-1.8
 21
2.3665509652
 31
0.0
  0
MTEXT
  5
CD
330
C7
100
AcDbEntity
  8
0
 62
     0
100
AcDbMText
 10
0.0
 20
4.0927900738
 30
0.0
 40
3.175
 41
0.0
 71
     1
 72
     1
  1
70
  7
SLDTEXTSTYLE0
 73
     1
 44
1.0
  0
ENDBLK
  5
C9
330
C7
100
AcDbEntity
  8
0
100
AcDbBlockEnd
  0
BLOCK
  5
D0
330
CF
100
AcDbEntity
  8
0
100
AcDbBlockBegin
  2
SW_BLOCK_DIMENSION_8
 70
     0
 10
0.0
 20
0.0
 30
0.0
  3
SW_BLOCK_DIMENSION_8
  1

  0
SOLID
  5
D2
330
CF
100
AcDbEntity
  8
0
 62
     0
100
AcDbTrace
 10
-1.8
 20
2.3665509652
 30
0.0
 11
-2.7
 21
-2.6334490348
 31
0.0
 12
-0.9
 22
-2.6334490348
 32
0.0
 13
-0.9
 23
-2.6334490348
 33
0.0
  0
LINE
  5
D3
330
CF
100
AcDbEntity
  8
0
 62
     0
100
AcDbLine
 10
-11.3062660664
 20
2.3665509652
 30
0.0
 11
0.0
 21
2.3665509652
 31
0.0
  0
LINE
  5
D4
330
CF
100
AcDbEntity
  8
0
 62
     0
100
AcDbLine
 10
-1.8
 20
-7.6334490348
 30
0.0
 11
-1.8
 21
2.3665509652
 31
0.0
  0
MTEXT
  5
D5
330
CF
100
AcDbEntity
  8
0
 62
     0
100
AcDbMText
 10
0.0
 20
4.0927900738
 30
0.0
 40
3.175
 41
0.0
 71
     1
 72
     1
  1
80
  7
SLDTEXTSTYLE0
 73
     1
 44
1.0
  0
ENDBLK
  5
D1
330
CF
100
AcDbEntity
  8
0
100
AcDbBlockEnd
  0
BLOCK
  5
D8
330
D7
100
AcDbEntity
  8
0
100
AcDbBlockBegin
  2
SW_BLOCK_DIMENSION_9
 70
     0
 10
0.0
 20
0.0
 30
0.0
  3
SW_BLOCK_DIMENSION_9
  1

  0
SOLID
  5
DA
330
D7
100
AcDbEntity
  8
0
 62
     0
100
AcDbTrace
 10
-1.8
 20
2.3665509652
 30
0.0
 11
-2.7
 21
-2.6334490348
 31
0.0
 12
-0.9
 22
-2.6334490348
 32
0.0
 13
-0.9
 23
-2.6334490348
 33
0.0
  0
LINE
  5
DB
330
D7
100
AcDbEntity
  8
0
 62
     0
100
AcDbLine
 10
-11.3062660664
 20
2.3665509652
 30
0.0
 11
0.0
 21
2.3665509652
 31
0.0
  0
LINE
  5
DC
330
D7
100
AcDbEntity
  8
0
 62
     0
100
AcDbLine
 10
-1.8
 20
-7.6334490348
 30
0.0
 11
-1.8
 21
2.3665509652
 31
0.0
  0
MTEXT
  5
DD
330
D7
100
AcDbEntity
  8
0
 62
     0
100
AcDbMText
 10
0.0
 20
4.0927900738
 30
0.0
 40
3.175
 41
0.0
 71
     1
 72
     1
  1
90
  7
SLDTEXTSTYLE0
 73
     1
 44
1.0
  0
ENDBLK
  5
D9
330
D7
100
AcDbEntity
  8
0
100
AcDbBlockEnd
  0
BLOCK
  5
E0
330
DF
100
AcDbEntity
  8
0
100
AcDbBlockBegin
  2
SW_BLOCK_DIMENSION_10
 70
     0
 10
0.0
 20
0.0
 30
0.0
  3
SW_BLOCK_DIMENSION_10
  1

  0
SOLID
  5
E2
330
DF
100
AcDbEntity
  8
0
 62
     0
100
AcDbTrace
 10
-1.8
 20
2.3665509652
 30
0.0
 11
-2.7
 21
-2.6334490348
 31
0.0
 12
-0.9
 22
-2.6334490348
 32
0.0
 13
-0.9
 23
-2.6334490348
 33
0.0
  0
LINE
  5
E3
330
DF
100
AcDbEntity
  8
0
 62
     0
100
AcDbLine
 10
-11.3062660664
 20
2.3665509652
 30
0.0
 11
0.0
 21
2.3665509652
 31
0.0
  0
LINE
  5
E4
330
DF
100
AcDbEntity
  8
0
 62
     0
100
AcDbLine
 10
-1.8
 20
-7.6334490348
 30
0.0
 11
-1.8
 21
2.3665509652
 31
0.0
  0
MTEXT
  5
E5
330
DF
100
AcDbEntity
  8
0
 62
     0
100
AcDbMText
 10
0.0
 20
4.0927900738
 30
0.0
 40
3.175
 41
0.0
 71
     1
 72
     1
  1
100
  7
SLDTEXTSTYLE0
 73
     1
 44
1.0
  0
ENDBLK
  5
E1
330
DF
100
AcDbEntity
  8
0
100
AcDbBlockEnd
  0
BLOCK
  5
E8
330
E7
100
AcDbEntity
  8
0
100
AcDbBlockBegin
  2
SW_BLOCK_DIMENSION_11
 70
     0
 10
0.0
 20
0.0
 30
0.0
  3
SW_BLOCK_DIMENSION_11
  1

  0
SOLID
  5
EA
330
E7
100
AcDbEntity
  8
0
 62
     0
100
AcDbTrace
 10
-1.8
 20
2.3665509652
 30
0.0
 11
-2.7
 21
-2.6334490348
 31
0.0
 12
-0.9
 22
-2.6334490348
 32
0.0
 13
-0.9
 23
-2.6334490348
 33
0.0
  0
LINE
  5
EB
330
E7
100
AcDbEntity
  8
0
 62
     0
100
AcDbLine
 10
-11.3062660664
 20
2.3665509652
 30
0.0
 11
0.0
 21
2.3665509652
 31
0.0
  0
LINE
  5
EC
330
E7
100
AcDbEntity
  8
0
 62
     0
100
AcDbLine
 10
-1.8
 20
-7.6334490348
 30
0.0
 11
-1.8
 21
2.3665509652
 31
0.0
  0
MTEXT
  5
ED
330
E7
100
AcDbEntity
  8
0
 62
     0
100
AcDbMText
 10
0.0
 20
4.0927900738
 30
0.0
 40
3.175
 41
0.0
 71
     1
 72
     1
  1
110
  7
SLDTEXTSTYLE0
 73
     1
 44
1.0
  0
ENDBLK
  5
E9
330
E7
100
AcDbEntity
  8
0
100
AcDbBlockEnd
  0
BLOCK
  5
F0
330
EF
100
AcDbEntity
  8
0
100
AcDbBlockBegin
  2
SW_BLOCK_DIMENSION_12
 70
     0
 10
0.0
 20
0.0
 30
0.0
  3
SW_BLOCK_DIMENSION_12
  1

  0
SOLID
  5
F2
330
EF
100
AcDbEntity
  8
0
 62
     0
100
AcDbTrace
 10
-1.8
 20
2.3665509652
 30
0.0
 11
-2.7
 21
-2.6334490348
 31
0.0
 12
-0.9
 22
-2.6334490348
 32
0.0
 13
-0.9
 23
-2.6334490348
 33
0.0
  0
LINE
  5
F3
330
EF
100
AcDbEntity
  8
0
 62
     0
100
AcDbLine
 10
-11.3062660664
 20
2.3665509652
 30
0.0
 11
0.0
 21
2.3665509652
 31
0.0
  0
LINE
  5
F4
330
EF
100
AcDbEntity
  8
0
 62
     0
100
AcDbLine
 10
-1.8
 20
-7.6334490348
 30
0.0
 11
-1.8
 21
2.3665509652
 31
0.0
  0
MTEXT
  5
F5
330
EF
100
AcDbEntity
  8
0
 62
     0
100
AcDbMText
 10
0.0
 20
4.0927900738
 30
0.0
 40
3.175
 41
0.0
 71
     1
 72
     1
  1
120
  7
SLDTEXTSTYLE0
 73
     1
 44
1.0
  0
ENDBLK
  5
F1
330
EF
100
AcDbEntity
  8
0
100
AcDbBlockEnd
  0
BLOCK
  5
F8
330
F7
100
AcDbEntity
  8
0
100
AcDbBlockBegin
  2
SW_BLOCK_DIMENSION_13
 70
     0
 10
0.0
 20
0.0
 30
0.0
  3
SW_BLOCK_DIMENSION_13
  1

  0
SOLID
  5
FA
330
F7
100
AcDbEntity
  8
0
 62
     0
100
AcDbTrace
 10
-1.8
 20
2.3665509652
 30
0.0
 11
-2.7
 21
-2.6334490348
 31
0.0
 12
-0.9
 22
-2.6334490348
 32
0.0
 13
-0.9
 23
-2.6334490348
 33
0.0
  0
LINE
  5
FB
330
F7
100
AcDbEntity
  8
0
 62
     0
100
AcDbLine
 10
-11.3062660664
 20
2.3665509652
 30
0.0
 11
0.0
 21
2.3665509652
 31
0.0
  0
LINE
  5
FC
330
F7
100
AcDbEntity
  8
0
 62
     0
100
AcDbLine
 10
-1.8
 20
-7.6334490348
 30
0.0
 11
-1.8
 21
2.3665509652
 31
0.0
  0
MTEXT
  5
FD
330
F7
100
AcDbEntity
  8
0
 62
     0
100
AcDbMText
 10
0.0
 20
4.0927900738
 30
0.0
 40
3.175
 41
0.0
 71
     1
 72
     1
  1
130
  7
SLDTEXTSTYLE0
 73
     1
 44
1.0
  0
ENDBLK
  5
F9
330
F7
100
AcDbEntity
  8
0
100
AcDbBlockEnd
  0
BLOCK
  5
100
330
FF
100
AcDbEntity
  8
0
100
AcDbBlockBegin
  2
SW_BLOCK_DIMENSION_14
 70
     0
 10
0.0
 20
0.0
 30
0.0
  3
SW_BLOCK_DIMENSION_14
  1

  0
INSERT
  5
102
330
FF
100
AcDbEntity
  8
0
 62
     0
100
AcDbBlockReference
  2
_Origin
 10
12.7419915825
 20
5.1887726877
 30
0.0
 41
1.8
 42
1.8
 50
0.0
  0
LINE
  5
103
330
FF
100
AcDbEntity
  8
0
 62
     0
100
AcDbLine
 10
3.2925925916
 20
9.671990294
 30
0.0
 11
2.2342592711
 21
9.671990294
 31
0.0
  0
LINE
  5
104
330
FF
100
AcDbEntity
  8
0
 62
     0
100
AcDbLine
 10
2.2342592711
 20
9.671990294
 30
0.0
 11
2.2342592711
 21
4.9388883635
 31
0.0
  0
LINE
  5
105
330
FF
100
AcDbEntity
  8
0
 62
     0
100
AcDbLine
 10
2.2342592711
 20
4.9388883635
 30
0.0
 11
3.2925925916
 21
4.9388883635
 31
0.0
  0
LINE
  5
106
330
FF
100
AcDbEntity
  8
0
 62
     0
100
AcDbLine
 10
7.6493982924
 20
9.671990294
 30
0.0
 11
8.707731613
 21
9.671990294
 31
0.0
  0
LINE
  5
107
330
FF
100
AcDbEntity
  8
0
 62
     0
100
AcDbLine
 10
8.707731613
 20
9.671990294
 30
0.0
 11
8.707731613
 21
4.9388883635
 31
0.0
  0
LINE
  5
108
330
FF
100
AcDbEntity
  8
0
 62
     0
100
AcDbLine
 10
8.707731613
 20
4.9388883635
 30
0.0
 11
7.6493982924
 21
4.9388883635
 31
0.0
  0
LINE
  5
109
330
FF
100
AcDbEntity
  8
0
 62
     0
100
AcDbLine
 10
21.5099578393
 20
5.1887726877
 30
0.0
 11
10.9419915825
 21
5.1887726877
 31
0.0
  0
MTEXT
  5
10A
330
FF
100
AcDbEntity
  8
0
 62
     0
100
AcDbMText
 10
1.190625
 20
4.0927900738
 30
0.0
 40
3.175
 41
0.0
 71
     1
 72
     1
  1

  7
SLDTEXTSTYLE0
 73
     1
 44
1.0
  0
MTEXT
  5
10B
330
FF
100
AcDbEntity
  8
0
 62
     0
100
AcDbMText
 10
3.2925925916
 20
9.0316784373
 30
0.0
 40
3.175
 41
0.0
 71
     1
 72
     1
  1
0"
  7
SLDTEXTSTYLE0
 73
     1
 44
1.0
  0
MTEXT
  5
10C
330
FF
100
AcDbEntity
  8
0
 62
     0
100
AcDbMText
 10
4.2950697243
 20
4.0927898409
 30
0.0
 40
3.175
 41
0.0
 71
     1
 72
     1
  1
0
  7
SLDTEXTSTYLE0
 73
     1
 44
1.0
  0
MTEXT
  5
10D
330
FF
100
AcDbEntity
  8
0
 62
     0
100
AcDbMText
 10
10.9566905156
 20
4.0927900738
 30
0.0
 40
3.175
 41
0.0
 71
     1
 72
     1
  1

  7
SLDTEXTSTYLE0
 73
     1
 44
1.0
  0
ENDBLK
  5
101
330
FF
100
AcDbEntity
  8
0
100
AcDbBlockEnd
  0
BLOCK
  5
110
330
10F
100
AcDbEntity
  8
0
100
AcDbBlockBegin
  2
SW_BLOCK_DIMENSION_15
 70
     0
 10
0.0
 20
0.0
 30
0.0
  3
SW_BLOCK_DIMENSION_15
  1

  0
SOLID
  5
112
330
10F
100
AcDbEntity
  8
0
 62
     0
100
AcDbTrace
 10
14.735185805
 20
5.1887726877
 30
0.0
 11
13.835185805
 21
0.1887726877
 31
0.0
 12
15.635185805
 22
0.1887726877
 32
0.0
 13
15.635185805
 23
0.1887726877
 33
0.0
  0
LINE
  5
113
330
10F
100
AcDbEntity
  8
0
 62
     0
100
AcDbLine
 10
4.2891897028
 20
9.671990294
 30
0.0
 11
3.2308563823
 21
9.671990294
 31
0.0
  0
LINE
  5
114
330
10F
100
AcDbEntity
  8
0
 62
     0
100
AcDbLine
 10
3.2308563823
 20
9.671990294
 30
0.0
 11
3.2308563823
 21
4.9388883635
 31
0.0
  0
LINE
  5
115
330
10F
100
AcDbEntity
  8
0
 62
     0
100
AcDbLine
 10
3.2308563823
 20
4.9388883635
 30
0.0
 11
4.2891897028
 21
4.9388883635
 31
0.0
  0
LINE
  5
116
330
10F
100
AcDbEntity
  8
0
 62
     0
100
AcDbLine
 10
8.6459954036
 20
9.671990294
 30
0.0
 11
9.7043287242
 21
9.671990294
 31
0.0
  0
LINE
  5
117
330
10F
100
AcDbEntity
  8
0
 62
     0
100
AcDbLine
 10
9.7043287242
 20
9.671990294
 30
0.0
 11
9.7043287242
 21
4.9388883635
 31
0.0
  0
LINE
  5
118
330
10F
100
AcDbEntity
  8
0
 62
     0
100
AcDbLine
 10
9.7043287242
 20
4.9388883635
 30
0.0
 11
8.6459954036
 21
4.9388883635
 31
0.0
  0
LINE
  5
119
330
10F
100
AcDbEntity
  8
0
 62
     0
100
AcDbLine
 10
22.7231520617
 20
5.1887726877
 30
0.0
 11
12.935185805
 21
5.1887726877
 31
0.0
  0
LINE
  5
11A
330
10F
100
AcDbEntity
  8
0
 62
     0
100
AcDbLine
 10
14.735185805
 20
-20.2112273123
 30
0.0
 11
14.735185805
 21
5.1887726877
 31
0.0
  0
MTEXT
  5
11B
330
10F
100
AcDbEntity
  8
0
 62
     0
100
AcDbMText
 10
1.190625
 20
4.0927900738
 30
0.0
 40
3.175
 41
0.0
 71
     1
 72
     1
  1

  7
SLDTEXTSTYLE0
 73
     1
 44
1.0
  0
MTEXT
  5
11C
330
10F
100
AcDbEntity
  8
0
 62
     0
100
AcDbMText
 10
4.2891897028
 20
9.0316784373
 30
0.0
 40
3.175
 41
0.0
 71
     1
 72
     1
  1
1"
  7
SLDTEXTSTYLE0
 73
     1
 44
1.0
  0
MTEXT
  5
11D
330
10F
100
AcDbEntity
  8
0
 62
     0
100
AcDbMText
 10
1.1759259505
 20
4.0927898409
 30
0.0
 40
3.175
 41
0.0
 71
     1
 72
     1
  1
25,40
  7
SLDTEXTSTYLE0
 73
     1
 44
1.0
  0
MTEXT
  5
11E
330
10F
100
AcDbEntity
  8
0
 62
     0
100
AcDbMText
 10
12.949884738
 20
4.0927900738
 30
0.0
 40
3.175
 41
0.0
 71
     1
 72
     1
  1

  7
SLDTEXTSTYLE0
 73
     1
 44
1.0
  0
ENDBLK
  5
111
330
10F
100
AcDbEntity
  8
0
100
AcDbBlockEnd
  0
BLOCK
  5
121
330
120
100
AcDbEntity
  8
0
100
AcDbBlockBegin
  2
SW_BLOCK_DIMENSION_16
 70
     0
 10
0.0
 20
0.0
 30
0.0
  3
SW_BLOCK_DIMENSION_16
  1

  0
SOLID
  5
123
330
120
100
AcDbEntity
  8
0
 62
     0
100
AcDbTrace
 10
14.735185805
 20
5.1887726877
 30
0.0
 11
13.835185805
 21
0.1887726877
 31
0.0
 12
15.635185805
 22
0.1887726877
 32
0.0
 13
15.635185805
 23
0.1887726877
 33
0.0
  0
LINE
  5
124
330
120
100
AcDbEntity
  8
0
 62
     0
100
AcDbLine
 10
4.2891897028
 20
9.671990294
 30
0.0
 11
3.2308563823
 21
9.671990294
 31
0.0
  0
LINE
  5
125
330
120
100
AcDbEntity
  8
0
 62
     0
100
AcDbLine
 10
3.2308563823
 20
9.671990294
 30
0.0
 11
3.2308563823
 21
4.9388883635
 31
0.0
  0
LINE
  5
126
330
120
100
AcDbEntity
  8
0
 62
     0
100
AcDbLine
 10
3.2308563823
 20
4.9388883635
 30
0.0
 11
4.2891897028
 21
4.9388883635
 31
0.0
  0
LINE
  5
127
330
120
100
AcDbEntity
  8
0
 62
     0
100
AcDbLine
 10
8.6459954036
 20
9.671990294
 30
0.0
 11
9.7043287242
 21
9.671990294
 31
0.0
  0
LINE
  5
128
330
120
100
AcDbEntity
  8
0
 62
     0
100
AcDbLine
 10
9.7043287242
 20
9.671990294
 30
0.0
 11
9.7043287242
 21
4.9388883635
 31
0.0
  0
LINE
  5
129
330
120
100
AcDbEntity
  8
0
 62
     0
100
AcDbLine
 10
9.7043287242
 20
4.9388883635
 30
0.0
 11
8.6459954036
 21
4.9388883635
 31
0.0
  0
LINE
  5
12A
330
120
100
AcDbEntity
  8
0
 62
     0
100
AcDbLine
 10
22.7231520617
 20
5.1887726877
 30
0.0
 11
12.935185805
 21
5.1887726877
 31
0.0
  0
LINE
  5
12B
330
120
100
AcDbEntity
  8
0
 62
     0
100
AcDbLine
 10
14.735185805
 20
-20.2112273123
 30
0.0
 11
14.735185805
 21
5.1887726877
 31
0.0
  0
MTEXT
  5
12C
330
120
100
AcDbEntity
  8
0
 62
     0
100
AcDbMText
 10
1.190625
 20
4.0927900738
 30
0.0
 40
3.175
 41
0.0
 71
     1
 72
     1
  1

  7
SLDTEXTSTYLE0
 73
     1
 44
1.0
  0
MTEXT
  5
12D
330
120
100
AcDbEntity
  8
0
 62
     0
100
AcDbMText
 10
4.2891897028
 20
9.0316784373
 30
0.0
 40
3.175
 41
0.0
 71
     1
 72
     1
  1
2"
  7
SLDTEXTSTYLE0
 73
     1
 44
1.0
  0
MTEXT
  5
12E
330
120
100
AcDbEntity
  8
0
 62
     0
100
AcDbMText
 10
1.1759259505
 20
4.0927898409
 30
0.0
 40
3.175
 41
0.0
 71
     1
 72
     1
  1
50,80
  7
SLDTEXTSTYLE0
 73
     1
 44
1.0
  0
MTEXT
  5
12F
330
120
100
AcDbEntity
  8
0
 62
     0
100
AcDbMText
 10
12.949884738
 20
4.0927900738
 30
0.0
 40
3.175
 41
0.0
 71
     1
 72
     1
  1

  7
SLDTEXTSTYLE0
 73
     1
 44
1.0
  0
ENDBLK
  5
122
330
120
100
AcDbEntity
  8
0
100
AcDbBlockEnd
  0
BLOCK
  5
132
330
131
100
AcDbEntity
  8
0
100
AcDbBlockBegin
  2
SW_BLOCK_DIMENSION_17
 70
     0
 10
0.0
 20
0.0
 30
0.0
  3
SW_BLOCK_DIMENSION_17
  1

  0
SOLID
  5
134
330
131
100
AcDbEntity
  8
0
 62
     0
100
AcDbTrace
 10
14.735185805
 20
5.1887726877
 30
0.0
 11
13.835185805
 21
0.1887726877
 31
0.0
 12
15.635185805
 22
0.1887726877
 32
0.0
 13
15.635185805
 23
0.1887726877
 33
0.0
  0
LINE
  5
135
330
131
100
AcDbEntity
  8
0
 62
     0
100
AcDbLine
 10
4.2891897028
 20
9.671990294
 30
0.0
 11
3.2308563823
 21
9.671990294
 31
0.0
  0
LINE
  5
136
330
131
100
AcDbEntity
  8
0
 62
     0
100
AcDbLine
 10
3.2308563823
 20
9.671990294
 30
0.0
 11
3.2308563823
 21
4.9388883635
 31
0.0
  0
LINE
  5
137
330
131
100
AcDbEntity
  8
0
 62
     0
100
AcDbLine
 10
3.2308563823
 20
4.9388883635
 30
0.0
 11
4.2891897028
 21
4.9388883635
 31
0.0
  0
LINE
  5
138
330
131
100
AcDbEntity
  8
0
 62
     0
100
AcDbLine
 10
8.6459954036
 20
9.671990294
 30
0.0
 11
9.7043287242
 21
9.671990294
 31
0.0
  0
LINE
  5
139
330
131
100
AcDbEntity
  8
0
 62
     0
100
AcDbLine
 10
9.7043287242
 20
9.671990294
 30
0.0
 11
9.7043287242
 21
4.9388883635
 31
0.0
  0
LINE
  5
13A
330
131
100
AcDbEntity
  8
0
 62
     0
100
AcDbLine
 10
9.7043287242
 20
4.9388883635
 30
0.0
 11
8.6459954036
 21
4.9388883635
 31
0.0
  0
LINE
  5
13B
330
131
100
AcDbEntity
  8
0
 62
     0
100
AcDbLine
 10
22.7231520617
 20
5.1887726877
 30
0.0
 11
12.935185805
 21
5.1887726877
 31
0.0
  0
LINE
  5
13C
330
131
100
AcDbEntity
  8
0
 62
     0
100
AcDbLine
 10
14.735185805
 20
-20.2112273123
 30
0.0
 11
14.735185805
 21
5.1887726877
 31
0.0
  0
MTEXT
  5
13D
330
131
100
AcDbEntity
  8
0
 62
     0
100
AcDbMText
 10
1.190625
 20
4.0927900738
 30
0.0
 40
3.175
 41
0.0
 71
     1
 72
     1
  1

  7
SLDTEXTSTYLE0
 73
     1
 44
1.0
  0
MTEXT
  5
13E
330
131
100
AcDbEntity
  8
0
 62
     0
100
AcDbMText
 10
4.2891897028
 20
9.0316784373
 30
0.0
 40
3.175
 41
0.0
 71
     1
 72
     1
  1
3"
  7
SLDTEXTSTYLE0
 73
     1
 44
1.0
  0
MTEXT
  5
13F
330
131
100
AcDbEntity
  8
0
 62
     0
100
AcDbMText
 10
1.1759259505
 20
4.0927898409
 30
0.0
 40
3.175
 41
0.0
 71
     1
 72
     1
  1
76,20
  7
SLDTEXTSTYLE0
 73
     1
 44
1.0
  0
MTEXT
  5
140
330
131
100
AcDbEntity
  8
0
 62
     0
100
AcDbMText
 10
12.949884738
 20
4.0927900738
 30
0.0
 40
3.175
 41
0.0
 71
     1
 72
     1
  1

  7
SLDTEXTSTYLE0
 73
     1
 44
1.0
  0
ENDBLK
  5
133
330
131
100
AcDbEntity
  8
0
100
AcDbBlockEnd
  0
BLOCK
  5
143
330
142
100
AcDbEntity
  8
0
100
AcDbBlockBegin
  2
SW_BLOCK_DIMENSION_18
 70
     0
 10
0.0
 20
0.0
 30
0.0
  3
SW_BLOCK_DIMENSION_18
  1

  0
SOLID
  5
145
330
142
100
AcDbEntity
  8
0
 62
     0
100
AcDbTrace
 10
17.0870379388
 20
5.1887726877
 30
0.0
 11
16.1870379388
 21
0.1887726877
 31
0.0
 12
17.9870379388
 22
0.1887726877
 32
0.0
 13
17.9870379388
 23
0.1887726877
 33
0.0
  0
LINE
  5
146
330
142
100
AcDbEntity
  8
0
 62
     0
100
AcDbLine
 10
5.4651157698
 20
9.671990294
 30
0.0
 11
4.4067824492
 21
9.671990294
 31
0.0
  0
LINE
  5
147
330
142
100
AcDbEntity
  8
0
 62
     0
100
AcDbLine
 10
4.4067824492
 20
9.671990294
 30
0.0
 11
4.4067824492
 21
4.9388883635
 31
0.0
  0
LINE
  5
148
330
142
100
AcDbEntity
  8
0
 62
     0
100
AcDbLine
 10
4.4067824492
 20
4.9388883635
 30
0.0
 11
5.4651157698
 21
4.9388883635
 31
0.0
  0
LINE
  5
149
330
142
100
AcDbEntity
  8
0
 62
     0
100
AcDbLine
 10
9.8219214706
 20
9.671990294
 30
0.0
 11
10.8802547911
 21
9.671990294
 31
0.0
  0
LINE
  5
14A
330
142
100
AcDbEntity
  8
0
 62
     0
100
AcDbLine
 10
10.8802547911
 20
9.671990294
 30
0.0
 11
10.8802547911
 21
4.9388883635
 31
0.0
  0
LINE
  5
14B
330
142
100
AcDbEntity
  8
0
 62
     0
100
AcDbLine
 10
10.8802547911
 20
4.9388883635
 30
0.0
 11
9.8219214706
 21
4.9388883635
 31
0.0
  0
LINE
  5
14C
330
142
100
AcDbEntity
  8
0
 62
     0
100
AcDbLine
 10
25.0750041956
 20
5.1887726877
 30
0.0
 11
15.2870379388
 21
5.1887726877
 31
0.0
  0
LINE
  5
14D
330
142
100
AcDbEntity
  8
0
 62
     0
100
AcDbLine
 10
17.0870379388
 20
-20.2112273123
 30
0.0
 11
17.0870379388
 21
5.1887726877
 31
0.0
  0
MTEXT
  5
14E
330
142
100
AcDbEntity
  8
0
 62
     0
100
AcDbMText
 10
1.190625
 20
4.0927900738
 30
0.0
 40
3.175
 41
0.0
 71
     1
 72
     1
  1

  7
SLDTEXTSTYLE0
 73
     1
 44
1.0
  0
MTEXT
  5
14F
330
142
100
AcDbEntity
  8
0
 62
     0
100
AcDbMText
 10
5.4651157698
 20
9.0316784373
 30
0.0
 40
3.175
 41
0.0
 71
     1
 72
     1
  1
4"
  7
SLDTEXTSTYLE0
 73
     1
 44
1.0
  0
MTEXT
  5
150
330
142
100
AcDbEntity
  8
0
 62
     0
100
AcDbMText
 10
1.1759259505
 20
4.0927898409
 30
0.0
 40
3.175
 41
0.0
 71
     1
 72
     1
  1
101,60
  7
SLDTEXTSTYLE0
 73
     1
 44
1.0
  0
MTEXT
  5
151
330
142
100
AcDbEntity
  8
0
 62
     0
100
AcDbMText
 10
15.3017368719
 20
4.0927900738
 30
0.0
 40
3.175
 41
0.0
 71
     1
 72
     1
  1

  7
SLDTEXTSTYLE0
 73
     1
 44
1.0
  0
ENDBLK
  5
144
330
142
100
AcDbEntity
  8
0
100
AcDbBlockEnd
  0
BLOCK
  5
154
330
153
100
AcDbEntity
  8
0
100
AcDbBlockBegin
  2
SW_BLOCK_DIMENSION_19
 70
     0
 10
0.0
 20
0.0
 30
0.0
  3
SW_BLOCK_DIMENSION_19
  1

  0
SOLID
  5
156
330
153
100
AcDbEntity
  8
0
 62
     0
100
AcDbTrace
 10
12.7419915825
 20
5.1887726877
 30
0.0
 11
11.8419915825
 21
0.1887726877
 31
0.0
 12
13.6419915825
 22
0.1887726877
 32
0.0
 13
13.6419915825
 23
0.1887726877
 33
0.0
  0
LINE
  5
157
330
153
100
AcDbEntity
  8
0
 62
     0
100
AcDbLine
 10
3.2925925916
 20
9.671990294
 30
0.0
 11
2.2342592711
 21
9.671990294
 31
0.0
  0
LINE
  5
158
330
153
100
AcDbEntity
  8
0
 62
     0
100
AcDbLine
 10
2.2342592711
 20
9.671990294
 30
0.0
 11
2.2342592711
 21
4.9388883635
 31
0.0
  0
LINE
  5
159
330
153
100
AcDbEntity
  8
0
 62
     0
100
AcDbLine
 10
2.2342592711
 20
4.9388883635
 30
0.0
 11
3.2925925916
 21
4.9388883635
 31
0.0
  0
LINE
  5
15A
330
153
100
AcDbEntity
  8
0
 62
     0
100
AcDbLine
 10
7.6493982924
 20
9.671990294
 30
0.0
 11
8.707731613
 21
9.671990294
 31
0.0
  0
LINE
  5
15B
330
153
100
AcDbEntity
  8
0
 62
     0
100
AcDbLine
 10
8.707731613
 20
9.671990294
 30
0.0
 11
8.707731613
 21
4.9388883635
 31
0.0
  0
LINE
  5
15C
330
153
100
AcDbEntity
  8
0
 62
     0
100
AcDbLine
 10
8.707731613
 20
4.9388883635
 30
0.0
 11
7.6493982924
 21
4.9388883635
 31
0.0
  0
LINE
  5
15D
330
153
100
AcDbEntity
  8
0
 62
     0
100
AcDbLine
 10
20.7299578393
 20
5.1887726877
 30
0.0
 11
10.9419915825
 21
5.1887726877
 31
0.0
  0
LINE
  5
15E
330
153
100
AcDbEntity
  8
0
 62
     0
100
AcDbLine
 10
12.7419915825
 20
-20.2112273123
 30
0.0
 11
12.7419915825
 21
5.1887726877
 31
0.0
  0
MTEXT
  5
15F
330
153
100
AcDbEntity
  8
0
 62
     0
100
AcDbMText
 10
1.190625
 20
4.0927900738
 30
0.0
 40
3.175
 41
0.0
 71
     1
 72
     1
  1

  7
SLDTEXTSTYLE0
 73
     1
 44
1.0
  0
MTEXT
  5
160
330
153
100
AcDbEntity
  8
0
 62
     0
100
AcDbMText
 10
3.2925925916
 20
9.0316784373
 30
0.0
 40
3.175
 41
0.0
 71
     1
 72
     1
  1
5"
  7
SLDTEXTSTYLE0
 73
     1
 44
1.0
  0
MTEXT
  5
161
330
153
100
AcDbEntity
  8
0
 62
     0
100
AcDbMText
 10
1.9432179397
 20
4.0927898409
 30
0.0
 40
3.175
 41
0.0
 71
     1
 72
     1
  1
127
  7
SLDTEXTSTYLE0
 73
     1
 44
1.0
  0
MTEXT
  5
162
330
153
100
AcDbEntity
  8
0
 62
     0
100
AcDbMText
 10
10.9566905156
 20
4.0927900738
 30
0.0
 40
3.175
 41
0.0
 71
     1
 72
     1
  1

  7
SLDTEXTSTYLE0
 73
     1
 44
1.0
  0
ENDBLK
  5
155
330
153
100
AcDbEntity
  8
0
100
AcDbBlockEnd
  0
BLOCK
  5
165
330
164
100
AcDbEntity
  8
0
100
AcDbBlockBegin
  2
SW_NOTE_0
 70
     0
 10
0.0
 20
0.0
 30
0.0
  3
SW_NOTE_0
  1

  0
MTEXT
  5
167
330
164
100
AcDbEntity
  8
0
 62
     0
100
AcDbMText
 10
6.9453125
 20
4.7749217527
 30
0.0
 40
3.7041666667
 41
0.0
 71
     2
 72
     1
  1
(Inch)
  7
SLDTEXTSTYLE0
 73
     1
 44
1.0
  0
MTEXT
  5
168
330
164
100
AcDbEntity
  8
0
 62
     0
100
AcDbMText
 10
6.9624612493
 20
-1.1639672404
 30
0.0
 40
3.7041666667
 41
0.0
 71
     2
 72
     1
  1
mm
  7
SLDTEXTSTYLE0
 73
     1
 44
1.0
  0
ENDBLK
  5
166
330
164
100
AcDbEntity
  8
0
100
AcDbBlockEnd
  0
BLOCK
  5
16B
330
16A
100
AcDbEntity
  8
0
100
AcDbBlockBegin
  2
SW_NOTE_0_1
 70
     0
 10
0.0
 20
0.0
 30
0.0
  3
SW_NOTE_0_1
  1

  0
MTEXT
  5
16D
330
16A
100
AcDbEntity
  8
0
 62
     0
100
AcDbMText
 10
0.0
 20
4.7749217527
 30
0.0
 40
3.7041666667
 41
0.0
 71
     1
 72
     1
  1
mm
  7
SLDTEXTSTYLE0
 73
     1
 44
1.0
  0
ENDBLK
  5
16C
330
16A
100
AcDbEntity
  8
0
100
AcDbBlockEnd
  0
BLOCK
  5
17A
330
179
100
AcDbEntity
  8
0
100
AcDbBlockBegin
  2
SW_NOTE_0_2
 70
     0
 10
0.0
 20
0.0
 30
0.0
  3
SW_NOTE_0_2
  1

  0
MTEXT
  5
17C
330
179
100
AcDbEntity
  8
0
  6
Continuous
 62
     0
370
     0
100
AcDbMText
 10
20.290234375
 20
4.0927900738
 30
0.0
 40
3.175
 41
0.0
 71
     2
 72
     1
  1
ABP-Beyerle GmbH
  7
SLDTEXTSTYLE0
 73
     1
 44
1.0
  0
MTEXT
  5
17D
330
179
100
AcDbEntity
  8
0
  6
Continuous
 62
     0
370
     0
100
AcDbMText
 10
21.2512009293
 20
-0.1405432084
 30
0.0
 40
3.175
 41
0.0
 71
     2
 72
     1
  1
Im Schollengarten 24b, 76646 Bruchsal
  7
SLDTEXTSTYLE0
 73
     1
 44
1.0
  0
MTEXT
  5
17E
330
179
100
AcDbEntity
  8
0
  6
Continuous
 62
     0
370
     0
100
AcDbMText
 10
21.3320523173
 20
-4.3738764906
 30
0.0
 40
3.175
 41
0.0
 71
     2
 72
     1
  1
Tel. +49 (0)7251-9127-0, Fax. +49 (0)7251-9127-29
  7
SLDTEXTSTYLE0
 73
     1
 44
1.0
  0
MTEXT
  5
17F
330
179
100
AcDbEntity
  8
0
  6
Continuous
 62
     0
370
     0
100
AcDbMText
 10
21.5337864727
 20
-8.6072097727
 30
0.0
 40
3.175
 41
0.0
 71
     2
 72
     1
  1
info@abp-beyerle.de, www.abp-beyerle.de
  7
SLDTEXTSTYLE0
 73
     1
 44
1.0
  0
ENDBLK
  5
17B
330
179
100
AcDbEntity
  8
0
100
AcDbBlockEnd
  0
BLOCK
  5
1AA
330
1A9
100
AcDbEntity
  8
0
100
AcDbBlockBegin
  2
_D
 70
     0
 10
0.0
 20
0.0
 30
0.0
  3
_D
  1

  0
SOLID
  5
1AC
330
1A9
100
AcDbEntity
  8
0
100
AcDbTrace
 10
230.2241665737
 20
254.4065718578
 30
0.0
 11
229.3241665737
 21
249.4065718578
 31
0.0
 12
231.1241665737
 22
249.4065718578
 32
0.0
 13
231.1241665737
 23
249.4065718578
 33
0.0
  0
SOLID
  5
1AD
330
1A9
100
AcDbEntity
  8
0
100
AcDbTrace
 10
230.2241665737
 20
214.4065718578
 30
0.0
 11
231.1241665737
 21
219.4065718578
 31
0.0
 12
229.3241665737
 22
219.4065718578
 32
0.0
 13
229.3241665737
 23
219.4065718578
 33
0.0
  0
LINE
  5
1AE
330
1A9
100
AcDbEntity
  8
0
100
AcDbLine
 10
217.8893741646
 20
229.5836551573
 30
0.0
 11
217.8893741646
 21
228.6695926676
 31
0.0
  0
LINE
  5
1AF
330
1A9
100
AcDbEntity
  8
0
100
AcDbLine
 10
217.8893741646
 20
228.6695926676
 30
0.0
 11
225.7356243633
 21
228.6695926676
 31
0.0
  0
LINE
  5
1B0
330
1A9
100
AcDbEntity
  8
0
100
AcDbLine
 10
225.7356243633
 20
228.6695926676
 30
0.0
 11
225.7356243633
 21
229.5836551573
 31
0.0
  0
LINE
  5
1B1
330
1A9
100
AcDbEntity
  8
0
100
AcDbLine
 10
217.8893741646
 20
239.2294878598
 30
0.0
 11
217.8893741646
 21
240.1435503496
 31
0.0
  0
LINE
  5
1B2
330
1A9
100
AcDbEntity
  8
0
100
AcDbLine
 10
217.8893741646
 20
240.1435503496
 30
0.0
 11
225.7356243633
 21
240.1435503496
 31
0.0
  0
LINE
  5
1B3
330
1A9
100
AcDbEntity
  8
0
100
AcDbLine
 10
225.7356243633
 20
240.1435503496
 30
0.0
 11
225.7356243633
 21
239.2294878598
 31
0.0
  0
LINE
  5
1B4
330
1A9
100
AcDbEntity
  8
0
100
AcDbLine
 10
221.5047908674
 20
232.2399051853
 30
0.0
 11
221.5047908674
 21
237.5524052411
 31
0.0
  0
LINE
  5
1B5
330
1A9
100
AcDbEntity
  8
0
100
AcDbLine
 10
208.2241665737
 20
254.4065718578
 30
0.0
 11
231.2241665737
 21
254.4065718578
 31
0.0
  0
LINE
  5
1B6
330
1A9
100
AcDbEntity
  8
0
100
AcDbLine
 10
208.2241665737
 20
214.4065718578
 30
0.0
 11
231.2241665737
 21
214.4065718578
 31
0.0
  0
LINE
  5
1B7
330
1A9
100
AcDbEntity
  8
0
100
AcDbLine
 10
230.2241665737
 20
254.4065718578
 30
0.0
 11
230.2241665737
 21
214.4065718578
 31
0.0
  0
MTEXT
  5
1B8
330
1A9
100
AcDbEntity
  8
0
100
AcDbMText
 10
226.3111300601
 20
227.7721968258
 30
0.0
 40
3.0
 41
0.0
 71
     1
 72
     1
  1

  7
SLDTEXTSTYLE1
 11
-7.044195017643634E-15
 21
1.0
 31
0.0
 73
     1
 44
1.0
  0
MTEXT
  5
1B9
330
1A9
100
AcDbEntity
  8
0
100
AcDbMText
 10
220.0932126326
 20
229.5836551573
 30
0.0
 40
3.0
 41
0.0
 71
     1
 72
     1
  1
1
  7
SLDTEXTSTYLE1
 11
-7.044195017643634E-15
 21
1.0
 31
0.0
 73
     1
 44
1.0
  0
MTEXT
  5
1BA
330
1A9
100
AcDbEntity
  8
0
100
AcDbMText
 10
217.9013376191
 20
232.6794885092
 30
0.0
 40
3.0
 41
0.0
 71
     1
 72
     1
  1
37
  7
SLDTEXTSTYLE1
 11
-7.044195017643634E-15
 21
1.0
 31
0.0
 73
     1
 44
1.0
  0
MTEXT
  5
1BB
330
1A9
100
AcDbEntity
  8
0
100
AcDbMText
 10
221.8684209621
 20
232.6794885092
 30
0.0
 40
3.0
 41
0.0
 71
     1
 72
     1
  1
64
  7
SLDTEXTSTYLE1
 11
-7.044195017643634E-15
 21
1.0
 31
0.0
 73
     1
 44
1.0
  0
MTEXT
  5
1BC
330
1A9
100
AcDbEntity
  8
0
100
AcDbMText
 10
220.0932126326
 20
237.9919883322
 30
0.0
 40
3.0
 41
0.0
 71
     1
 72
     1
  1
"
  7
SLDTEXTSTYLE1
 11
-7.044195017643634E-15
 21
1.0
 31
0.0
 73
     1
 44
1.0
  0
MTEXT
  5
1BD
330
1A9
100
AcDbEntity
  8
0
100
AcDbMText
 10
226.3569628887
 20
232.1899050374
 30
0.0
 40
3.0
 41
0.0
 71
     1
 72
     1
  1
40
  7
SLDTEXTSTYLE1
 11
-7.044195017643634E-15
 21
1.0
 31
0.0
 73
     1
 44
1.0
  0
MTEXT
  5
1BE
330
1A9
100
AcDbEntity
  8
0
100
AcDbMText
 10
226.3111300601
 20
242.1826134214
 30
0.0
 40
3.0
 41
0.0
 71
     1
 72
     1
  1

  7
SLDTEXTSTYLE1
 11
-7.044195017643634E-15
 21
1.0
 31
0.0
 73
     1
 44
1.0
  0
ENDBLK
  5
1AB
330
1A9
100
AcDbEntity
  8
0
100
AcDbBlockEnd
  0
BLOCK
  5
220
330
21F
100
AcDbEntity
  8
0
100
AcDbBlockBegin
  2
_D_1
 70
     0
 10
0.0
 20
0.0
 30
0.0
  3
_D_1
  1

  0
SOLID
  5
222
330
21F
100
AcDbEntity
  8
0
100
AcDbTrace
 10
218.2241665737
 20
78.0027622745
 30
0.0
 11
219.1241665737
 21
83.0027622745
 31
0.0
 12
217.3241665737
 22
83.0027622745
 32
0.0
 13
217.3241665737
 23
83.0027622745
 33
0.0
  0
SOLID
  5
223
330
21F
100
AcDbEntity
  8
0
100
AcDbTrace
 10
218.2241665737
 20
146.0027622745
 30
0.0
 11
217.3241665737
 21
141.0027622745
 31
0.0
 12
219.1241665737
 22
141.0027622745
 32
0.0
 13
219.1241665737
 23
141.0027622745
 33
0.0
  0
LINE
  5
224
330
21F
100
AcDbEntity
  8
0
100
AcDbLine
 10
205.8893741646
 20
107.179845574
 30
0.0
 11
205.8893741646
 21
106.2657830842
 31
0.0
  0
LINE
  5
225
330
21F
100
AcDbEntity
  8
0
100
AcDbLine
 10
205.8893741646
 20
106.2657830842
 30
0.0
 11
213.7356243633
 21
106.2657830842
 31
0.0
  0
LINE
  5
226
330
21F
100
AcDbEntity
  8
0
100
AcDbLine
 10
213.7356243633
 20
106.2657830842
 30
0.0
 11
213.7356243633
 21
107.179845574
 31
0.0
  0
LINE
  5
227
330
21F
100
AcDbEntity
  8
0
100
AcDbLine
 10
205.8893741646
 20
116.8256782765
 30
0.0
 11
205.8893741646
 21
117.7397407663
 31
0.0
  0
LINE
  5
228
330
21F
100
AcDbEntity
  8
0
100
AcDbLine
 10
205.8893741646
 20
117.7397407663
 30
0.0
 11
213.7356243633
 21
117.7397407663
 31
0.0
  0
LINE
  5
229
330
21F
100
AcDbEntity
  8
0
100
AcDbLine
 10
213.7356243633
 20
117.7397407663
 30
0.0
 11
213.7356243633
 21
116.8256782765
 31
0.0
  0
LINE
  5
22A
330
21F
100
AcDbEntity
  8
0
100
AcDbLine
 10
209.5047908674
 20
109.8360956019
 30
0.0
 11
209.5047908674
 21
115.1485956578
 31
0.0
  0
LINE
  5
22B
330
21F
100
AcDbEntity
  8
0
100
AcDbLine
 10
200.7241665737
 20
78.0027622745
 30
0.0
 11
219.2241665737
 21
78.0027622745
 31
0.0
  0
LINE
  5
22C
330
21F
100
AcDbEntity
  8
0
100
AcDbLine
 10
124.7241665737
 20
146.0027622745
 30
0.0
 11
219.2241665737
 21
146.0027622745
 31
0.0
  0
LINE
  5
22D
330
21F
100
AcDbEntity
  8
0
100
AcDbLine
 10
218.2241665737
 20
78.0027622745
 30
0.0
 11
218.2241665737
 21
146.0027622745
 31
0.0
  0
MTEXT
  5
22E
330
21F
100
AcDbEntity
  8
0
100
AcDbMText
 10
214.3111300601
 20
105.3683872425
 30
0.0
 40
3.0
 41
0.0
 71
     1
 72
     1
  1

  7
SLDTEXTSTYLE1
 11
6.123233995736766E-17
 21
1.0
 31
0.0
 73
     1
 44
1.0
  0
MTEXT
  5
22F
330
21F
100
AcDbEntity
  8
0
100
AcDbMText
 10
208.0932126326
 20
107.179845574
 30
0.0
 40
3.0
 41
0.0
 71
     1
 72
     1
  1
2
  7
SLDTEXTSTYLE1
 11
6.123233995736766E-17
 21
1.0
 31
0.0
 73
     1
 44
1.0
  0
MTEXT
  5
230
330
21F
100
AcDbEntity
  8
0
100
AcDbMText
 10
205.9013376191
 20
110.2756789258
 30
0.0
 40
3.0
 41
0.0
 71
     1
 72
     1
  1
43
  7
SLDTEXTSTYLE1
 11
6.123233995736766E-17
 21
1.0
 31
0.0
 73
     1
 44
1.0
  0
MTEXT
  5
231
330
21F
100
AcDbEntity
  8
0
100
AcDbMText
 10
209.8684209621
 20
110.2756789258
 30
0.0
 40
3.0
 41
0.0
 71
     1
 72
     1
  1
64
  7
SLDTEXTSTYLE1
 11
6.123233995736766E-17
 21
1.0
 31
0.0
 73
     1
 44
1.0
  0
MTEXT
  5
232
330
21F
100
AcDbEntity
  8
0
100
AcDbMText
 10
208.0932126326
 20
115.5881787489
 30
0.0
 40
3.0
 41
0.0
 71
     1
 72
     1
  1
"
  7
SLDTEXTSTYLE1
 11
6.123233995736766E-17
 21
1.0
 31
0.0
 73
     1
 44
1.0
  0
MTEXT
  5
233
330
21F
100
AcDbEntity
  8
0
100
AcDbMText
 10
214.3569628887
 20
109.786095454
 30
0.0
 40
3.0
 41
0.0
 71
     1
 72
     1
  1
68
  7
SLDTEXTSTYLE1
 11
6.123233995736766E-17
 21
1.0
 31
0.0
 73
     1
 44
1.0
  0
MTEXT
  5
234
330
21F
100
AcDbEntity
  8
0
100
AcDbMText
 10
214.3111300601
 20
119.7788038381
 30
0.0
 40
3.0
 41
0.0
 71
     1
 72
     1
  1

  7
SLDTEXTSTYLE1
 11
6.123233995736766E-17
 21
1.0
 31
0.0
 73
     1
 44
1.0
  0
ENDBLK
  5
221
330
21F
100
AcDbEntity
  8
0
100
AcDbBlockEnd
  0
BLOCK
  5
237
330
236
100
AcDbEntity
  8
0
100
AcDbBlockBegin
  2
_D_2
 70
     0
 10
0.0
 20
0.0
 30
0.0
  3
_D_2
  1

  0
SOLID
  5
239
330
236
100
AcDbEntity
  8
0
100
AcDbTrace
 10
114.2241665737
 20
176.1767939894
 30
0.0
 11
119.2241665737
 21
175.2767939894
 31
0.0
 12
119.2241665737
 22
177.0767939894
 32
0.0
 13
119.2241665737
 23
177.0767939894
 33
0.0
  0
SOLID
  5
23A
330
236
100
AcDbEntity
  8
0
100
AcDbTrace
 10
182.2241665737
 20
176.1767939894
 30
0.0
 11
177.2241665737
 21
177.0767939894
 31
0.0
 12
177.2241665737
 22
175.2767939894
 32
0.0
 13
177.2241665737
 23
175.2767939894
 33
0.0
  0
LINE
  5
23B
330
236
100
AcDbEntity
  8
0
100
AcDbLine
 10
143.4012498732
 20
188.5115863985
 30
0.0
 11
142.4871873834
 21
188.5115863985
 31
0.0
  0
LINE
  5
23C
330
236
100
AcDbEntity
  8
0
100
AcDbLine
 10
142.4871873834
 20
188.5115863985
 30
0.0
 11
142.4871873834
 21
180.6653361997
 31
0.0
  0
LINE
  5
23D
330
236
100
AcDbEntity
  8
0
100
AcDbLine
 10
142.4871873834
 20
180.6653361997
 30
0.0
 11
143.4012498732
 21
180.6653361997
 31
0.0
  0
LINE
  5
23E
330
236
100
AcDbEntity
  8
0
100
AcDbLine
 10
153.0470825757
 20
188.5115863985
 30
0.0
 11
153.9611450654
 21
188.5115863985
 31
0.0
  0
LINE
  5
23F
330
236
100
AcDbEntity
  8
0
100
AcDbLine
 10
153.9611450654
 20
188.5115863985
 30
0.0
 11
153.9611450654
 21
180.6653361997
 31
0.0
  0
LINE
  5
240
330
236
100
AcDbEntity
  8
0
100
AcDbLine
 10
153.9611450654
 20
180.6653361997
 30
0.0
 11
153.0470825757
 21
180.6653361997
 31
0.0
  0
LINE
  5
241
330
236
100
AcDbEntity
  8
0
100
AcDbLine
 10
146.0574999011
 20
184.8961696957
 30
0.0
 11
151.369999957
 21
184.8961696957
 31
0.0
  0
LINE
  5
242
330
236
100
AcDbEntity
  8
0
100
AcDbLine
 10
114.2241665737
 20
164.5027622745
 30
0.0
 11
114.2241665737
 21
177.1767939894
 31
0.0
  0
LINE
  5
243
330
236
100
AcDbEntity
  8
0
100
AcDbLine
 10
182.2241665737
 20
88.5027622745
 30
0.0
 11
182.2241665737
 21
177.1767939894
 31
0.0
  0
LINE
  5
244
330
236
100
AcDbEntity
  8
0
100
AcDbLine
 10
114.2241665737
 20
176.1767939894
 30
0.0
 11
182.2241665737
 21
176.1767939894
 31
0.0
  0
MTEXT
  5
245
330
236
100
AcDbEntity
  8
0
100
AcDbMText
 10
141.5897915416
 20
180.089830503
 30
0.0
 40
3.0
 41
0.0
 71
     1
 72
     1
  1

  7
SLDTEXTSTYLE1
 73
     1
 44
1.0
  0
MTEXT
  5
246
330
236
100
AcDbEntity
  8
0
100
AcDbMText
 10
143.4012498732
 20
186.3077479304
 30
0.0
 40
3.0
 41
0.0
 71
     1
 72
     1
  1
2
  7
SLDTEXTSTYLE1
 73
     1
 44
1.0
  0
MTEXT
  5
247
330
236
100
AcDbEntity
  8
0
100
AcDbMText
 10
146.497083225
 20
188.4996229439
 30
0.0
 40
3.0
 41
0.0
 71
     1
 72
     1
  1
43
  7
SLDTEXTSTYLE1
 73
     1
 44
1.0
  0
MTEXT
  5
248
330
236
100
AcDbEntity
  8
0
100
AcDbMText
 10
146.497083225
 20
184.5325396009
 30
0.0
 40
3.0
 41
0.0
 71
     1
 72
     1
  1
64
  7
SLDTEXTSTYLE1
 73
     1
 44
1.0
  0
MTEXT
  5
249
330
236
100
AcDbEntity
  8
0
100
AcDbMText
 10
151.809583048
 20
186.3077479304
 30
0.0
 40
3.0
 41
0.0
 71
     1
 72
     1
  1
"
  7
SLDTEXTSTYLE1
 73
     1
 44
1.0
  0
MTEXT
  5
24A
330
236
100
AcDbEntity
  8
0
100
AcDbMText
 10
146.0074997532
 20
180.0439976744
 30
0.0
 40
3.0
 41
0.0
 71
     1
 72
     1
  1
68
  7
SLDTEXTSTYLE1
 73
     1
 44
1.0
  0
MTEXT
  5
24B
330
236
100
AcDbEntity
  8
0
100
AcDbMText
 10
156.0002081373
 20
180.089830503
 30
0.0
 40
3.0
 41
0.0
 71
     1
 72
     1
  1

  7
SLDTEXTSTYLE1
 73
     1
 44
1.0
  0
ENDBLK
  5
238
330
236
100
AcDbEntity
  8
0
100
AcDbBlockEnd
  0
BLOCK
  5
24E
330
24D
100
AcDbEntity
  8
0
100
AcDbBlockBegin
  2
_D_3
 70
     0
 10
0.0
 20
0.0
 30
0.0
  3
_D_3
  1

  0
SOLID
  5
250
330
24D
100
AcDbEntity
  8
0
100
AcDbTrace
 10
173.2741665737
 20
46.0027622745
 30
0.0
 11
178.2741665737
 21
45.1027622745
 31
0.0
 12
178.2741665737
 22
46.9027622745
 32
0.0
 13
178.2741665737
 23
46.9027622745
 33
0.0
  0
SOLID
  5
251
330
24D
100
AcDbEntity
  8
0
100
AcDbTrace
 10
191.1741665737
 20
46.0027622745
 30
0.0
 11
186.1741665737
 21
46.9027622745
 31
0.0
 12
186.1741665737
 22
45.1027622745
 32
0.0
 13
186.1741665737
 23
45.1027622745
 33
0.0
  0
LINE
  5
252
330
24D
100
AcDbEntity
  8
0
100
AcDbLine
 10
206.0120709491
 20
59.2208880686
 30
0.0
 11
205.0980084593
 21
59.2208880686
 31
0.0
  0
LINE
  5
253
330
24D
100
AcDbEntity
  8
0
100
AcDbLine
 10
205.0980084593
 20
59.2208880686
 30
0.0
 11
205.0980084593
 21
51.3746378698
 31
0.0
  0
LINE
  5
254
330
24D
100
AcDbEntity
  8
0
100
AcDbLine
 10
205.0980084593
 20
51.3746378698
 30
0.0
 11
206.0120709491
 21
51.3746378698
 31
0.0
  0
LINE
  5
255
330
24D
100
AcDbEntity
  8
0
100
AcDbLine
 10
213.441237646
 20
59.2208880686
 30
0.0
 11
214.3553001358
 21
59.2208880686
 31
0.0
  0
LINE
  5
256
330
24D
100
AcDbEntity
  8
0
100
AcDbLine
 10
214.3553001358
 20
59.2208880686
 30
0.0
 11
214.3553001358
 21
51.3746378698
 31
0.0
  0
LINE
  5
257
330
24D
100
AcDbEntity
  8
0
100
AcDbLine
 10
214.3553001358
 20
51.3746378698
 30
0.0
 11
213.441237646
 21
51.3746378698
 31
0.0
  0
LINE
  5
258
330
24D
100
AcDbEntity
  8
0
100
AcDbLine
 10
206.451654273
 20
55.6054713658
 30
0.0
 11
211.7641543288
 21
55.6054713658
 31
0.0
  0
LINE
  5
259
330
24D
100
AcDbEntity
  8
0
100
AcDbLine
 10
173.2741665737
 20
77.0027622745
 30
0.0
 11
173.2741665737
 21
45.0027622745
 31
0.0
  0
LINE
  5
25A
330
24D
100
AcDbEntity
  8
0
100
AcDbLine
 10
191.1741665737
 20
77.0027622745
 30
0.0
 11
191.1741665737
 21
45.0027622745
 31
0.0
  0
LINE
  5
25B
330
24D
100
AcDbEntity
  8
0
100
AcDbLine
 10
173.2741665737
 20
46.0027622745
 30
0.0
 11
191.1741665737
 21
46.0027622745
 31
0.0
  0
LINE
  5
25C
330
24D
100
AcDbEntity
  8
0
100
AcDbLine
 10
191.1741665737
 20
46.0027622745
 30
0.0
 11
216.9763423287
 21
46.0027622745
 31
0.0
  0
MTEXT
  5
25D
330
24D
100
AcDbEntity
  8
0
100
AcDbMText
 10
206.8912375969
 20
59.208924614
 30
0.0
 40
3.0
 41
0.0
 71
     1
 72
     1
  1
45
  7
SLDTEXTSTYLE1
 73
     1
 44
1.0
  0
MTEXT
  5
25E
330
24D
100
AcDbEntity
  8
0
100
AcDbMText
 10
206.8912375969
 20
55.241841271
 30
0.0
 40
3.0
 41
0.0
 71
     1
 72
     1
  1
64
  7
SLDTEXTSTYLE1
 73
     1
 44
1.0
  0
MTEXT
  5
25F
330
24D
100
AcDbEntity
  8
0
100
AcDbMText
 10
212.2037376527
 20
57.0170496005
 30
0.0
 40
3.0
 41
0.0
 71
     1
 72
     1
  1
"
  7
SLDTEXTSTYLE1
 73
     1
 44
1.0
  0
MTEXT
  5
260
330
24D
100
AcDbEntity
  8
0
100
AcDbMText
 10
202.4769667321
 20
49.8699659595
 30
0.0
 40
3.0
 41
0.0
 71
     1
 72
     1
  1
%%c
  7
SLDTEXTSTYLE1
 73
     1
 44
1.0
  0
MTEXT
  5
261
330
24D
100
AcDbEntity
  8
0
100
AcDbMText
 10
207.0013415784
 20
49.8699659595
 30
0.0
 40
3.0
 41
0.0
 71
     1
 72
     1
  1
17,90
  7
SLDTEXTSTYLE1
 73
     1
 44
1.0
  0
ENDBLK
  5
24F
330
24D
100
AcDbEntity
  8
0
100
AcDbBlockEnd
  0
BLOCK
  5
264
330
263
100
AcDbEntity
  8
0
100
AcDbBlockBegin
  2
_D_4
 70
     0
 10
0.0
 20
0.0
 30
0.0
  3
_D_4
  1

  0
SOLID
  5
266
330
263
100
AcDbEntity
  8
0
100
AcDbTrace
 10
88.2241665737
 20
137.0527622745
 30
0.0
 11
89.1241665737
 21
142.0527622745
 31
0.0
 12
87.3241665737
 22
142.0527622745
 32
0.0
 13
87.3241665737
 23
142.0527622745
 33
0.0
  0
SOLID
  5
267
330
263
100
AcDbEntity
  8
0
100
AcDbTrace
 10
88.2241665737
 20
154.9527622745
 30
0.0
 11
87.3241665737
 21
149.9527622745
 31
0.0
 12
89.1241665737
 22
149.9527622745
 32
0.0
 13
89.1241665737
 23
149.9527622745
 33
0.0
  0
LINE
  5
268
330
263
100
AcDbEntity
  8
0
100
AcDbLine
 10
75.0060407796
 20
164.9505333795
 30
0.0
 11
75.0060407796
 21
164.0364708897
 31
0.0
  0
LINE
  5
269
330
263
100
AcDbEntity
  8
0
100
AcDbLine
 10
75.0060407796
 20
164.0364708897
 30
0.0
 11
82.8522909784
 21
164.0364708897
 31
0.0
  0
LINE
  5
26A
330
263
100
AcDbEntity
  8
0
100
AcDbLine
 10
82.8522909784
 20
164.0364708897
 30
0.0
 11
82.8522909784
 21
164.9505333795
 31
0.0
  0
LINE
  5
26B
330
263
100
AcDbEntity
  8
0
100
AcDbLine
 10
75.0060407796
 20
172.3797000764
 30
0.0
 11
75.0060407796
 21
173.2937625662
 31
0.0
  0
LINE
  5
26C
330
263
100
AcDbEntity
  8
0
100
AcDbLine
 10
75.0060407796
 20
173.2937625662
 30
0.0
 11
82.8522909784
 21
173.2937625662
 31
0.0
  0
LINE
  5
26D
330
263
100
AcDbEntity
  8
0
100
AcDbLine
 10
82.8522909784
 20
173.2937625662
 30
0.0
 11
82.8522909784
 21
172.3797000764
 31
0.0
  0
LINE
  5
26E
330
263
100
AcDbEntity
  8
0
100
AcDbLine
 10
78.6214574824
 20
165.3901167034
 30
0.0
 11
78.6214574824
 21
170.7026167592
 31
0.0
  0
LINE
  5
26F
330
263
100
AcDbEntity
  8
0
100
AcDbLine
 10
113.2241665737
 20
137.0527622745
 30
0.0
 11
87.2241665737
 21
137.0527622745
 31
0.0
  0
LINE
  5
270
330
263
100
AcDbEntity
  8
0
100
AcDbLine
 10
113.2241665737
 20
154.9527622745
 30
0.0
 11
87.2241665737
 21
154.9527622745
 31
0.0
  0
LINE
  5
271
330
263
100
AcDbEntity
  8
0
100
AcDbLine
 10
88.2241665737
 20
137.0527622745
 30
0.0
 11
88.2241665737
 21
154.9527622745
 31
0.0
  0
LINE
  5
272
330
263
100
AcDbEntity
  8
0
100
AcDbLine
 10
88.2241665737
 20
154.9527622745
 30
0.0
 11
88.2241665737
 21
175.9148047591
 31
0.0
  0
MTEXT
  5
273
330
263
100
AcDbEntity
  8
0
100
AcDbMText
 10
75.0180042341
 20
165.8297000273
 30
0.0
 40
3.0
 41
0.0
 71
     1
 72
     1
  1
45
  7
SLDTEXTSTYLE1
 11
6.123233995736766E-17
 21
1.0
 31
0.0
 73
     1
 44
1.0
  0
MTEXT
  5
274
330
263
100
AcDbEntity
  8
0
100
AcDbMText
 10
78.9850875771
 20
165.8297000273
 30
0.0
 40
3.0
 41
0.0
 71
     1
 72
     1
  1
64
  7
SLDTEXTSTYLE1
 11
6.123233995736766E-17
 21
1.0
 31
0.0
 73
     1
 44
1.0
  0
MTEXT
  5
275
330
263
100
AcDbEntity
  8
0
100
AcDbMText
 10
77.2098792477
 20
171.1422000831
 30
0.0
 40
3.0
 41
0.0
 71
     1
 72
     1
  1
"
  7
SLDTEXTSTYLE1
 11
6.123233995736766E-17
 21
1.0
 31
0.0
 73
     1
 44
1.0
  0
MTEXT
  5
276
330
263
100
AcDbEntity
  8
0
100
AcDbMText
 10
84.3569628887
 20
161.4154291625
 30
0.0
 40
3.0
 41
0.0
 71
     1
 72
     1
  1
%%c
  7
SLDTEXTSTYLE1
 11
6.123233995736766E-17
 21
1.0
 31
0.0
 73
     1
 44
1.0
  0
MTEXT
  5
277
330
263
100
AcDbEntity
  8
0
100
AcDbMText
 10
84.3569628887
 20
165.9398040088
 30
0.0
 40
3.0
 41
0.0
 71
     1
 72
     1
  1
17,90
  7
SLDTEXTSTYLE1
 11
6.123233995736766E-17
 21
1.0
 31
0.0
 73
     1
 44
1.0
  0
ENDBLK
  5
265
330
263
100
AcDbEntity
  8
0
100
AcDbBlockEnd
  0
ENDSEC
  0
SECTION
  2
ENTITIES
  0
LINE
  5
16F
330
1F
100
AcDbEntity
  8
0
100
AcDbLine
 10
127.4819306314
 20
27.1626886523
 30
0.0
 11
127.4819306314
 21
7.1626886523
 31
0.0
  0
LINE
  5
170
330
1F
100
AcDbEntity
  8
0
100
AcDbLine
 10
127.4819306314
 20
7.1626886523
 30
0.0
 11
231.2890403829
 21
7.1626886523
 31
0.0
  0
LINE
  5
171
330
1F
100
AcDbEntity
  8
0
100
AcDbLine
 10
231.2890403829
 20
7.1626886523
 30
0.0
 11
231.2890403829
 21
27.1626886523
 31
0.0
  0
LINE
  5
172
330
1F
100
AcDbEntity
  8
0
100
AcDbLine
 10
231.2890403829
 20
27.1626886523
 30
0.0
 11
127.4819306314
 21
27.1626886523
 31
0.0
  0
LINE
  5
173
330
1F
100
AcDbEntity
  8
0
100
AcDbLine
 10
231.2890403829
 20
17.1626886523
 30
0.0
 11
127.4819306314
 21
17.1626886523
 31
0.0
  0
LINE
  5
174
330
1F
100
AcDbEntity
  8
0
100
AcDbLine
 10
188.5336333335
 20
27.1626886523
 30
0.0
 11
188.5336333335
 21
7.1626886523
 31
0.0
  0
INSERT
  5
175
330
1F
100
AcDbEntity
  8
0
100
AcDbBlockReference
  2
Block5
 10
19.561342692
 20
-6.9223244521
 30
0.0
  0
MTEXT
  5
177
330
1F
100
AcDbEntity
  8
0
  6
Continuous
 62
     7
370
     0
100
AcDbMText
 10
402.5
 20
14.7189135832
 30
0.0
 40
6.35
 41
0.0
 71
     1
 72
     1
  1
1:1
  7
SLDTEXTSTYLE1
 73
     1
 44
1.0
  0
MTEXT
  5
178
330
1F
100
AcDbEntity
  8
0
  6
Continuous
 62
     7
370
     0
100
AcDbMText
 10
190.3749692016
 20
25.1056679674
 30
0.0
 40
4.2333333333
 41
0.0
 71
     1
 72
     1
  1
USO274EF-AB
  7
SLDTEXTSTYLE1
 73
     1
 44
1.0
  0
INSERT
  5
180
330
1F
100
AcDbEntity
  8
0
  6
Continuous
 62
     7
370
     0
100
AcDbBlockReference
  2
SW_NOTE_0_2
 10
35.4202146835
 20
20.1681939512
 30
0.0
  0
MTEXT
  5
181
330
1F
100
AcDbEntity
  8
0
100
AcDbMText
 10
131.6112989967
 20
25.1056677346
 30
0.0
 40
4.2333333333
 41
0.0
 71
     1
 72
     1
  1
Artikelnummer
  7
SLDTEXTSTYLE1
 73
     1
 44
1.0
  0
MTEXT
  5
182
330
1F
100
AcDbEntity
  8
0
100
AcDbMText
 10
131.6112989967
 20
15.1068467326
 30
0.0
 40
4.2333333333
 41
0.0
 71
     1
 72
     1
  1
Index
  7
SLDTEXTSTYLE1
 73
     1
 44
1.0
  0
MTEXT
  5
183
330
1F
100
AcDbEntity
  8
0
100
AcDbMText
 10
191.3424447454
 20
14.5571014523
 30
0.0
 40
4.2333333333
 41
0.0
 71
     1
 72
     1
  1
0
  7
SLDTEXTSTYLE1
 73
     1
 44
1.0
  0
LINE
  5
184
330
1F
100
AcDbEntity
  8
0
  6
Continuous
 62
     7
370
    25
100
AcDbLine
 10
98.9741665737
 20
253.0565718578
 30
0.0
 11
98.2241665737
 21
252.3065718578
 31
0.0
  0
LINE
  5
185
330
1F
100
AcDbEntity
  8
0
  6
Continuous
 62
     7
370
    25
100
AcDbLine
 10
98.2241665737
 20
216.3065718578
 30
0.0
 11
98.9741665737
 21
215.5565718578
 31
0.0
  0
LINE
  5
186
330
1F
100
AcDbEntity
  8
0
  6
Continuous
 62
     7
370
    25
100
AcDbLine
 10
103.5978974756
 20
215.5565718578
 30
0.0
 11
104.2241665737
 21
215.5565718578
 31
0.0
  0
LINE
  5
187
330
1F
100
AcDbEntity
  8
0
  6
Continuous
 62
     7
370
    25
100
AcDbLine
 10
98.9741665737
 20
215.5565718578
 30
0.0
 11
99.4241665737
 21
215.5565718578
 31
0.0
  0
LINE
  5
188
330
1F
100
AcDbEntity
  8
0
  6
Continuous
 62
     7
370
    25
100
AcDbLine
 10
99.4504356717
 20
253.0565718578
 30
0.0
 11
98.9741665737
 21
253.0565718578
 31
0.0
  0
LINE
  5
189
330
1F
100
AcDbEntity
  8
0
  6
Continuous
 62
     7
370
    25
100
AcDbLine
 10
104.2241665737
 20
253.0565718578
 30
0.0
 11
103.6241665737
 21
253.0565718578
 31
0.0
  0
CIRCLE
  5
18A
330
1F
100
AcDbEntity
  8
0
  6
Continuous
 62
     7
370
    25
100
AcDbCircle
 10
182.2241665737
 20
234.3065718578
 30
0.0
 40
18.75000000000028
  0
CIRCLE
  5
18B
330
1F
100
AcDbEntity
  8
0
  6
Continuous
 62
     7
370
    25
100
AcDbCircle
 10
182.2241665737
 20
234.3065718578
 30
0.0
 40
18.00000000000027
  0
LINE
  5
18C
330
1F
100
AcDbEntity
  8
0
  6
Continuous
 62
     7
370
    25
100
AcDbLine
 10
98.9741665737
 20
253.0565718578
 30
0.0
 11
98.9741665737
 21
215.5565718578
 31
0.0
  0
LINE
  5
18D
330
1F
100
AcDbEntity
  8
0
  6
Continuous
 62
     7
370
    25
100
AcDbLine
 10
98.2241665737
 20
216.3065718578
 30
0.0
 11
98.2241665737
 21
252.3065718578
 31
0.0
  0
SPLINE
  5
18E
330
1F
100
AcDbEntity
  8
0
  6
Continuous
 62
     7
370
    25
100
AcDbSpline
210
0.0
220
0.0
230
1.0
 70
     8
 71
     3
 72
    17
 73
    13
 74
     0
 42
0.000000001
 43
0.00000001
 40
0.0
 40
0.0
 40
0.0
 40
0.0
 40
0.1069146075546185
 40
0.2138131957825003
 40
0.3211284641090262
 40
0.4287268938277913
 40
0.5358688264108836
 40
0.6425263570340971
 40
0.7494272702455314
 40
0.8569181333416536
 40
0.9644285773322423
 40
0.9999999999999999
 40
0.9999999999999999
 40
0.9999999999999999
 40
0.9999999999999999
 10
99.42416657366083
 20
215.5565718578291
 30
0.0
 10
99.44723672600372
 20
215.5592282265007
 30
0.0
 10
99.49337357402146
 20
215.5645405658324
 30
0.0
 10
99.85284513515656
 20
215.6015265318145
 30
0.0
 10
100.3834078146228
 20
215.6429044544933
 30
0.0
 10
101.0480770127936
 20
215.6729193879295
 30
0.0
 10
101.7646953245839
 20
215.6775332921544
 30
0.0
 10
102.4514165588363
 20
215.6552423287438
 30
0.0
 10
103.0388151667166
 20
215.6152580051271
 30
0.0
 10
103.4416397692505
 20
215.5770134710678
 30
0.0
 10
103.6345209156592
 20
215.5554277936754
 30
0.0
 10
103.6051895208292
 20
215.5586784046835
 30
0.0
 10
103.5978974756016
 20
215.5594865354467
 30
0.0
  0
SPLINE
  5
18F
330
1F
100
AcDbEntity
  8
0
  6
Continuous
 62
     7
370
    25
100
AcDbSpline
210
0.0
220
0.0
230
1.0
 70
    11
 71
     3
 72
    26
 73
    22
 74
     0
 42
0.000000001
 43
0.00000001
 40
0.0
 40
0.0
 40
0.0
 40
0.0
 40
0.0534601751351961
 40
0.1069123401768135
 40
0.1605728564583366
 40
0.2143749610407217
 40
0.267948804795327
 40
0.3212804345606186
 40
0.3747337621564519
 40
0.4284820805386291
 40
0.4822401898939432
 40
0.5357089794419784
 40
0.5890409224759404
 40
0.6425973520441255
 40
0.6963947282425689
 40
0.7500728388891598
 40
0.8034542870099864
 40
0.8568259596906389
 40
0.9104881633857848
 40
0.9642897398709562
 40
1.0
 40
1.0
 40
1.0
 40
1.0
 10
103.6241665736606
 20
234.3065718578296
 30
0.0
 10
103.6010967360219
 20
234.0712521640641
 30
0.0
 10
103.5549605173652
 20
233.6006480351674
 30
0.0
 10
103.1954842304321
 20
232.9737618220229
 30
0.0
 10
102.6649395918841
 20
232.4952236749095
 30
0.0
 10
102.0002028464675
 20
232.2199564516769
 30
0.0
 10
101.2838353650909
 20
232.1801812683694
 30
0.0
 10
100.5961822530093
 20
232.3785224479212
 30
0.0
 10
100.0122723741505
 20
232.792061114409
 30
0.0
 10
99.5963505391858
 20
233.3768355283253
 30
0.0
 10
99.39739452230351
 20
234.0673576786987
 30
0.0
 10
99.4380957995834
 20
234.7832073061241
 30
0.0
 10
99.71176516236737
 20
235.4440686724862
 30
0.0
 10
100.1883352442948
 20
235.9785947206246
 30
0.0
 10
100.816610050565
 20
236.3265544479698
 30
0.0
 10
101.5248661941378
 20
236.4466313931154
 30
0.0
 10
102.2307084934296
 20
236.3262699336951
 30
0.0
 10
102.8576620175283
 20
235.9805906099788
 30
0.0
 10
103.3331016500303
 20
235.4469133145942
 30
0.0
 10
103.587601927647
 20
234.8560815019505
 30
0.0
 10
103.6137392365162
 20
234.4632784842584
 30
0.0
 10
103.6241665736606
 20
234.3065718578296
 30
0.0
  0
SPLINE
  5
190
330
1F
100
AcDbEntity
  8
0
  6
Continuous
 62
     7
370
    25
100
AcDbSpline
210
0.0
220
0.0
230
1.0
 70
     8
 71
     3
 72
    17
 73
    13
 74
     0
 42
0.000000001
 43
0.00000001
 40
0.0
 40
0.0
 40
0.0
 40
0.0
 40
0.1069146075546028
 40
0.2138131957825108
 40
0.3211284641090423
 40
0.4287268938278195
 40
0.5358688264109164
 40
0.6425263570341173
 40
0.749427270245565
 40
0.8569181333416536
 40
0.9644285773322961
 40
1.0
 40
1.0
 40
1.0
 40
1.0
 10
103.6241665736606
 20
253.0565718578299
 30
0.0
 10
103.6010964213177
 20
253.0539154891584
 30
0.0
 10
103.5549595732999
 20
253.0486031498266
 30
0.0
 10
103.1954880121649
 20
253.0116171838446
 30
0.0
 10
102.6649253326987
 20
252.9702392611658
 30
0.0
 10
102.0002561345278
 20
252.9402243277296
 30
0.0
 10
101.2836378227375
 20
252.9356104235046
 30
0.0
 10
100.596916588485
 20
252.9579013869154
 30
0.0
 10
100.009517980605
 20
252.9978857105318
 30
0.0
 10
99.60669337807074
 20
253.0361302445914
 30
0.0
 10
99.41381223166223
 20
253.0577159219838
 30
0.0
 10
99.4431436264922
 20
253.0544653109756
 30
0.0
 10
99.45043567171986
 20
253.0536571802124
 30
0.0
  0
LINE
  5
191
330
1F
100
AcDbEntity
  8
0
  6
Continuous
 62
     7
370
    25
100
AcDbLine
 10
207.2241665737
 20
214.4065718578
 30
0.0
 11
114.2241665737
 21
214.4065718578
 31
0.0
  0
LINE
  5
192
330
1F
100
AcDbEntity
  8
0
  6
Continuous
 62
     7
370
    25
100
AcDbLine
 10
114.2241665737
 20
214.4065718578
 30
0.0
 11
114.2241665737
 21
215.4065718578
 31
0.0
  0
LINE
  5
193
330
1F
100
AcDbEntity
  8
0
  6
Continuous
 62
     7
370
    25
100
AcDbLine
 10
114.2241665737
 20
215.4065718578
 30
0.0
 11
207.2241665737
 21
215.4065718578
 31
0.0
  0
LINE
  5
194
330
1F
100
AcDbEntity
  8
0
  6
Continuous
 62
     7
370
    25
100
AcDbLine
 10
207.2241665737
 20
214.4065718578
 30
0.0
 11
207.2241665737
 21
215.4065718578
 31
0.0
  0
LINE
  5
195
330
1F
100
AcDbEntity
  8
0
  6
Continuous
 62
     7
370
    25
100
AcDbLine
 10
207.2241665737
 20
253.4065718578
 30
0.0
 11
114.2241665737
 21
253.4065718578
 31
0.0
  0
LINE
  5
196
330
1F
100
AcDbEntity
  8
0
  6
Continuous
 62
     7
370
    25
100
AcDbLine
 10
207.2241665737
 20
215.4065718578
 30
0.0
 11
207.2241665737
 21
253.4065718578
 31
0.0
  0
LINE
  5
197
330
1F
100
AcDbEntity
  8
0
  6
Continuous
 62
     7
370
    25
100
AcDbLine
 10
114.2241665737
 20
253.4065718578
 30
0.0
 11
114.2241665737
 21
215.4065718578
 31
0.0
  0
LINE
  5
198
330
1F
100
AcDbEntity
  8
0
  6
Continuous
 62
     7
370
    25
100
AcDbLine
 10
114.2241665737
 20
253.4065718578
 30
0.0
 11
114.2241665737
 21
254.4065718578
 31
0.0
  0
LINE
  5
199
330
1F
100
AcDbEntity
  8
0
  6
Continuous
 62
     7
370
    25
100
AcDbLine
 10
114.2241665737
 20
254.4065718578
 30
0.0
 11
207.2241665737
 21
254.4065718578
 31
0.0
  0
LINE
  5
19A
330
1F
100
AcDbEntity
  8
0
  6
Continuous
 62
     7
370
    25
100
AcDbLine
 10
207.2241665737
 20
253.4065718578
 30
0.0
 11
207.2241665737
 21
254.4065718578
 31
0.0
  0
LINE
  5
19B
330
1F
100
AcDbEntity
  8
0
  6
Continuous
 62
     7
370
    25
100
AcDbLine
 10
207.2241665737
 20
253.4065718578
 30
0.0
 11
208.2241665737
 21
253.4065718578
 31
0.0
  0
LINE
  5
19C
330
1F
100
AcDbEntity
  8
0
  6
Continuous
 62
     7
370
    25
100
AcDbLine
 10
208.2241665737
 20
253.4065718578
 30
0.0
 11
208.2241665737
 21
215.4065718578
 31
0.0
  0
LINE
  5
19D
330
1F
100
AcDbEntity
  8
0
  6
Continuous
 62
     7
370
    25
100
AcDbLine
 10
207.2241665737
 20
215.4065718578
 30
0.0
 11
208.2241665737
 21
215.4065718578
 31
0.0
  0
LINE
  5
19E
330
1F
100
AcDbEntity
  8
0
  6
Continuous
 62
     7
370
    25
100
AcDbLine
 10
207.2241665737
 20
214.4065718578
 30
0.0
 11
208.2241665737
 21
215.4065718578
 31
0.0
  0
LINE
  5
19F
330
1F
100
AcDbEntity
  8
0
  6
Continuous
 62
     7
370
    25
100
AcDbLine
 10
208.2241665737
 20
253.4065718578
 30
0.0
 11
207.2241665737
 21
254.4065718578
 31
0.0
  0
LINE
  5
1A0
330
1F
100
AcDbEntity
  8
0
  6
Continuous
 62
     7
370
    25
100
AcDbLine
 10
114.2241665737
 20
214.4065718578
 30
0.0
 11
105.2241665737
 21
214.4065718578
 31
0.0
  0
LINE
  5
1A1
330
1F
100
AcDbEntity
  8
0
  6
Continuous
 62
     7
370
    25
100
AcDbLine
 10
105.2241665737
 20
214.4065718578
 30
0.0
 11
104.2241665737
 21
215.4065718578
 31
0.0
  0
LINE
  5
1A2
330
1F
100
AcDbEntity
  8
0
  6
Continuous
 62
     7
370
    25
100
AcDbLine
 10
104.2241665737
 20
215.4065718578
 30
0.0
 11
114.2241665737
 21
215.4065718578
 31
0.0
  0
LINE
  5
1A3
330
1F
100
AcDbEntity
  8
0
  6
Continuous
 62
     7
370
    25
100
AcDbLine
 10
114.2241665737
 20
253.4065718578
 30
0.0
 11
104.2241665737
 21
253.4065718578
 31
0.0
  0
LINE
  5
1A4
330
1F
100
AcDbEntity
  8
0
  6
Continuous
 62
     7
370
    25
100
AcDbLine
 10
104.2241665737
 20
215.4065718578
 30
0.0
 11
104.2241665737
 21
253.4065718578
 31
0.0
  0
LINE
  5
1A5
330
1F
100
AcDbEntity
  8
0
  6
Continuous
 62
     7
370
    25
100
AcDbLine
 10
104.2241665737
 20
253.4065718578
 30
0.0
 11
105.2241665737
 21
254.4065718578
 31
0.0
  0
LINE
  5
1A6
330
1F
100
AcDbEntity
  8
0
  6
Continuous
 62
     7
370
    25
100
AcDbLine
 10
105.2241665737
 20
254.4065718578
 30
0.0
 11
114.2241665737
 21
254.4065718578
 31
0.0
  0
DIMENSION
  5
1A7
330
1F
100
AcDbEntity
  8
0
100
AcDbDimension
  2
_D
 10
230.2241665737
 20
214.4065718578
 30
0.0
 11
230.2241665737
 21
234.4065718578
 31
0.0
 70
   160
  1
<>
 71
     2
 42
-1.0
  3
SLDDIMSTYLE0
100
AcDbAlignedDimension
 13
207.2241665737
 23
254.4065718578
 33
0.0
 14
207.2241665737
 24
214.4065718578
 34
0.0
 50
90.0
100
AcDbRotatedDimension
  0
LINE
  5
1BF
330
1F
100
AcDbEntity
  8
0
  6
Continuous
 62
     7
370
    25
100
AcDbLine
 10
163.2241665737
 20
77.0027622745
 30
0.0
 11
163.2241665737
 21
74.0027622745
 31
0.0
  0
LINE
  5
1C0
330
1F
100
AcDbEntity
  8
0
  6
Continuous
 62
     7
370
    25
100
AcDbLine
 10
201.2241665737
 20
74.0027622745
 30
0.0
 11
201.2241665737
 21
77.0027622745
 31
0.0
  0
LINE
  5
1C1
330
1F
100
AcDbEntity
  8
0
  6
Continuous
 62
     7
370
    25
100
AcDbLine
 10
110.2241665737
 20
127.0027622745
 30
0.0
 11
113.2241665737
 21
127.0027622745
 31
0.0
  0
LINE
  5
1C2
330
1F
100
AcDbEntity
  8
0
  6
Continuous
 62
     7
370
    25
100
AcDbLine
 10
113.2241665737
 20
165.0027622745
 30
0.0
 11
110.2241665737
 21
165.0027622745
 31
0.0
  0
LINE
  5
1C3
330
1F
100
AcDbEntity
  8
0
  6
Continuous
 62
     7
370
    25
100
AcDbLine
 10
200.9741665737
 20
62.7527622745
 30
0.0
 11
200.9741665737
 21
68.0027622745
 31
0.0
  0
LINE
  5
1C4
330
1F
100
AcDbEntity
  8
0
  6
Continuous
 62
     7
370
    25
100
AcDbLine
 10
163.4741665737
 20
68.0027622745
 30
0.0
 11
163.4741665737
 21
62.7527622745
 31
0.0
  0
LINE
  5
1C5
330
1F
100
AcDbEntity
  8
0
  6
Continuous
 62
     7
370
    25
100
AcDbLine
 10
163.4741665737
 20
62.7527622745
 30
0.0
 11
164.2241665737
 21
62.0027622745
 31
0.0
  0
LINE
  5
1C6
330
1F
100
AcDbEntity
  8
0
  6
Continuous
 62
     7
370
    25
100
AcDbLine
 10
200.2241665737
 20
62.0027622745
 30
0.0
 11
200.9741665737
 21
62.7527622745
 31
0.0
  0
LINE
  5
1C7
330
1F
100
AcDbEntity
  8
0
  6
Continuous
 62
     7
370
    25
100
AcDbLine
 10
163.4741665737
 20
88.3838659579
 30
0.0
 11
163.4741665737
 21
86.5027622745
 31
0.0
  0
LINE
  5
1C8
330
1F
100
AcDbEntity
  8
0
  6
Continuous
 62
     7
370
    25
100
AcDbLine
 10
163.4741665737
 20
91.7527622745
 30
0.0
 11
163.4741665737
 21
90.0212863548
 31
0.0
  0
LINE
  5
1C9
330
1F
100
AcDbEntity
  8
0
  6
Continuous
 62
     7
370
    25
100
AcDbLine
 10
200.9741665737
 20
89.9937320764
 30
0.0
 11
200.9741665737
 21
91.7527622745
 31
0.0
  0
LINE
  5
1CA
330
1F
100
AcDbEntity
  8
0
  6
Continuous
 62
     7
370
    25
100
AcDbLine
 10
200.9741665737
 20
86.5027622745
 30
0.0
 11
200.9741665737
 21
88.3637642845
 31
0.0
  0
LINE
  5
1CB
330
1F
100
AcDbEntity
  8
0
  6
Continuous
 62
     7
370
    25
100
AcDbLine
 10
200.9741665737
 20
91.7527622745
 30
0.0
 11
200.2241665737
 21
92.5027622745
 31
0.0
  0
LINE
  5
1CC
330
1F
100
AcDbEntity
  8
0
  6
Continuous
 62
     7
370
    25
100
AcDbLine
 10
164.2241665737
 20
92.5027622745
 30
0.0
 11
163.4741665737
 21
91.7527622745
 31
0.0
  0
LINE
  5
1CD
330
1F
100
AcDbEntity
  8
0
  6
Continuous
 62
     7
370
    25
100
AcDbLine
 10
127.9741665737
 20
164.7527622745
 30
0.0
 11
122.7241665737
 21
164.7527622745
 31
0.0
  0
LINE
  5
1CE
330
1F
100
AcDbEntity
  8
0
  6
Continuous
 62
     7
370
    25
100
AcDbLine
 10
122.7241665737
 20
127.2527622745
 30
0.0
 11
127.9741665737
 21
127.2527622745
 31
0.0
  0
LINE
  5
1CF
330
1F
100
AcDbEntity
  8
0
  6
Continuous
 62
     7
370
    25
100
AcDbLine
 10
127.9741665737
 20
127.2527622745
 30
0.0
 11
128.7241665737
 21
128.0027622745
 31
0.0
  0
LINE
  5
1D0
330
1F
100
AcDbEntity
  8
0
  6
Continuous
 62
     7
370
    25
100
AcDbLine
 10
128.7241665737
 20
164.0027622745
 30
0.0
 11
127.9741665737
 21
164.7527622745
 31
0.0
  0
LINE
  5
1D1
330
1F
100
AcDbEntity
  8
0
  6
Continuous
 62
     7
370
    25
100
AcDbLine
 10
103.6241665737
 20
127.2527622745
 30
0.0
 11
104.2241665737
 21
127.2527622745
 31
0.0
  0
LINE
  5
1D2
330
1F
100
AcDbEntity
  8
0
  6
Continuous
 62
     7
370
    25
100
AcDbLine
 10
98.9741665737
 20
127.2527622745
 30
0.0
 11
99.4504356717
 21
127.2527622745
 31
0.0
  0
LINE
  5
1D3
330
1F
100
AcDbEntity
  8
0
  6
Continuous
 62
     7
370
    25
100
AcDbLine
 10
99.4241665737
 20
164.7527622745
 30
0.0
 11
98.9741665737
 21
164.7527622745
 31
0.0
  0
LINE
  5
1D4
330
1F
100
AcDbEntity
  8
0
  6
Continuous
 62
     7
370
    25
100
AcDbLine
 10
104.2241665737
 20
164.7527622745
 30
0.0
 11
103.5978974756
 21
164.7527622745
 31
0.0
  0
LINE
  5
1D5
330
1F
100
AcDbEntity
  8
0
  6
Continuous
 62
     7
370
    25
100
AcDbLine
 10
98.9741665737
 20
164.7527622745
 30
0.0
 11
98.2241665737
 21
164.0027622745
 31
0.0
  0
LINE
  5
1D6
330
1F
100
AcDbEntity
  8
0
  6
Continuous
 62
     7
370
    25
100
AcDbLine
 10
98.2241665737
 20
128.0027622745
 30
0.0
 11
98.9741665737
 21
127.2527622745
 31
0.0
  0
LINE
  5
1D7
330
1F
100
AcDbEntity
  8
0
  6
Continuous
 62
     7
370
    25
100
AcDbLine
 10
199.7241665737
 20
85.5027622745
 30
0.0
 11
199.7241665737
 21
86.5027622745
 31
0.0
  0
LINE
  5
1D8
330
1F
100
AcDbEntity
  8
0
  6
Continuous
 62
     7
370
    25
100
AcDbLine
 10
164.7241665737
 20
86.5027622745
 30
0.0
 11
164.7241665737
 21
85.5027622745
 31
0.0
  0
LINE
  5
1D9
330
1F
100
AcDbEntity
  8
0
  6
Continuous
 62
     7
370
    25
100
AcDbLine
 10
113.2241665737
 20
128.5027622745
 30
0.0
 11
114.2241665737
 21
128.5027622745
 31
0.0
  0
LINE
  5
1DA
330
1F
100
AcDbEntity
  8
0
  6
Continuous
 62
     7
370
    25
100
AcDbLine
 10
114.2241665737
 20
163.5027622745
 30
0.0
 11
113.2241665737
 21
163.5027622745
 31
0.0
  0
LINE
  5
1DB
330
1F
100
AcDbEntity
  8
0
  6
Continuous
 62
     7
370
    25
100
AcDbLine
 10
121.7241665737
 20
128.5027622745
 30
0.0
 11
122.7241665737
 21
128.5027622745
 31
0.0
  0
LINE
  5
1DC
330
1F
100
AcDbEntity
  8
0
  6
Continuous
 62
     7
370
    25
100
AcDbLine
 10
122.7241665737
 20
163.5027622745
 30
0.0
 11
121.7241665737
 21
163.5027622745
 31
0.0
  0
LINE
  5
1DD
330
1F
100
AcDbEntity
  8
0
  6
Continuous
 62
     7
370
    25
100
AcDbLine
 10
199.7241665737
 20
77.0027622745
 30
0.0
 11
199.7241665737
 21
78.0027622745
 31
0.0
  0
LINE
  5
1DE
330
1F
100
AcDbEntity
  8
0
  6
Continuous
 62
     7
370
    25
100
AcDbLine
 10
164.7241665737
 20
78.0027622745
 30
0.0
 11
164.7241665737
 21
77.0027622745
 31
0.0
  0
LINE
  5
1DF
330
1F
100
AcDbEntity
  8
0
  6
Continuous
 62
     7
370
    25
100
AcDbLine
 10
114.2241665737
 20
137.0527622745
 30
0.0
 11
121.7241665737
 21
137.0527622745
 31
0.0
  0
LINE
  5
1E0
330
1F
100
AcDbEntity
  8
0
  6
Continuous
 62
     7
370
    25
100
AcDbLine
 10
121.7241665737
 20
154.9527622745
 30
0.0
 11
114.2241665737
 21
154.9527622745
 31
0.0
  0
LINE
  5
1E1
330
1F
100
AcDbEntity
  8
0
  6
Continuous
 62
     7
370
    25
100
AcDbLine
 10
173.2741665737
 20
85.5027622745
 30
0.0
 11
173.2741665737
 21
78.0027622745
 31
0.0
  0
LINE
  5
1E2
330
1F
100
AcDbEntity
  8
0
  6
Continuous
 62
     7
370
    25
100
AcDbLine
 10
191.1741665737
 20
78.0027622745
 30
0.0
 11
191.1741665737
 21
85.5027622745
 31
0.0
  0
LINE
  5
1E3
330
1F
100
AcDbEntity
  8
0
  6
Continuous
 62
     7
370
    25
100
AcDbLine
 10
201.2241665737
 20
77.0027622745
 30
0.0
 11
163.2241665737
 21
77.0027622745
 31
0.0
  0
LINE
  5
1E4
330
1F
100
AcDbEntity
  8
0
  6
Continuous
 62
     7
370
    25
100
AcDbLine
 10
113.2241665737
 20
165.0027622745
 30
0.0
 11
113.2241665737
 21
127.0027622745
 31
0.0
  0
SPLINE
  5
1E5
330
1F
100
AcDbEntity
  8
0
  6
Continuous
 62
     7
370
    25
100
AcDbSpline
210
0.0
220
0.0
230
1.0
 70
    11
 71
     3
 72
    26
 73
    22
 74
     0
 42
0.000000001
 43
0.00000001
 40
0.0
 40
0.0
 40
0.0
 40
0.0
 40
0.0534601751351949
 40
0.1069123401768135
 40
0.1605728564583359
 40
0.2143749610407213
 40
0.2679488047953266
 40
0.321280434560618
 40
0.3747337621564525
 40
0.4284820805386284
 40
0.4822401898939432
 40
0.5357089794419782
 40
0.5890409224759396
 40
0.6425973520441255
 40
0.6963947282425681
 40
0.7500728388891591
 40
0.8034542870099859
 40
0.8568259596906381
 40
0.9104881633857851
 40
0.9642897398709567
 40
1.0
 40
1.0
 40
1.0
 40
1.0
 10
199.5440669739183
 20
67.40276227449043
 30
0.0
 10
199.6317521549625
 20
67.37969243685164
 30
0.0
 10
199.8071093789251
 20
67.33355621819499
 30
0.0
 10
200.0130730292013
 20
66.97407993126193
 30
0.0
 10
200.1581528076071
 20
66.44353529271386
 30
0.0
 10
200.2358748892377
 20
65.7787985472973
 30
0.0
 10
200.2468231932869
 20
65.06243106592066
 30
0.0
 10
200.1915345033226
 20
64.37477795383911
 30
0.0
 10
200.0697082297896
 20
63.79086807498033
 30
0.0
 10
199.8823725113919
 20
63.3749462400156
 30
0.0
 10
199.6385103862422
 20
63.17599022313332
 30
0.0
 10
199.3599205132801
 20
63.21669150041318
 30
0.0
 10
199.0794825482022
 20
63.49036086319717
 30
0.0
 10
198.8362375643716
 20
63.96693094512457
 30
0.0
 10
198.6699151074459
 20
64.59520575139483
 30
0.0
 10
198.6110589464797
 20
65.3034618949676
 30
0.0
 10
198.6700339615329
 20
66.00930419425934
 30
0.0
 10
198.8353419629827
 20
66.63625771835807
 30
0.0
 10
199.078033990274
 20
67.11169735086011
 30
0.0
 10
199.3297618136016
 20
67.36619762847675
 30
0.0
 10
199.4829524164964
 20
67.39233493734599
 30
0.0
 10
199.5440669739183
 20
67.40276227449043
 30
0.0
  0
SPLINE
  5
1E6
330
1F
100
AcDbEntity
  8
0
  6
Continuous
 62
     7
370
    25
100
AcDbSpline
210
0.0
220
0.0
230
1.0
 70
    11
 71
     3
 72
    44
 73
    40
 74
     0
 42
0.000000001
 43
0.00000001
 40
0.0
 40
0.0
 40
0.0
 40
0.0
 40
0.0263502572266893
 40
0.0534675824120809
 40
0.0798170141201718
 40
0.1069249874480387
 40
0.1333767370878474
 40
0.1605912854447282
 40
0.1871090242147927
 40
0.2144019329184839
 40
0.2408067569166268
 40
0.2679843844112734
 40
0.2942734632280493
 40
0.3213218846902621
 40
0.3476729092398871
 40
0.3747798402617252
 40
0.4012735626604733
 40
0.4285349241880553
 40
0.4550302635050282
 40
0.4823020260142003
 40
0.5086560936465577
 40
0.535778618563605
 40
0.5620689398423235
 40
0.5891156812046023
 40
0.6155170625262508
 40
0.6426771491972351
 40
0.6691937264727497
 40
0.6964822548574219
 40
0.7229379970223152
 40
0.7501693995038061
 40
0.7764816851759001
 40
0.8035576939199365
 40
0.8298683372419935
 40
0.8569340128220263
 40
0.8833865738313321
 40
0.9106020148702396
 40
0.9371194877304376
 40
0.9644121347956686
 40
0.9999999999999999
 40
0.9999999999999999
 40
0.9999999999999999
 40
0.9999999999999999
 10
175.0419976724745
 20
67.40276227449043
 30
0.0
 10
175.1493680489415
 20
67.39719225758078
 30
0.0
 10
175.3672344023123
 20
67.38589007803883
 30
0.0
 10
175.6864822045619
 20
67.29498829357952
 30
0.0
 10
175.9921837455068
 20
67.15125456386008
 30
0.0
 10
176.2704344263518
 20
66.95580527325076
 30
0.0
 10
176.5177652722273
 20
66.71182343375176
 30
0.0
 10
176.7222483013701
 20
66.42966152169483
 30
0.0
 10
176.8807196219241
 20
66.11239171847103
 30
0.0
 10
176.9849245743646
 20
65.77500908296629
 30
0.0
 10
177.0334167056367
 20
65.42140592691183
 30
0.0
 10
177.0239988398697
 20
65.06863928606006
 30
0.0
 10
176.9571880046328
 20
64.71992869457799
 30
0.0
 10
176.8366023403387
 20
64.39108536907264
 30
0.0
 10
176.6637356267337
 20
64.08489423561328
 30
0.0
 10
176.4466000071814
 20
63.81490554989985
 30
0.0
 10
176.1878361664753
 20
63.58419538691086
 30
0.0
 10
175.8996790064766
 20
63.40366161024591
 30
0.0
 10
175.5860546976265
 20
63.27563985587077
 30
0.0
 10
175.2625041401647
 20
63.20631699308381
 30
0.0
 10
174.9327776742639
 20
63.19614224015022
 30
0.0
 10
174.6125411410298
 20
63.24517950765099
 30
0.0
 10
174.3043192281747
 20
63.35267322954498
 30
0.0
 10
174.0214708474378
 20
63.51362829146359
 30
0.0
 10
173.7660798056524
 20
63.72672279402406
 30
0.0
 10
173.5490260185933
 20
63.98278531379226
 30
0.0
 10
173.372343846842
 20
64.27923380197467
 30
0.0
 10
173.2439642488523
 20
64.60239408341303
 30
0.0
 10
173.1649311339056
 20
64.94846407216401
 30
0.0
 10
173.1386051471733
 20
65.30065431962846
 30
0.0
 10
173.1647893162572
 20
65.65544110856014
 30
0.0
 10
173.2419954903365
 20
65.99635557246128
 30
0.0
 10
173.3697192732964
 20
66.32058644332987
 30
0.0
 10
173.5427859661014
 20
66.61386698345947
 30
0.0
 10
173.7603593780316
 20
66.87307759321354
 30
0.0
 10
174.0135543937445
 20
67.08673169960322
 30
0.0
 10
174.3003467103313
 20
67.25039429547735
 30
0.0
 10
174.6423865038471
 20
67.37507647687693
 30
0.0
 10
174.8975725405886
 20
67.39275623540641
 30
0.0
 10
175.0419976724745
 20
67.40276227449043
 30
0.0
  0
LINE
  5
1E7
330
1F
100
AcDbEntity
  8
0
  6
Continuous
 62
     7
370
    25
100
AcDbLine
 10
163.4741665737
 20
62.7527622745
 30
0.0
 11
200.9741665737
 21
62.7527622745
 31
0.0
  0
LINE
  5
1E8
330
1F
100
AcDbEntity
  8
0
  6
Continuous
 62
     7
370
    25
100
AcDbLine
 10
200.2241665737
 20
62.0027622745
 30
0.0
 11
164.2241665737
 21
62.0027622745
 31
0.0
  0
ARC
  5
1E9
330
1F
100
AcDbEntity
  8
0
  6
Continuous
 62
     7
370
    25
100
AcDbCircle
 10
177.1786493449
 20
65.302791478
 30
0.0
 40
2.17333971549697
100
AcDbArc
 50
122.3518052831
 51
237.704297231
  0
LINE
  5
1EA
330
1F
100
AcDbEntity
  8
0
  6
Continuous
 62
     7
370
    25
100
AcDbLine
 10
200.8763183385
 20
86.5027622745
 30
0.0
 11
163.4741665737
 21
86.5027622745
 31
0.0
  0
LINE
  5
1EB
330
1F
100
AcDbEntity
  8
0
  6
Continuous
 62
     7
370
    25
100
AcDbLine
 10
200.9741665737
 20
86.5027622745
 30
0.0
 11
200.8763183385
 21
86.5027622745
 31
0.0
  0
SPLINE
  5
1EC
330
1F
100
AcDbEntity
  8
0
  6
Continuous
 62
     7
370
    25
100
AcDbSpline
210
0.0
220
0.0
230
1.0
 70
    11
 71
     3
 72
    26
 73
    22
 74
     0
 42
0.000000001
 43
0.00000001
 40
0.0
 40
0.0
 40
0.0
 40
0.0
 40
0.0534601751351906
 40
0.1069123401767987
 40
0.1605728564583359
 40
0.2143749610407088
 40
0.2679488047953149
 40
0.3212804345606129
 40
0.3747337621564469
 40
0.4284820805386189
 40
0.4822401898939452
 40
0.5357089794419794
 40
0.5890409224759385
 40
0.6425973520441148
 40
0.6963947282425635
 40
0.7500728388891631
 40
0.8034542870099843
 40
0.8568259596906371
 40
0.9104881633857749
 40
0.9642897398709634
 40
1.0
 40
1.0
 40
1.0
 40
1.0
 10
200.8763183385379
 20
91.30276227449026
 30
0.0
 10
200.8976852247686
 20
91.27969243685149
 30
0.0
 10
200.9404157957672
 20
91.23355621819488
 30
0.0
 10
200.9675839193729
 20
90.8740799312616
 30
0.0
 10
200.9752447077951
 20
90.34353529271387
 30
0.0
 10
200.9734790509853
 20
89.6787985472971
 30
0.0
 10
200.9729199329178
 20
88.96243106592053
 30
0.0
 10
200.9749602376754
 20
88.27477795383895
 30
0.0
 10
200.9721603039093
 20
87.69086807498012
 30
0.0
 10
200.9519779266102
 20
87.27494624001538
 30
0.0
 10
200.9037541245737
 20
87.07599022313318
 30
0.0
 10
200.8259950902061
 20
87.11669150041301
 30
0.0
 10
200.7291728181174
 20
87.39036086319699
 30
0.0
 10
200.6331792927976
 20
87.86693094512444
 30
0.0
 10
200.5620992885528
 20
88.49520575139464
 30
0.0
 10
200.5359978981248
 20
89.20346189496746
 30
0.0
 10
200.5621389477224
 20
89.90930419425926
 30
0.0
 10
200.6328344937514
 20
90.53625771835777
 30
0.0
 10
200.7284960533432
 20
91.01169735086012
 30
0.0
 10
200.816142866484
 20
91.26619762847656
 30
0.0
 10
200.8591577748968
 20
91.29233493734581
 30
0.0
 10
200.8763183385379
 20
91.30276227449026
 30
0.0
  0
SPLINE
  5
1ED
330
1F
100
AcDbEntity
  8
0
  6
Continuous
 62
     7
370
    25
100
AcDbSpline
210
0.0
220
0.0
230
1.0
 70
     8
 71
     3
 72
    11
 73
     7
 74
     0
 42
0.000000001
 43
0.00000001
 40
0.0
 40
0.0
 40
0.0
 40
0.0
 40
0.084414658733825
 40
0.5010187105580369
 40
0.9153203190069313
 40
1.0
 40
1.0
 40
1.0
 40
1.0
 10
163.4746746582722
 20
90.02128635476868
 30
0.0
 10
163.4745259998046
 20
89.98009056150175
 30
0.0
 10
163.4736436806092
 20
89.73558488520584
 30
0.0
 10
163.4763210807154
 20
89.20206318645194
 30
0.0
 10
163.4736587132647
 20
88.6689384476033
 30
0.0
 10
163.4745217753189
 20
88.42522532351616
 30
0.0
 10
163.4746682413709
 20
88.38386595786818
 30
0.0
  0
SPLINE
  5
1EE
330
1F
100
AcDbEntity
  8
0
  6
Continuous
 62
     7
370
    25
100
AcDbSpline
210
0.0
220
0.0
230
1.0
 70
    11
 71
     3
 72
    44
 73
    40
 74
     0
 42
0.000000001
 43
0.00000001
 40
0.0
 40
0.0
 40
0.0
 40
0.0
 40
0.0263502572266883
 40
0.0534675824120812
 40
0.0798170141201715
 40
0.1069249874480387
 40
0.1333767370878477
 40
0.1605912854447279
 40
0.1871090242147926
 40
0.2144019329184837
 40
0.2408067569166267
 40
0.2679843844112734
 40
0.2942734632280493
 40
0.321321884690262
 40
0.3476729092398869
 40
0.374779840261725
 40
0.4012735626604734
 40
0.4285349241880552
 40
0.4550302635050281
 40
0.4823020260141997
 40
0.5086560936465578
 40
0.5357786185636048
 40
0.5620689398423231
 40
0.5891156812046017
 40
0.6155170625262512
 40
0.642677149197235
 40
0.6691937264727491
 40
0.6964822548574215
 40
0.722937997022315
 40
0.7501693995038059
 40
0.7764816851758999
 40
0.8035576939199361
 40
0.8298683372419932
 40
0.8569340128220265
 40
0.8833865738313321
 40
0.9106020148702396
 40
0.9371194877304374
 40
0.9644121347956678
 40
1.0
 40
1.0
 40
1.0
 40
1.0
 10
180.3111233070303
 20
87.10276227449043
 30
0.0
 10
180.1958171124449
 20
87.10833229140007
 30
0.0
 10
179.9618481075666
 20
87.11963447094203
 30
0.0
 10
179.6231802821329
 20
87.21053625540132
 30
0.0
 10
179.3016122808593
 20
87.35426998512078
 30
0.0
 10
179.0114599339039
 20
87.5497192757301
 30
0.0
 10
178.7554809454224
 20
87.79370111522908
 30
0.0
 10
178.5452246188978
 20
88.07586302728603
 30
0.0
 10
178.383117230653
 20
88.39313283050981
 30
0.0
 10
178.2769227227957
 20
88.73051546601457
 30
0.0
 10
178.2276101630703
 20
89.08411862206903
 30
0.0
 10
178.2371817821352
 20
89.4368852629208
 30
0.0
 10
178.3051592389309
 20
89.78559585440286
 30
0.0
 10
178.4281742273737
 20
90.11443917990822
 30
0.0
 10
178.6052663588373
 20
90.42063031336758
 30
0.0
 10
178.8289476898996
 20
90.69061899908101
 30
0.0
 10
179.0973459142207
 20
90.92132916207
 30
0.0
 10
179.3986050128734
 20
91.10186293873495
 30
0.0
 10
179.7293875779707
 20
91.22988469311008
 30
0.0
 10
180.0738644111453
 20
91.29920755589704
 30
0.0
 10
180.4283614243182
 20
91.30938230883064
 30
0.0
 10
180.7760596629097
 20
91.26034504132987
 30
0.0
 10
181.1139579252517
 20
91.15285131943587
 30
0.0
 10
181.4269113661412
 20
90.99189625751727
 30
0.0
 10
181.7119001676102
 20
90.77880175495682
 30
0.0
 10
181.9559591135465
 20
90.5227392351886
 30
0.0
 10
182.1558975480581
 20
90.22629074700616
 30
0.0
 10
182.3019119124081
 20
89.90313046556781
 30
0.0
 10
182.3921087712698
 20
89.55706047681686
 30
0.0
 10
182.4222071977014
 20
89.2048702293524
 30
0.0
 10
182.3922719459621
 20
88.8500834404207
 30
0.0
 10
182.3041549722128
 20
88.50916897651958
 30
0.0
 10
182.1588812377798
 20
88.18493810565099
 30
0.0
 10
181.9629992646548
 20
87.89165756552138
 30
0.0
 10
181.718315224143
 20
87.63244695576734
 30
0.0
 10
181.4356904450874
 20
87.41879284937764
 30
0.0
 10
181.1183760622459
 20
87.25513025350351
 30
0.0
 10
180.743089346009
 20
87.1304480721039
 30
0.0
 10
180.4672419469672
 20
87.11276831357445
 30
0.0
 10
180.3111233070303
 20
87.10276227449043
 30
0.0
  0
LINE
  5
1EF
330
1F
100
AcDbEntity
  8
0
  6
Continuous
 62
     7
370
    25
100
AcDbLine
 10
200.8763183385
 20
91.7527622745
 30
0.0
 11
163.4741665737
 21
91.7527622745
 31
0.0
  0
LINE
  5
1F0
330
1F
100
AcDbEntity
  8
0
  6
Continuous
 62
     7
370
    25
100
AcDbLine
 10
200.9741665737
 20
91.7527622745
 30
0.0
 11
200.8763183385
 21
91.7527622745
 31
0.0
  0
LINE
  5
1F1
330
1F
100
AcDbEntity
  8
0
  6
Continuous
 62
     7
370
    25
100
AcDbLine
 10
200.1302322679
 20
92.5027622745
 30
0.0
 11
200.2241665737
 21
92.5027622745
 31
0.0
  0
LINE
  5
1F2
330
1F
100
AcDbEntity
  8
0
  6
Continuous
 62
     7
370
    25
100
AcDbLine
 10
164.2241665737
 20
92.5027622745
 30
0.0
 11
200.1302322679
 21
92.5027622745
 31
0.0
  0
ARC
  5
1F3
330
1F
100
AcDbEntity
  8
0
  6
Continuous
 62
     7
370
    25
100
AcDbCircle
 10
180.8304884625
 20
89.2027490184
 30
0.0
 40
2.100890097118525
100
AcDbArc
 50
96.3654918004
 51
263.4119190129
  0
LINE
  5
1F4
330
1F
100
AcDbEntity
  8
0
  6
Continuous
 62
     7
370
    25
100
AcDbLine
 10
122.7241665737
 20
138.8430875491
 30
0.0
 11
122.7241665737
 21
164.7527622745
 31
0.0
  0
LINE
  5
1F5
330
1F
100
AcDbEntity
  8
0
  6
Continuous
 62
     7
370
    25
100
AcDbLine
 10
122.7241665737
 20
127.2527622745
 30
0.0
 11
122.7241665737
 21
138.8430875491
 31
0.0
  0
SPLINE
  5
1F6
330
1F
100
AcDbEntity
  8
0
  6
Continuous
 62
     7
370
    25
100
AcDbSpline
210
0.0
220
0.0
230
1.0
 70
    11
 71
     3
 72
    26
 73
    22
 74
     0
 42
0.000000001
 43
0.00000001
 40
0.0
 40
0.0
 40
0.0
 40
0.0
 40
0.0534601751351908
 40
0.1069123401767986
 40
0.1605728564583359
 40
0.2143749610407087
 40
0.267948804795315
 40
0.3212804345606128
 40
0.3747337621564471
 40
0.4284820805386185
 40
0.4822401898939453
 40
0.5357089794419789
 40
0.5890409224759389
 40
0.6425973520441145
 40
0.6963947282425633
 40
0.750072838889163
 40
0.803454287009984
 40
0.8568259596906369
 40
0.9104881633857747
 40
0.9642897398709631
 40
1.0
 40
1.0
 40
1.0
 40
1.0
 10
127.5241665736605
 20
138.8430875491167
 30
0.0
 10
127.5010967360217
 20
138.6266136468011
 30
0.0
 10
127.4549605173651
 20
138.1936982770846
 30
0.0
 10
127.0954842304318
 20
137.628437488986
 30
0.0
 10
126.5649395918841
 20
137.2019616560371
 30
0.0
 10
125.9002028464673
 20
136.9590112566347
 30
0.0
 10
125.1838353650907
 20
136.9240224311549
 30
0.0
 10
124.4961822530091
 20
137.0987832022031
 30
0.0
 10
123.9122723741503
 20
137.4658647100493
 30
0.0
 10
123.4963505391856
 20
137.9911725112649
 30
0.0
 10
123.2973945223034
 20
138.6208372293216
 30
0.0
 10
123.3380957995832
 20
139.2842554695327
 30
0.0
 10
123.6117651623672
 20
139.9063232420193
 30
0.0
 10
124.0883352442947
 20
140.4162584958295
 30
0.0
 10
124.7166100505648
 20
140.7515081482722
 30
0.0
 10
125.4248661941377
 20
140.8678025949935
 30
0.0
 10
126.1307084934294
 20
140.7512411126502
 30
0.0
 10
126.757662017528
 20
140.418157330664
 30
0.0
 10
127.2331016500303
 20
139.9091007002741
 30
0.0
 10
127.4876019276468
 20
139.3525353435468
 30
0.0
 10
127.513739236516
 20
138.9883695219825
 30
0.0
 10
127.5241665736605
 20
138.8430875491167
 30
0.0
  0
SPLINE
  5
1F7
330
1F
100
AcDbEntity
  8
0
  6
Continuous
 62
     7
370
    25
100
AcDbSpline
210
0.0
220
0.0
230
1.0
 70
    11
 71
     3
 72
    44
 73
    40
 74
     0
 42
0.000000001
 43
0.00000001
 40
0.0
 40
0.0
 40
0.0
 40
0.0
 40
0.0263502572266887
 40
0.0534675824120808
 40
0.0798170141201715
 40
0.1069249874480384
 40
0.1333767370878471
 40
0.1605912854447281
 40
0.1871090242147924
 40
0.2144019329184836
 40
0.2408067569166265
 40
0.2679843844112731
 40
0.2942734632280492
 40
0.3213218846902619
 40
0.3476729092398862
 40
0.3747798402617247
 40
0.4012735626604732
 40
0.4285349241880551
 40
0.4550302635050283
 40
0.4823020260141999
 40
0.508656093646558
 40
0.535778618563605
 40
0.5620689398423232
 40
0.5891156812046018
 40
0.6155170625262508
 40
0.6426771491972346
 40
0.669193726472749
 40
0.6964822548574214
 40
0.7229379970223149
 40
0.7501693995038058
 40
0.7764816851758995
 40
0.803557693919936
 40
0.8298683372419929
 40
0.8569340128220261
 40
0.8833865738313316
 40
0.9106020148702393
 40
0.9371194877304372
 40
0.9644121347956679
 40
1.0
 40
1.0
 40
1.0
 40
1.0
 10
123.3241665736606
 20
163.3319733882964
 30
0.0
 10
123.3297365905703
 20
163.3756781263849
 30
0.0
 10
123.3410387701122
 20
163.4643598673424
 30
0.0
 10
123.4319405545715
 20
163.585522916785
 30
0.0
 10
123.575674284291
 20
163.695802003443
 30
0.0
 10
123.7711235749003
 20
163.7908343219275
 30
0.0
 10
124.0151054143993
 20
163.8712437526516
 30
0.0
 10
124.2972673264562
 20
163.9348266202474
 30
0.0
 10
124.61453712968
 20
163.982338974525
 30
0.0
 10
124.9519197651848
 20
164.0127368608736
 30
0.0
 10
125.3055229212392
 20
164.0266608276548
 30
0.0
 10
125.658289562091
 20
164.0239683459657
 30
0.0
 10
126.007000153573
 20
164.0047080758813
 30
0.0
 10
126.3358434790784
 20
163.9692644955043
 30
0.0
 10
126.6420346125378
 20
163.9168911279698
 30
0.0
 10
126.9120232982512
 20
163.8485004793672
 30
0.0
 10
127.1427334612402
 20
163.7631401675842
 30
0.0
 10
127.3232672379052
 20
163.6630906408448
 30
0.0
 10
127.4512889922803
 20
163.5481007733364
 30
0.0
 10
127.5206118550672
 20
163.4226863248991
 30
0.0
 10
127.5307866080008
 20
163.2876302350664
 30
0.0
 10
127.4817493405001
 20
163.1492992160456
 30
0.0
 10
127.3742556186061
 20
163.0093308934292
 30
0.0
 10
127.2133005566875
 20
162.8748431075665
 30
0.0
 10
127.000206054127
 20
162.7483293408528
 30
0.0
 10
126.7441435343588
 20
162.6369137125096
 30
0.0
 10
126.4476950461764
 20
162.5435407330214
 30
0.0
 10
126.124534764738
 20
162.4741452242911
 30
0.0
 10
125.7784647759871
 20
162.4307771304051
 30
0.0
 10
125.4262745285226
 20
162.416218019087
 30
0.0
 10
125.0714877395909
 20
162.4306965231867
 30
0.0
 10
124.7305732756898
 20
162.4730728829452
 30
0.0
 10
124.4063424048212
 20
162.5421249804418
 30
0.0
 10
124.1130618646916
 20
162.6336607104034
 30
0.0
 10
123.8538512549375
 20
162.7454289489842
 30
0.0
 10
123.6401971485478
 20
162.8710368667383
 30
0.0
 10
123.4765345526737
 20
163.007394078074
 30
0.0
 10
123.3518523712741
 20
163.1633813253721
 30
0.0
 10
123.3341726127447
 20
163.2710418307366
 30
0.0
 10
123.3241665736606
 20
163.3319733882964
 30
0.0
  0
LINE
  5
1F8
330
1F
100
AcDbEntity
  8
0
  6
Continuous
 62
     7
370
    25
100
AcDbLine
 10
127.9741665737
 20
138.8430875491
 30
0.0
 11
127.9741665737
 21
164.7527622745
 31
0.0
  0
LINE
  5
1F9
330
1F
100
AcDbEntity
  8
0
  6
Continuous
 62
     7
370
    25
100
AcDbLine
 10
127.9741665737
 20
127.2527622745
 30
0.0
 11
127.9741665737
 21
138.8430875491
 31
0.0
  0
LINE
  5
1FA
330
1F
100
AcDbEntity
  8
0
  6
Continuous
 62
     7
370
    25
100
AcDbLine
 10
128.7241665737
 20
139.1294745381
 30
0.0
 11
128.7241665737
 21
128.0027622745
 31
0.0
  0
LINE
  5
1FB
330
1F
100
AcDbEntity
  8
0
  6
Continuous
 62
     7
370
    25
100
AcDbLine
 10
128.7241665737
 20
164.0027622745
 30
0.0
 11
128.7241665737
 21
139.1294745381
 31
0.0
  0
ARC
  5
1FC
330
1F
100
AcDbEntity
  8
0
  6
Continuous
 62
     7
370
    25
100
AcDbCircle
 10
125.4239016395
 20
140.9726731816
 30
0.0
 40
2.173163454532268
100
AcDbArc
 50
212.7116670212
 51
327.8038515609
  0
ARC
  5
1FD
330
1F
100
AcDbEntity
  8
0
  6
Continuous
 62
     7
370
    25
100
AcDbCircle
 10
101.5240828789
 20
183.4397366574
 30
0.0
 40
18.80459146260793
100
AcDbArc
 50
263.5883840561
 51
276.3315922419
  0
ARC
  5
1FE
330
1F
100
AcDbEntity
  8
0
  6
Continuous
 62
     7
370
    25
100
AcDbCircle
 10
101.5242502684
 20
108.5657878915
 30
0.0
 40
18.80459146272327
100
AcDbArc
 50
83.5883840561
 51
96.3315922419
  0
SPLINE
  5
1FF
330
1F
100
AcDbEntity
  8
0
  6
Continuous
 62
     7
370
    25
100
AcDbSpline
210
0.0
220
0.0
230
1.0
 70
    11
 71
     3
 72
    44
 73
    40
 74
     0
 42
0.000000001
 43
0.00000001
 40
0.0
 40
0.0
 40
0.0
 40
0.0
 40
0.026350257226689
 40
0.0534675824120806
 40
0.0798170141201719
 40
0.1069249874480384
 40
0.1333767370878473
 40
0.1605912854447278
 40
0.1871090242147924
 40
0.2144019329184836
 40
0.2408067569166265
 40
0.2679843844112731
 40
0.2942734632280489
 40
0.3213218846902618
 40
0.3476729092398868
 40
0.3747798402617247
 40
0.4012735626604733
 40
0.4285349241880549
 40
0.4550302635050284
 40
0.4823020260141997
 40
0.5086560936465578
 40
0.5357786185636051
 40
0.5620689398423234
 40
0.5891156812046017
 40
0.6155170625262508
 40
0.6426771491972346
 40
0.6691937264727491
 40
0.6964822548574214
 40
0.7229379970223148
 40
0.7501693995038057
 40
0.7764816851758995
 40
0.803557693919936
 40
0.8298683372419928
 40
0.8569340128220263
 40
0.8833865738313316
 40
0.9106020148702392
 40
0.9371194877304372
 40
0.9644121347956679
 40
1.0
 40
1.0
 40
1.0
 40
1.0
 10
103.6241665736606
 20
146.0027622744907
 30
0.0
 10
103.618596556751
 20
145.8867867776982
 30
0.0
 10
103.607294377209
 20
145.6514596847143
 30
0.0
 10
103.5163925927497
 20
145.3099913409652
 30
0.0
 10
103.3726588630303
 20
144.9852118902694
 30
0.0
 10
103.177209572421
 20
144.691643485303
 30
0.0
 10
102.933227732922
 20
144.4322532636798
 30
0.0
 10
102.651065820865
 20
144.2189094851551
 30
0.0
 10
102.3337960176412
 20
144.0542466944815
 30
0.0
 10
101.9964133821365
 20
143.9462939435425
 30
0.0
 10
101.642810226082
 20
143.8961427193294
 30
0.0
 10
101.2900435852303
 20
143.905878303129
 30
0.0
 10
100.9413329937482
 20
143.9750042057345
 30
0.0
 10
100.6124896682428
 20
144.1000291758981
 30
0.0
 10
100.3062985347835
 20
144.279858561942
 30
0.0
 10
100.0363098490701
 20
144.50673780284
 30
0.0
 10
99.80559968608108
 20
144.7785911200383
 30
0.0
 10
99.6250659094161
 20
145.0832371826488
 30
0.0
 10
99.49704415504098
 20
145.4171435179103
 30
0.0
 10
99.42772129225402
 20
145.7642170727356
 30
0.0
 10
99.41754653932043
 20
146.1206917831197
 30
0.0
 10
99.46658380682119
 20
146.4696501163912
 30
0.0
 10
99.57407752871518
 20
146.8081314007228
 30
0.0
 10
99.73503259063379
 20
147.1210625069623
 30
0.0
 10
99.94812709319426
 20
147.4055624012013
 30
0.0
 10
100.2041896129625
 20
147.6488467001364
 30
0.0
 10
100.5006381011449
 20
147.8479073033318
 30
0.0
 10
100.8237983825832
 20
147.9931408882028
 30
0.0
 10
101.1698683713342
 20
148.0827974175949
 30
0.0
 10
101.5220586187987
 20
148.1127054203197
 30
0.0
 10
101.8768454077303
 20
148.0829593656049
 30
0.0
 10
102.2177598716315
 20
147.9953712244091
 30
0.0
 10
102.5419907425001
 20
147.8508753038712
 30
0.0
 10
102.8352712826297
 20
147.655859975251
 30
0.0
 10
103.0944818923837
 20
147.4119603587106
 30
0.0
 10
103.3081359987734
 20
147.1298370723229
 30
0.0
 10
103.4717985946476
 20
146.8125447983296
 30
0.0
 10
103.5964807760471
 20
146.4366721322895
 30
0.0
 10
103.6141605345766
 20
146.1595834380594
 30
0.0
 10
103.6241665736606
 20
146.0027622744907
 30
0.0
  0
LINE
  5
200
330
1F
100
AcDbEntity
  8
0
  6
Continuous
 62
     7
370
    25
100
AcDbLine
 10
98.9741665737
 20
164.7527622745
 30
0.0
 11
98.9741665737
 21
127.2527622745
 31
0.0
  0
LINE
  5
201
330
1F
100
AcDbEntity
  8
0
  6
Continuous
 62
     7
370
    25
100
AcDbLine
 10
98.2241665737
 20
128.0027622745
 30
0.0
 11
98.2241665737
 21
164.0027622745
 31
0.0
  0
LINE
  5
202
330
1F
100
AcDbEntity
  8
0
  6
Continuous
 62
     7
370
    25
100
AcDbLine
 10
164.7241665737
 20
85.5027622745
 30
0.0
 11
199.7241665737
 21
85.5027622745
 31
0.0
  0
LINE
  5
203
330
1F
100
AcDbEntity
  8
0
  6
Continuous
 62
     7
370
    25
100
AcDbLine
 10
114.2241665737
 20
163.5027622745
 30
0.0
 11
114.2241665737
 21
128.5027622745
 31
0.0
  0
LINE
  5
204
330
1F
100
AcDbEntity
  8
0
  6
Continuous
 62
     7
370
    25
100
AcDbLine
 10
121.7241665737
 20
139.3203991975
 30
0.0
 11
121.7241665737
 21
128.5027622745
 31
0.0
  0
LINE
  5
205
330
1F
100
AcDbEntity
  8
0
  6
Continuous
 62
     7
370
    25
100
AcDbLine
 10
121.7241665737
 20
163.5027622745
 30
0.0
 11
121.7241665737
 21
139.3203991975
 31
0.0
  0
LINE
  5
206
330
1F
100
AcDbEntity
  8
0
  6
Continuous
 62
     7
370
    25
100
AcDbLine
 10
164.7241665737
 20
78.0027622745
 30
0.0
 11
199.7241665737
 21
78.0027622745
 31
0.0
  0
LINE
  5
207
330
1F
100
AcDbEntity
  8
0
  6
Continuous
 62
     7
370
    25
100
AcDbLine
 10
110.2241665737
 20
171.0027622745
 30
0.0
 11
105.2241665737
 21
171.0027622745
 31
0.0
  0
LINE
  5
208
330
1F
100
AcDbEntity
  8
0
  6
Continuous
 62
     7
370
    25
100
AcDbLine
 10
105.2241665737
 20
172.0027622745
 30
0.0
 11
105.2241665737
 21
171.0027622745
 31
0.0
  0
LINE
  5
209
330
1F
100
AcDbEntity
  8
0
  6
Continuous
 62
     7
370
    25
100
AcDbLine
 10
105.2241665737
 20
172.0027622745
 30
0.0
 11
110.2241665737
 21
172.0027622745
 31
0.0
  0
LINE
  5
20A
330
1F
100
AcDbEntity
  8
0
  6
Continuous
 62
     7
370
    25
100
AcDbLine
 10
110.2241665737
 20
172.0027622745
 30
0.0
 11
110.2241665737
 21
171.0027622745
 31
0.0
  0
ARC
  5
20B
330
1F
100
AcDbEntity
  8
0
  6
Continuous
 62
     7
370
    25
100
AcDbCircle
 10
114.2241665737
 20
78.0027622745
 30
0.0
 40
4.000000000000014
100
AcDbArc
 50
180.0
 51
270.0
  0
LINE
  5
20C
330
1F
100
AcDbEntity
  8
0
  6
Continuous
 62
     7
370
    25
100
AcDbLine
 10
207.2241665737
 20
74.0027622745
 30
0.0
 11
114.2241665737
 21
74.0027622745
 31
0.0
  0
LINE
  5
20D
330
1F
100
AcDbEntity
  8
0
  6
Continuous
 62
     7
370
    25
100
AcDbLine
 10
207.2241665737
 20
69.0027622745
 30
0.0
 11
207.2241665737
 21
74.0027622745
 31
0.0
  0
LINE
  5
20E
330
1F
100
AcDbEntity
  8
0
  6
Continuous
 62
     7
370
    25
100
AcDbLine
 10
114.2241665737
 20
69.0027622745
 30
0.0
 11
207.2241665737
 21
69.0027622745
 31
0.0
  0
ARC
  5
20F
330
1F
100
AcDbEntity
  8
0
  6
Continuous
 62
     7
370
    25
100
AcDbCircle
 10
114.2241665737
 20
78.0027622745
 30
0.0
 40
9.0
100
AcDbArc
 50
180.0
 51
270.0
  0
LINE
  5
210
330
1F
100
AcDbEntity
  8
0
  6
Continuous
 62
     7
370
    25
100
AcDbLine
 10
105.2241665737
 20
171.0027622745
 30
0.0
 11
105.2241665737
 21
78.0027622745
 31
0.0
  0
LINE
  5
211
330
1F
100
AcDbEntity
  8
0
  6
Continuous
 62
     7
370
    25
100
AcDbLine
 10
110.2241665737
 20
78.0027622745
 30
0.0
 11
110.2241665737
 21
171.0027622745
 31
0.0
  0
LINE
  5
212
330
1F
100
AcDbEntity
  8
0
  6
Continuous
 62
     7
370
    25
100
AcDbLine
 10
104.2241665737
 20
171.0027622745
 30
0.0
 11
105.2241665737
 21
171.0027622745
 31
0.0
  0
LINE
  5
213
330
1F
100
AcDbEntity
  8
0
  6
Continuous
 62
     7
370
    25
100
AcDbLine
 10
105.2241665737
 20
172.0027622745
 30
0.0
 11
104.2241665737
 21
171.0027622745
 31
0.0
  0
LINE
  5
214
330
1F
100
AcDbEntity
  8
0
  6
Continuous
 62
     7
370
    25
100
AcDbLine
 10
104.2241665737
 20
78.0027622745
 30
0.0
 11
104.2241665737
 21
171.0027622745
 31
0.0
  0
LINE
  5
215
330
1F
100
AcDbEntity
  8
0
  6
Continuous
 62
     7
370
    25
100
AcDbLine
 10
104.2241665737
 20
78.0027622745
 30
0.0
 11
105.2241665737
 21
78.0027622745
 31
0.0
  0
ARC
  5
216
330
1F
100
AcDbEntity
  8
0
  6
Continuous
 62
     7
370
    25
100
AcDbCircle
 10
114.2241665737
 20
78.0027622745
 30
0.0
 40
10.00000000000001
100
AcDbArc
 50
180.0
 51
270.0
  0
LINE
  5
217
330
1F
100
AcDbEntity
  8
0
  6
Continuous
 62
     7
370
    25
100
AcDbLine
 10
114.2241665737
 20
68.0027622745
 30
0.0
 11
114.2241665737
 21
69.0027622745
 31
0.0
  0
LINE
  5
218
330
1F
100
AcDbEntity
  8
0
  6
Continuous
 62
     7
370
    25
100
AcDbLine
 10
208.2241665737
 20
74.0027622745
 30
0.0
 11
208.2241665737
 21
69.0027622745
 31
0.0
  0
LINE
  5
219
330
1F
100
AcDbEntity
  8
0
  6
Continuous
 62
     7
370
    25
100
AcDbLine
 10
208.2241665737
 20
69.0027622745
 30
0.0
 11
207.2241665737
 21
69.0027622745
 31
0.0
  0
LINE
  5
21A
330
1F
100
AcDbEntity
  8
0
  6
Continuous
 62
     7
370
    25
100
AcDbLine
 10
207.2241665737
 20
74.0027622745
 30
0.0
 11
208.2241665737
 21
74.0027622745
 31
0.0
  0
LINE
  5
21B
330
1F
100
AcDbEntity
  8
0
  6
Continuous
 62
     7
370
    25
100
AcDbLine
 10
207.2241665737
 20
68.0027622745
 30
0.0
 11
114.2241665737
 21
68.0027622745
 31
0.0
  0
LINE
  5
21C
330
1F
100
AcDbEntity
  8
0
  6
Continuous
 62
     7
370
    25
100
AcDbLine
 10
207.2241665737
 20
68.0027622745
 30
0.0
 11
207.2241665737
 21
69.0027622745
 31
0.0
  0
LINE
  5
21D
330
1F
100
AcDbEntity
  8
0
  6
Continuous
 62
     7
370
    25
100
AcDbLine
 10
207.2241665737
 20
68.0027622745
 30
0.0
 11
208.2241665737
 21
69.0027622745
 31
0.0
  0
DIMENSION
  5
21E
330
1F
100
AcDbEntity
  8
0
100
AcDbDimension
  2
_D_1
 10
218.2241665737
 20
146.0027622745
 30
0.0
 11
218.2241665737
 21
112.0027622745
 31
0.0
 70
   160
  1
<>
 71
     2
 42
-1.0
  3
SLDDIMSTYLE0
100
AcDbAlignedDimension
 13
199.7241665737
 23
78.0027622745
 33
0.0
 14
123.7241665737
 24
146.0027622745
 34
0.0
 50
90.0
100
AcDbRotatedDimension
  0
DIMENSION
  5
235
330
1F
100
AcDbEntity
  8
0
100
AcDbDimension
  2
_D_2
 10
182.2241665737
 20
176.1767939894
 30
0.0
 11
148.2241665737
 21
176.1767939894
 31
0.0
 70
   160
  1
<>
 71
     2
 42
-1.0
  3
SLDDIMSTYLE0
100
AcDbAlignedDimension
 13
114.2241665737
 23
163.5027622745
 33
0.0
 14
182.2241665737
 24
87.5027622745
 34
0.0
100
AcDbRotatedDimension
  0
DIMENSION
  5
24C
330
1F
100
AcDbEntity
  8
0
100
AcDbDimension
  2
_D_3
 10
191.1741665737
 20
46.0027622745
 30
0.0
 11
209.7266545304
 21
46.0027622745
 31
0.0
 70
   160
  1
%%c<>
 71
     2
 42
-1.0
  3
SLDDIMSTYLE0
100
AcDbAlignedDimension
 13
173.2741665737
 23
78.0027622745
 33
0.0
 14
191.1741665737
 24
78.0027622745
 34
0.0
100
AcDbRotatedDimension
  0
DIMENSION
  5
262
330
1F
100
AcDbEntity
  8
0
100
AcDbDimension
  2
_D_4
 10
88.2241665737
 20
154.9527622745
 30
0.0
 11
88.2241665737
 21
168.6651169608
 31
0.0
 70
   160
  1
%%c<>
 71
     2
 42
-1.0
  3
SLDDIMSTYLE0
100
AcDbAlignedDimension
 13
114.2241665737
 23
137.0527622745
 33
0.0
 14
114.2241665737
 24
154.9527622745
 34
0.0
 50
90.0
100
AcDbRotatedDimension
  0
LINE
  5
278
330
1F
100
AcDbEntity
  8
0
  6
CENTERX2
370
    18
100
AcDbLine
 10
182.2241665737
 20
87.5027622745
 30
0.0
 11
182.2241665737
 21
76.0027622745
 31
0.0
  0
LINE
  5
279
330
1F
100
AcDbEntity
  8
0
  6
CENTERX2
370
    18
100
AcDbLine
 10
123.7241665737
 20
146.0027622745
 30
0.0
 11
112.2241665737
 21
146.0027622745
 31
0.0
  0
ENDSEC
  0
SECTION
  2
OBJECTS
  0
DICTIONARY
  5
C
330
0
100
AcDbDictionary
281
     1
  3
ACAD_GROUP
350
D
  3
ACAD_LAYOUT
350
1A
  3
ACAD_MLINESTYLE
350
17
  3
ACAD_PLOTSETTINGS
350
19
  3
ACAD_PLOTSTYLENAME
350
E
  3
ACAD_SCALELIST
350
47
  0
DICTIONARY
  5
D
102
{ACAD_REACTORS
330
C
102
}
330
C
100
AcDbDictionary
281
     1
  0
DICTIONARY
  5
1A
102
{ACAD_REACTORS
330
C
102
}
330
C
100
AcDbDictionary
281
     1
  3
Layout1
350
1E
  3
Layout2
350
26
  3
Model
350
22
  0
DICTIONARY
  5
17
102
{ACAD_REACTORS
330
C
102
}
330
C
100
AcDbDictionary
281
     1
  3
Standard
350
18
  0
DICTIONARY
  5
19
102
{ACAD_REACTORS
330
C
102
}
330
C
100
AcDbDictionary
281
     1
  0
ACDBDICTIONARYWDFLT
  5
E
102
{ACAD_REACTORS
330
C
102
}
330
C
100
AcDbDictionary
281
     1
  3
Normal
350
F
100
AcDbDictionaryWithDefault
340
F
  0
DICTIONARY
  5
47
102
{ACAD_REACTORS
330
C
102
}
330
C
100
AcDbDictionary
281
     1
  3
A0
350
48
  3
A1
350
49
  3
A2
350
4A
  3
A3
350
4B
  3
A4
350
4C
  3
A5
350
4D
  3
A6
350
4E
  3
A7
350
4F
  3
A8
350
50
  3
A9
350
51
  3
B0
350
52
  3
B1
350
53
  3
B2
350
54
  3
B3
350
55
  3
B4
350
56
  3
B5
350
57
  3
B6
350
58
  3
B7
350
59
  3
B8
350
5A
  3
B9
350
5B
  3
C0
350
5C
  3
C1
350
5D
  3
C2
350
5E
  3
C3
350
5F
  3
C4
350
60
  3
C5
350
61
  3
C6
350
62
  3
C7
350
63
  3
C8
350
64
  3
C9
350
65
  3
D0
350
66
  3
D1
350
67
  3
D2
350
68
  0
LAYOUT
  5
1E
102
{ACAD_REACTORS
330
1A
102
}
330
1A
100
AcDbPlotSettings
  1

  2
none_device
  4

  6

 40
0.0
 41
0.0
 42
0.0
 43
0.0
 44
0.0
 45
0.0
 46
0.0
 47
0.0
 48
0.0
 49
0.0
140
0.0
141
0.0
142
1.0
143
1.0
 70
   688
 72
     1
 73
     0
 74
     5
  7

 75
    16
147
1.0
148
0.0
149
0.0
100
AcDbLayout
  1
Layout1
 70
     1
 71
     1
 10
0.0
 20
0.0
 11
420.0
 21
297.0
 12
0.0
 22
0.0
 32
0.0
 14
1.0000000000E+20
 24
1.0000000000E+20
 34
1.0000000000E+20
 15
-1.0000000000E+20
 25
-1.0000000000E+20
 35
-1.0000000000E+20
146
0.0
 13
0.0
 23
0.0
 33
0.0
 16
1.0
 26
0.0
 36
0.0
 17
0.0
 27
1.0
 37
0.0
 76
     0
330
1B
  0
LAYOUT
  5
26
102
{ACAD_REACTORS
330
1A
102
}
330
1A
100
AcDbPlotSettings
  1

  2
none_device
  4

  6

 40
0.0
 41
0.0
 42
0.0
 43
0.0
 44
0.0
 45
0.0
 46
0.0
 47
0.0
 48
0.0
 49
0.0
140
0.0
141
0.0
142
1.0
143
1.0
 70
   688
 72
     1
 73
     0
 74
     5
  7

 75
    16
147
1.0
148
0.0
149
0.0
100
AcDbLayout
  1
Layout2
 70
     1
 71
     2
 10
0.0
 20
0.0
 11
0.0
 21
0.0
 12
0.0
 22
0.0
 32
0.0
 14
0.0
 24
0.0
 34
0.0
 15
0.0
 25
0.0
 35
0.0
146
0.0
 13
0.0
 23
0.0
 33
0.0
 16
1.0
 26
0.0
 36
0.0
 17
0.0
 27
1.0
 37
0.0
 76
     0
330
23
  0
LAYOUT
  5
22
102
{ACAD_REACTORS
330
1A
102
}
330
1A
100
AcDbPlotSettings
  1

  2
none_device
  4
Letter_(8.50_x_11.00_Inches)
  6

 40
6.35
 41
6.35
 42
6.35000508
 43
6.35000508
 44
215.9
 45
279.4
 46
0.0
 47
0.0
 48
0.0
 49
0.0
140
0.0
141
0.0
142
1.0
143
1.0
 70
  1712
 72
     1
 73
     0
 74
     0
  7

 75
     0
147
1.0
148
0.0
149
0.0
100
AcDbLayout
  1
Model
 70
     1
 71
     0
 10
0.0
 20
0.0
 11
431.8
 21
279.4
 12
0.0
 22
0.0
 32
0.0
 14
0.0
 24
0.0
 34
0.0
 15
431.8
 25
279.4
 35
0.0
146
0.0
 13
0.0
 23
0.0
 33
0.0
 16
1.0
 26
0.0
 36
0.0
 17
0.0
 27
1.0
 37
0.0
 76
     0
330
1F
331
29
  0
MLINESTYLE
  5
18
102
{ACAD_REACTORS
330
17
102
}
330
17
100
AcDbMlineStyle
  2
Standard
 70
     0
  3

 62
   256
 51
90.0
 52
90.0
 71
     2
 49
0.5
 62
   256
  6
BYLAYER
 49
-0.5
 62
   256
  6
BYLAYER
  0
ACDBPLACEHOLDER
  5
F
102
{ACAD_REACTORS
330
E
102
}
330
E
  0
SCALE
  5
48
102
{ACAD_REACTORS
330
47
102
}
330
47
100
AcDbScale
 70
     0
300
1:1
140
1.0
141
1.0
290
     1
  0
SCALE
  5
49
102
{ACAD_REACTORS
330
47
102
}
330
47
100
AcDbScale
 70
     0
300
1:2
140
1.0
141
2.0
290
     0
  0
SCALE
  5
4A
102
{ACAD_REACTORS
330
47
102
}
330
47
100
AcDbScale
 70
     0
300
1:4
140
1.0
141
4.0
290
     0
  0
SCALE
  5
4B
102
{ACAD_REACTORS
330
47
102
}
330
47
100
AcDbScale
 70
     0
300
1:5
140
1.0
141
5.0
290
     0
  0
SCALE
  5
4C
102
{ACAD_REACTORS
330
47
102
}
330
47
100
AcDbScale
 70
     0
300
1:8
140
1.0
141
8.0
290
     0
  0
SCALE
  5
4D
102
{ACAD_REACTORS
330
47
102
}
330
47
100
AcDbScale
 70
     0
300
1:10
140
1.0
141
10.0
290
     0
  0
SCALE
  5
4E
102
{ACAD_REACTORS
330
47
102
}
330
47
100
AcDbScale
 70
     0
300
1:16
140
1.0
141
16.0
290
     0
  0
SCALE
  5
4F
102
{ACAD_REACTORS
330
47
102
}
330
47
100
AcDbScale
 70
     0
300
1:20
140
1.0
141
20.0
290
     0
  0
SCALE
  5
50
102
{ACAD_REACTORS
330
47
102
}
330
47
100
AcDbScale
 70
     0
300
1:30
140
1.0
141
30.0
290
     0
  0
SCALE
  5
51
102
{ACAD_REACTORS
330
47
102
}
330
47
100
AcDbScale
 70
     0
300
1:40
140
1.0
141
40.0
290
     0
  0
SCALE
  5
52
102
{ACAD_REACTORS
330
47
102
}
330
47
100
AcDbScale
 70
     0
300
1:50
140
1.0
141
50.0
290
     0
  0
SCALE
  5
53
102
{ACAD_REACTORS
330
47
102
}
330
47
100
AcDbScale
 70
     0
300
1:100
140
1.0
141
100.0
290
     0
  0
SCALE
  5
54
102
{ACAD_REACTORS
330
47
102
}
330
47
100
AcDbScale
 70
     0
300
2:1
140
2.0
141
1.0
290
     0
  0
SCALE
  5
55
102
{ACAD_REACTORS
330
47
102
}
330
47
100
AcDbScale
 70
     0
300
4:1
140
4.0
141
1.0
290
     0
  0
SCALE
  5
56
102
{ACAD_REACTORS
330
47
102
}
330
47
100
AcDbScale
 70
     0
300
8:1
140
8.0
141
1.0
290
     0
  0
SCALE
  5
57
102
{ACAD_REACTORS
330
47
102
}
330
47
100
AcDbScale
 70
     0
300
10:1
140
10.0
141
1.0
290
     0
  0
SCALE
  5
58
102
{ACAD_REACTORS
330
47
102
}
330
47
100
AcDbScale
 70
     0
300
100:1
140
100.0
141
1.0
290
     0
  0
SCALE
  5
59
102
{ACAD_REACTORS
330
47
102
}
330
47
100
AcDbScale
 70
     0
300
1/128" = 1'-0"
140
0.0078125
141
12.0
290
     0
  0
SCALE
  5
5A
102
{ACAD_REACTORS
330
47
102
}
330
47
100
AcDbScale
 70
     0
300
1/64" = 1'-0"
140
0.015625
141
12.0
290
     0
  0
SCALE
  5
5B
102
{ACAD_REACTORS
330
47
102
}
330
47
100
AcDbScale
 70
     0
300
1/32" = 1'-0"
140
0.03125
141
12.0
290
     0
  0
SCALE
  5
5C
102
{ACAD_REACTORS
330
47
102
}
330
47
100
AcDbScale
 70
     0
300
1/16" = 1'-0"
140
0.0625
141
12.0
290
     0
  0
SCALE
  5
5D
102
{ACAD_REACTORS
330
47
102
}
330
47
100
AcDbScale
 70
     0
300
3/32" = 1'-0"
140
0.09375
141
12.0
290
     0
  0
SCALE
  5
5E
102
{ACAD_REACTORS
330
47
102
}
330
47
100
AcDbScale
 70
     0
300
1/8" = 1'-0"
140
0.125
141
12.0
290
     0
  0
SCALE
  5
5F
102
{ACAD_REACTORS
330
47
102
}
330
47
100
AcDbScale
 70
     0
300
3/16" = 1'-0"
140
0.1875
141
12.0
290
     0
  0
SCALE
  5
60
102
{ACAD_REACTORS
330
47
102
}
330
47
100
AcDbScale
 70
     0
300
1/4" = 1'-0"
140
0.25
141
12.0
290
     0
  0
SCALE
  5
61
102
{ACAD_REACTORS
330
47
102
}
330
47
100
AcDbScale
 70
     0
300
3/8" = 1'-0"
140
0.375
141
12.0
290
     0
  0
SCALE
  5
62
102
{ACAD_REACTORS
330
47
102
}
330
47
100
AcDbScale
 70
     0
300
1/2" = 1'-0"
140
0.5
141
12.0
290
     0
  0
SCALE
  5
63
102
{ACAD_REACTORS
330
47
102
}
330
47
100
AcDbScale
 70
     0
300
3/4" = 1'-0"
140
0.75
141
12.0
290
     0
  0
SCALE
  5
64
102
{ACAD_REACTORS
330
47
102
}
330
47
100
AcDbScale
 70
     0
300
1" = 1'-0"
140
1.0
141
12.0
290
     0
  0
SCALE
  5
65
102
{ACAD_REACTORS
330
47
102
}
330
47
100
AcDbScale
 70
     0
300
1-1/2" = 1'-0"
140
1.5
141
12.0
290
     0
  0
SCALE
  5
66
102
{ACAD_REACTORS
330
47
102
}
330
47
100
AcDbScale
 70
     0
300
3" = 1'-0"
140
3.0
141
12.0
290
     0
  0
SCALE
  5
67
102
{ACAD_REACTORS
330
47
102
}
330
47
100
AcDbScale
 70
     0
300
6" = 1'-0"
140
6.0
141
12.0
290
     0
  0
SCALE
  5
68
102
{ACAD_REACTORS
330
47
102
}
330
47
100
AcDbScale
 70
     0
300
1'-0" = 1'-0"
140
12.0
141
12.0
290
     0
  0
ENDSEC
  0
EOF
